<?xml version="1.0" standalone="no"?>
<!DOCTYPE svg PUBLIC "-//W3C//DTD SVG 1.1//EN" "http://www.w3.org/Graphics/SVG/1.1/DTD/svg11.dtd" >
<svg xmlns="http://www.w3.org/2000/svg" xmlns:xlink="http://www.w3.org/1999/xlink" version="1.1">
<metadata>
Created by FontForge 20201107 at Thu Jul 22 16:12:06 2021
 By Unknown
Copyright 2018 The Crimson Pro Project Authors (https://github.com/Fonthausen/CrimsonPro)
</metadata>
<defs>
<font id="CrimsonPro-Bold" horiz-adv-x="0" >
  <font-face 
    font-family="Crimson Pro"
    font-weight="700"
    font-stretch="normal"
    units-per-em="1024"
    panose-1="0 0 0 0 0 0 0 0 0 0"
    ascent="819"
    descent="-205"
    x-height="439"
    cap-height="587"
    bbox="-115 -291 1232 990"
    underline-thickness="50"
    underline-position="-125"
    unicode-range="U+000D-FB02"
  />
<missing-glyph horiz-adv-x="512" 
d="M51 -220v888h410v-888h-410zM102 -169h308v786h-308v-786z" />
    <glyph glyph-name="f_i" unicode="fi" horiz-adv-x="598" 
d="M22 0l-3 46l62 17q1 3 1.5 19t1 46.5t0.5 75.5v257q0 67 32.5 120.5t93.5 85t148 31.5q82 0 131 -27.5t49 -68.5q0 -26 -16 -39.5t-38 -13.5q-21 0 -36.5 7t-34.5 25l-105 91l63 -32q-48 8 -83.5 -8.5t-54.5 -53.5t-19 -94v-46v-205q0 -55 1 -89t2.5 -52.5t1.5 -28.5
l63 -17l-3 -46h-257zM319 0l-3 47l63 16q2 10 3 28t1.5 38t0.5 34l1 107q1 32 -1.5 55.5t-6.5 49.5h-366v46l73 20l60 -3h287q22 0 44.5 1t44.5 4q-2 -39 -3.5 -73t-1.5 -79v-127q0 -19 0.5 -40t2 -38t2.5 -23l66 -16l-3 -47h-264z" />
    <glyph glyph-name="f_l" unicode="fl" horiz-adv-x="622" 
d="M298 0h-275l-3 46l62 17q1 17 1.5 32.5t0.5 34.5v47.5v73.5l-1 124v94q0 66 25 118t68 81.5t98 29.5q50 0 82.5 -20.5t32.5 -53.5q0 -21 -12.5 -32t-34.5 -11q-28 0 -58 25l-57 53l43 -6q-29 0 -44.5 -35.5t-15.5 -103.5v-76l2 -63l1 -122q0 -50 2 -102t4 -88l82 -17z
M11 374v46l72 20l59 -3h175v-63h-306zM340 0l-3 47l65 16q1 11 2.5 38.5t2.5 63.5t1 70v126q0 35 -0.5 69.5t-1 66t-1.5 57t-3 41.5l-74 10l-2 43l191 49l28 -17q-2 -42 -3.5 -81.5t-1.5 -89.5t-1 -122l-1 -147q0 -70 1.5 -118.5t3.5 -58.5l65 -16l-2 -47h-266z" />
    <glyph glyph-name=".notdef" horiz-adv-x="512" 
d="M51 -220v888h410v-888h-410zM102 -169h308v786h-308v-786z" />
    <glyph glyph-name="A" unicode="A" horiz-adv-x="609" 
d="M-1 0l-3 50l52 16l203 492l83 47l231 -539l51 -16l-3 -50h-266l-4 50l64 16l-54 129l-11 34l-100 237l29 -8l-83 -226l-10 -30l-47 -136l64 -16l-3 -50h-193zM155 170v68q19 -1 44.5 -2.5t67.5 -1.5q40 0 66.5 1.5t45.5 2.5v-67q-19 0 -46 1t-66 1q-41 0 -67 -1t-45 -2z
" />
    <glyph glyph-name="Aacute" unicode="&#xc1;" horiz-adv-x="609" 
d="M-1 0l-3 50l52 16l203 492l83 47l231 -539l51 -16l-3 -50h-266l-4 50l64 16l-54 129l-11 34l-100 237l29 -8l-83 -226l-10 -30l-47 -136l64 -16l-3 -50h-193zM155 170v68q19 -1 44.5 -2.5t67.5 -1.5q40 0 66.5 1.5t45.5 2.5v-67q-19 0 -46 1t-66 1q-41 0 -67 -1t-45 -2z
M323 631l-62 20l93 133l116 -23z" />
    <glyph glyph-name="Abreve" unicode="&#x102;" horiz-adv-x="609" 
d="M-1 0l-3 50l52 16l203 492l83 47l231 -539l51 -16l-3 -50h-266l-4 50l64 16l-54 129l-11 34l-100 237l29 -8l-83 -226l-10 -30l-47 -136l64 -16l-3 -50h-193zM155 170v68q19 -1 44.5 -2.5t67.5 -1.5q40 0 66.5 1.5t45.5 2.5v-67q-19 0 -46 1t-66 1q-41 0 -67 -1t-45 -2z
M420 779l58 -20q-12 -54 -63 -85t-122 -31t-123 31t-64 85l64 20q12 -25 45.5 -41t81.5 -16q47 0 80 16t43 41z" />
    <glyph glyph-name="uni1EAE" unicode="&#x1eae;" horiz-adv-x="609" 
d="M-1 0l-3 50l52 16l203 492l83 47l231 -539l51 -16l-3 -50h-266l-4 50l64 16l-54 129l-11 34l-100 237l29 -8l-83 -226l-10 -30l-47 -136l64 -16l-3 -50h-193zM155 170v68q19 -1 44.5 -2.5t67.5 -1.5q40 0 66.5 1.5t45.5 2.5v-67q-19 0 -46 1t-66 1q-41 0 -67 -1t-45 -2z
M311 750l-62 20l94 133l116 -23zM420 779l58 -20q-12 -54 -63 -85t-122 -31t-123 31t-64 85l64 20q12 -25 45.5 -41t81.5 -16q47 0 80 16t43 41z" />
    <glyph glyph-name="uni1EB6" unicode="&#x1eb6;" horiz-adv-x="609" 
d="M-1 0l-3 50l52 16l203 492l83 47l231 -539l51 -16l-3 -50h-266l-4 50l64 16l-54 129l-11 34l-100 237l29 -8l-83 -226l-10 -30l-47 -136l64 -16l-3 -50h-193zM155 170v68q19 -1 44.5 -2.5t67.5 -1.5q40 0 66.5 1.5t45.5 2.5v-67q-19 0 -46 1t-66 1q-41 0 -67 -1t-45 -2z
M270 -211q-36 0 -56 22t-20 50q0 29 20 50.5t56 21.5t55 -21.5t19 -50.5q0 -28 -19 -50t-55 -22zM420 779l58 -20q-12 -54 -63 -85t-122 -31t-123 31t-64 85l64 20q12 -25 45.5 -41t81.5 -16q47 0 80 16t43 41z" />
    <glyph glyph-name="uni1EB0" unicode="&#x1eb0;" horiz-adv-x="609" 
d="M-1 0l-3 50l52 16l203 492l83 47l231 -539l51 -16l-3 -50h-266l-4 50l64 16l-54 129l-11 34l-100 237l29 -8l-83 -226l-10 -30l-47 -136l64 -16l-3 -50h-193zM155 170v68q19 -1 44.5 -2.5t67.5 -1.5q40 0 66.5 1.5t45.5 2.5v-67q-19 0 -46 1t-66 1q-41 0 -67 -1t-45 -2z
M293 643q-71 0 -123 31t-64 85l64 20q12 -25 45.5 -41t81.5 -16q47 0 80 16t43 41l58 -20q-12 -54 -63 -85t-122 -31zM273 750l-148 130l116 23l94 -133z" />
    <glyph glyph-name="uni1EB2" unicode="&#x1eb2;" horiz-adv-x="609" 
d="M-1 0l-3 50l52 16l203 492l83 47l231 -539l51 -16l-3 -50h-266l-4 50l64 16l-54 129l-11 34l-100 237l29 -8l-83 -226l-10 -30l-47 -136l64 -16l-3 -50h-193zM155 170v68q19 -1 44.5 -2.5t67.5 -1.5q40 0 66.5 1.5t45.5 2.5v-67q-19 0 -46 1t-66 1q-41 0 -67 -1t-45 -2z
M293 903q50 0 79.5 -16t29.5 -48q0 -21 -13.5 -33.5t-30.5 -21t-30.5 -16.5t-13.5 -20h-44v14q0 17 11 30t22 25t11 25q0 20 -14.5 24t-41.5 -3l41 15l-40 -43q-9 -9 -17.5 -13.5t-21.5 -4.5q-14 0 -22.5 7.5t-8.5 20.5q0 22 28 40t76 18zM293 643q-71 0 -123 31t-64 85
l64 20q12 -25 45.5 -41t81.5 -16q47 0 80 16t43 41l58 -20q-12 -54 -63 -85t-122 -31z" />
    <glyph glyph-name="uni1EB4" unicode="&#x1eb4;" horiz-adv-x="609" 
d="M-1 0l-3 50l52 16l203 492l83 47l231 -539l51 -16l-3 -50h-266l-4 50l64 16l-54 129l-11 34l-100 237l29 -8l-83 -226l-10 -30l-47 -136l64 -16l-3 -50h-193zM155 170v68q19 -1 44.5 -2.5t67.5 -1.5q40 0 66.5 1.5t45.5 2.5v-67q-19 0 -46 1t-66 1q-41 0 -67 -1t-45 -2z
M293 643q-71 0 -123 31t-64 85l64 20q12 -25 45.5 -41t82.5 -16q46 0 79 16t43 41l58 -20q-12 -54 -63 -85t-122 -31zM361 788q-25 0 -53.5 8.5t-54.5 17t-47 8.5q-19 0 -33.5 -9t-28.5 -24l-39 23q16 43 47 67t71 24q25 0 53 -8t55 -17t47 -9q19 0 33.5 8.5t28.5 24.5
l39 -23q-16 -44 -46.5 -67.5t-71.5 -23.5z" />
    <glyph glyph-name="Acircumflex" unicode="&#xc2;" horiz-adv-x="609" 
d="M-1 0l-3 50l52 16l203 492l83 47l231 -539l51 -16l-3 -50h-266l-4 50l64 16l-54 129l-11 34l-100 237l29 -8l-83 -226l-10 -30l-47 -136l64 -16l-3 -50h-193zM155 170v68q19 -1 44.5 -2.5t67.5 -1.5q40 0 66.5 1.5t45.5 2.5v-67q-19 0 -46 1t-66 1q-41 0 -67 -1t-45 -2z
M482 668l-49 -31l-174 84h66l-174 -84l-49 31l137 102h106z" />
    <glyph glyph-name="uni1EA4" unicode="&#x1ea4;" horiz-adv-x="609" 
d="M-1 0l-3 50l52 16l203 492l83 47l231 -539l51 -16l-3 -50h-266l-4 50l64 16l-54 129l-11 34l-100 237l29 -8l-83 -226l-10 -30l-47 -136l64 -16l-3 -50h-193zM155 170v68q19 -1 44.5 -2.5t67.5 -1.5q40 0 66.5 1.5t45.5 2.5v-67q-19 0 -46 1t-66 1q-41 0 -67 -1t-45 -2z
M447 748l-59 20l67 135l117 -23zM482 668l-49 -31l-174 84h66l-174 -84l-49 31l137 102h106z" />
    <glyph glyph-name="uni1EAC" unicode="&#x1eac;" horiz-adv-x="609" 
d="M-1 0l-3 50l52 16l203 492l83 47l231 -539l51 -16l-3 -50h-266l-4 50l64 16l-54 129l-11 34l-100 237l29 -8l-83 -226l-10 -30l-47 -136l64 -16l-3 -50h-193zM155 170v68q19 -1 44.5 -2.5t67.5 -1.5q40 0 66.5 1.5t45.5 2.5v-67q-19 0 -46 1t-66 1q-41 0 -67 -1t-45 -2z
M270 -211q-36 0 -56 22t-20 50q0 29 20 50.5t56 21.5t55 -21.5t19 -50.5q0 -28 -19 -50t-55 -22zM482 668l-49 -31l-174 84h66l-174 -84l-49 31l137 102h106z" />
    <glyph glyph-name="uni1EA6" unicode="&#x1ea6;" horiz-adv-x="609" 
d="M-1 0l-3 50l52 16l203 492l83 47l231 -539l51 -16l-3 -50h-266l-4 50l64 16l-54 129l-11 34l-100 237l29 -8l-83 -226l-10 -30l-47 -136l64 -16l-3 -50h-193zM155 170v68q19 -1 44.5 -2.5t67.5 -1.5q40 0 66.5 1.5t45.5 2.5v-67q-19 0 -46 1t-66 1q-41 0 -67 -1t-45 -2z
M437 748l-126 132l117 23l67 -135zM482 668l-49 -31l-174 84h66l-174 -84l-49 31l137 102h106z" />
    <glyph glyph-name="uni1EA8" unicode="&#x1ea8;" horiz-adv-x="609" 
d="M-1 0l-3 50l52 16l203 492l83 47l231 -539l51 -16l-3 -50h-266l-4 50l64 16l-54 129l-11 34l-100 237l29 -8l-83 -226l-10 -30l-47 -136l64 -16l-3 -50h-193zM155 170v68q19 -1 44.5 -2.5t67.5 -1.5q40 0 66.5 1.5t45.5 2.5v-67q-19 0 -46 1t-66 1q-41 0 -67 -1t-45 -2z
M482 668l-49 -31l-174 84h66l-174 -84l-49 31l137 102h106zM436 903q50 0 79.5 -16t29.5 -48q0 -21 -13 -33.5t-30.5 -21t-31 -16.5t-13.5 -20h-44v14q0 17 11 30t22 25t11 25q0 20 -14.5 24t-41.5 -3l41 15l-40 -43q-9 -9 -18 -13.5t-21 -4.5q-14 0 -22.5 7.5t-8.5 20.5
q0 22 28.5 40t75.5 18z" />
    <glyph glyph-name="uni1EAA" unicode="&#x1eaa;" horiz-adv-x="609" 
d="M-1 0l-3 50l52 16l203 492l83 47l231 -539l51 -16l-3 -50h-266l-4 50l64 16l-54 129l-11 34l-100 237l29 -8l-83 -226l-10 -30l-47 -136l64 -16l-3 -50h-193zM155 170v68q19 -1 44.5 -2.5t67.5 -1.5q40 0 66.5 1.5t45.5 2.5v-67q-19 0 -46 1t-66 1q-41 0 -67 -1t-45 -2z
M151 637l-49 31l137 102h106l137 -102l-49 -31l-174 84h66zM361 788q-25 0 -53.5 8.5t-54.5 17t-47 8.5q-19 0 -33.5 -9t-28.5 -24l-39 23q16 43 47 67t71 24q25 0 53 -8t55 -17t47 -9q19 0 33.5 8.5t28.5 24.5l39 -23q-16 -44 -46.5 -67.5t-71.5 -23.5z" />
    <glyph glyph-name="uni0200" unicode="&#x200;" horiz-adv-x="609" 
d="M-1 0l-3 50l52 16l203 492l83 47l231 -539l51 -16l-3 -50h-266l-4 50l64 16l-54 129l-11 34l-100 237l29 -8l-83 -226l-10 -30l-47 -136l64 -16l-3 -50h-193zM155 170v68q19 -1 44.5 -2.5t67.5 -1.5q40 0 66.5 1.5t45.5 2.5v-67q-19 0 -46 1t-66 1q-41 0 -67 -1t-45 -2z
M339 637l-81 123l91 19l43 -124zM192 637l-80 123l91 19l42 -124z" />
    <glyph glyph-name="Adieresis" unicode="&#xc4;" horiz-adv-x="609" 
d="M-1 0l-3 50l52 16l203 492l83 47l231 -539l51 -16l-3 -50h-266l-4 50l64 16l-54 129l-11 34l-100 237l29 -8l-83 -226l-10 -30l-47 -136l64 -16l-3 -50h-193zM155 170v68q19 -1 44.5 -2.5t67.5 -1.5q40 0 66.5 1.5t45.5 2.5v-67q-19 0 -46 1t-66 1q-41 0 -67 -1t-45 -2z
M180 645q-33 0 -51.5 20t-18.5 45q0 26 18.5 45.5t51.5 19.5q32 0 50 -19.5t18 -45.5q0 -25 -18 -45t-50 -20zM406 645q-33 0 -51.5 20t-18.5 45q0 26 18.5 45.5t51.5 19.5t50.5 -19.5t17.5 -45.5q0 -25 -17.5 -45t-50.5 -20z" />
    <glyph glyph-name="uni0226" unicode="&#x226;" horiz-adv-x="609" 
d="M-1 0l-3 50l52 16l203 492l83 47l231 -539l51 -16l-3 -50h-266l-4 50l64 16l-54 129l-11 34l-100 237l29 -8l-83 -226l-10 -30l-47 -136l64 -16l-3 -50h-193zM155 170v68q19 -1 44.5 -2.5t67.5 -1.5q40 0 66.5 1.5t45.5 2.5v-67q-19 0 -46 1t-66 1q-41 0 -67 -1t-45 -2z
M293 638q-36 0 -56 22t-20 50q0 29 20 50.5t56 21.5t55 -21.5t19 -50.5q0 -28 -19 -50t-55 -22z" />
    <glyph glyph-name="uni1EA0" unicode="&#x1ea0;" horiz-adv-x="609" 
d="M-1 0l-3 50l52 16l203 492l83 47l231 -539l51 -16l-3 -50h-266l-4 50l64 16l-54 129l-11 34l-100 237l29 -8l-83 -226l-10 -30l-47 -136l64 -16l-3 -50h-193zM155 170v68q19 -1 44.5 -2.5t67.5 -1.5q40 0 66.5 1.5t45.5 2.5v-67q-19 0 -46 1t-66 1q-41 0 -67 -1t-45 -2z
M270 -211q-36 0 -56 22t-20 50q0 29 20 50.5t56 21.5t55 -21.5t19 -50.5q0 -28 -19 -50t-55 -22z" />
    <glyph glyph-name="Agrave" unicode="&#xc0;" horiz-adv-x="609" 
d="M-1 0l-3 50l52 16l203 492l83 47l231 -539l51 -16l-3 -50h-266l-4 50l64 16l-54 129l-11 34l-100 237l29 -8l-83 -226l-10 -30l-47 -136l64 -16l-3 -50h-193zM155 170v68q19 -1 44.5 -2.5t67.5 -1.5q40 0 66.5 1.5t45.5 2.5v-67q-19 0 -46 1t-66 1q-41 0 -67 -1t-45 -2z
M261 631l-147 130l116 23l93 -133z" />
    <glyph glyph-name="uni1EA2" unicode="&#x1ea2;" horiz-adv-x="609" 
d="M-1 0l-3 50l52 16l203 492l83 47l231 -539l51 -16l-3 -50h-266l-4 50l64 16l-54 129l-11 34l-100 237l29 -8l-83 -226l-10 -30l-47 -136l64 -16l-3 -50h-193zM155 170v68q19 -1 44.5 -2.5t67.5 -1.5q40 0 66.5 1.5t45.5 2.5v-67q-19 0 -46 1t-66 1q-41 0 -67 -1t-45 -2z
M293 819q50 0 79.5 -17.5t29.5 -49.5q0 -23 -13.5 -37t-30.5 -24t-30.5 -21.5t-13.5 -28.5h-44v17q0 25 11 42t22 31t11 27q0 20 -14.5 24t-41.5 -3l41 15l-40 -43q-9 -9 -17.5 -13.5t-21.5 -4.5q-14 0 -22.5 7.5t-8.5 20.5q0 22 28.5 40t75.5 18z" />
    <glyph glyph-name="uni0202" unicode="&#x202;" horiz-adv-x="609" 
d="M-1 0l-3 50l52 16l203 492l83 47l231 -539l51 -16l-3 -50h-266l-4 50l64 16l-54 129l-11 34l-100 237l29 -8l-83 -226l-10 -30l-47 -136l64 -16l-3 -50h-193zM155 170v68q19 -1 44.5 -2.5t67.5 -1.5q40 0 66.5 1.5t45.5 2.5v-67q-19 0 -46 1t-66 1q-41 0 -67 -1t-45 -2z
M164 637l-58 21q12 52 63 83.5t122 31.5t123 -31.5t64 -83.5l-64 -21q-11 26 -45 41.5t-82 15.5q-47 0 -80 -15.5t-43 -41.5z" />
    <glyph glyph-name="Amacron" unicode="&#x100;" horiz-adv-x="609" 
d="M-1 0l-3 50l52 16l203 492l83 47l231 -539l51 -16l-3 -50h-266l-4 50l64 16l-54 129l-11 34l-100 237l29 -8l-83 -226l-10 -30l-47 -136l64 -16l-3 -50h-193zM155 170v68q19 -1 44.5 -2.5t67.5 -1.5q40 0 66.5 1.5t45.5 2.5v-67q-19 0 -46 1t-66 1q-41 0 -67 -1t-45 -2z
M137 744h310v-71h-310v71z" />
    <glyph glyph-name="Aogonek" unicode="&#x104;" horiz-adv-x="609" 
d="M512 -223q-37 0 -66 13.5t-46 36t-17 51.5t20 55.5t54 47.5t75 31l11 -12h-196l-4 50l64 16l-54 129l-11 34l-100 235l31 -1l-85 -231l-10 -30l-47 -136l64 -16l-3 -50h-193l-3 50l52 16l203 492l83 47l231 -539l51 -16l-3 -50q-60 -13 -97 -44.5t-37 -68.5
q0 -25 14 -40.5t38 -15.5q16 0 33 9t35 26l28 -39q-21 -24 -50.5 -37t-64.5 -13zM155 170v68q19 -1 44.5 -2.5t67.5 -1.5q40 0 66.5 1.5t45.5 2.5v-67q-19 0 -46 1t-66 1q-41 0 -67 -1t-45 -2z" />
    <glyph glyph-name="Aring" unicode="&#xc5;" horiz-adv-x="609" 
d="M-1 0l-3 50l52 16l203 492l83 47l231 -539l51 -16l-3 -50h-266l-4 50l64 16l-54 129l-11 34l-100 237l29 -8l-83 -226l-10 -30l-47 -136l64 -16l-3 -50h-193zM155 170v68q19 -1 44.5 -2.5t67.5 -1.5q40 0 66.5 1.5t45.5 2.5v-67q-19 0 -46 1t-66 1q-41 0 -67 -1t-45 -2z
M293 637q-48 0 -80 30.5t-32 74.5t32 74.5t80 30.5t79 -30t31 -75t-31 -75t-79 -30zM294 681q25 0 41.5 17.5t16.5 43.5q0 28 -16.5 45t-41.5 17q-26 0 -43 -17.5t-17 -43.5t17 -44t43 -18z" />
    <glyph glyph-name="Aringacute" unicode="&#x1fa;" horiz-adv-x="609" 
d="M-1 0l-3 50l52 16l203 492l83 47l231 -539l51 -16l-3 -50h-266l-4 50l64 16l-54 129l-11 34l-100 237l29 -8l-83 -226l-10 -30l-47 -136l64 -16l-3 -50h-193zM155 170v68q19 -1 44.5 -2.5t67.5 -1.5q40 0 66.5 1.5t45.5 2.5v-67q-19 0 -46 1t-66 1q-41 0 -67 -1t-45 -2z
M293 637q-48 0 -80 30.5t-32 74.5t32 74.5t80 30.5t79 -30t31 -75t-31 -75t-79 -30zM294 681q25 0 41.5 17.5t16.5 43.5q0 28 -16.5 45t-41.5 17q-26 0 -43 -17.5t-17 -43.5t17 -44t43 -18zM373 787l-57 20l54 105l117 -23z" />
    <glyph glyph-name="Atilde" unicode="&#xc3;" horiz-adv-x="609" 
d="M-1 0l-3 50l52 16l203 492l83 47l231 -539l51 -16l-3 -50h-266l-4 50l64 16l-54 129l-11 34l-100 237l29 -8l-83 -226l-10 -30l-47 -136l64 -16l-3 -50h-193zM155 170v68q19 -1 44.5 -2.5t67.5 -1.5q40 0 66.5 1.5t45.5 2.5v-67q-19 0 -46 1t-66 1q-41 0 -67 -1t-45 -2z
M465 774l43 -24q-18 -52 -54.5 -80t-82.5 -28q-29 0 -61.5 11.5t-63.5 23t-54 11.5q-22 0 -39 -11t-34 -34l-43 26q19 50 55 78.5t82 28.5q30 0 62.5 -11.5t63.5 -23t54 -11.5q22 0 39 11t33 33z" />
    <glyph glyph-name="AE" unicode="&#xc6;" horiz-adv-x="834" 
d="M771 -6q-17 1 -42 2.5t-50 2.5t-46 1h-329l-3 50l63 16q2 21 2 51.5v71.5v314l34 12l-290 -449l64 -16l-3 -50h-192l-3 50l54 16l331 494l10 -39l-95 16l3 50h317q21 0 50 1t56.5 2.5t44.5 1.5l27 -148l-58 -8l-38 88q-13 3 -23 4t-22 1h-66q-19 0 -36.5 -1t-29.5 -3
q0 -5 -0.5 -18t-1 -37.5t-0.5 -66.5v-211v-58.5t0.5 -35t1 -19.5t0.5 -13q22 -1 41.5 -2t45.5 -1h46q26 0 37.5 0.5t18.5 1.5l14 2l55 100l57 -11zM153 161l21 70q13 -1 24 -2t27 -2t44 -1q37 0 65.5 1t54.5 4v-68q-35 2 -63.5 2h-56.5q-41 0 -69 -1t-47 -3zM643 200l-10 67
q-7 1 -21.5 1.5t-34.5 0.5h-43q-17 0 -32.5 -1t-23.5 -2v71q8 -1 23.5 -2t32.5 -1h43q20 0 34.5 0.5t21.5 1.5l10 66h56v-202h-56z" />
    <glyph glyph-name="AEacute" unicode="&#x1fc;" horiz-adv-x="834" 
d="M771 -6q-17 1 -42 2.5t-50 2.5t-46 1h-329l-3 50l63 16q2 21 2 51.5v71.5v314l34 12l-290 -449l64 -16l-3 -50h-192l-3 50l54 16l331 494l10 -39l-95 16l3 50h317q21 0 50 1t56.5 2.5t44.5 1.5l27 -148l-58 -8l-38 88q-13 3 -23 4t-22 1h-66q-19 0 -36.5 -1t-29.5 -3
q0 -5 -0.5 -18t-1 -37.5t-0.5 -66.5v-211v-58.5t0.5 -35t1 -19.5t0.5 -13q22 -1 41.5 -2t45.5 -1h46q26 0 37.5 0.5t18.5 1.5l14 2l55 100l57 -11zM153 161l21 70q13 -1 24 -2t27 -2t44 -1q37 0 65.5 1t54.5 4v-68q-35 2 -63.5 2h-56.5q-41 0 -69 -1t-47 -3zM643 200l-10 67
q-7 1 -21.5 1.5t-34.5 0.5h-43q-17 0 -32.5 -1t-23.5 -2v71q8 -1 23.5 -2t32.5 -1h43q20 0 34.5 0.5t21.5 1.5l10 66h56v-202h-56zM464 631l-62 20l93 133l116 -23z" />
    <glyph glyph-name="B" unicode="B" horiz-adv-x="602" 
d="M98 66q3 6 5 50t2 104v147q0 62 -2 105.5t-5 48.5l-64 17l3 49h284q105 0 157 -35t52 -106q0 -55 -47.5 -92t-125.5 -42l6 8q94 -4 145.5 -43t51.5 -105q0 -81 -68.5 -126.5t-192.5 -45.5h-262l-3 50zM239 177q0 -40 1 -70t2 -41q10 -3 27.5 -5.5t32.5 -2.5
q55 0 84.5 26.5t29.5 73.5q0 57 -32.5 83.5t-100.5 26.5h-30.5t-26.5 -2v66q15 -1 26.5 -1.5t24.5 -0.5q54 0 81.5 26.5t27.5 76.5q0 45 -26.5 71.5t-81.5 26.5h-37q-1 -8 -1.5 -42t-0.5 -79v-233z" />
    <glyph glyph-name="C" unicode="C" horiz-adv-x="622" 
d="M374 -9q-97 0 -171 34.5t-115.5 100t-41.5 158.5q0 72 25.5 130t73 98.5t111 62t140.5 21.5q45 0 91.5 -9.5t77.5 -24.5l7 -153l-61 -4l-35 105q-19 10 -42 15t-47 5q-58 0 -98 -27t-61 -77t-21 -118q0 -77 25.5 -133t68.5 -85.5t96 -29.5q27 0 53.5 7.5t45.5 22.5l36 92
l67 -7l-29 -133q-31 -20 -84.5 -35.5t-111.5 -15.5z" />
    <glyph glyph-name="Cacute" unicode="&#x106;" horiz-adv-x="622" 
d="M374 -9q-97 0 -171 34.5t-115.5 100t-41.5 158.5q0 72 25.5 130t73 98.5t111 62t140.5 21.5q45 0 91.5 -9.5t77.5 -24.5l7 -153l-61 -4l-35 105q-19 10 -42 15t-47 5q-58 0 -98 -27t-61 -77t-21 -118q0 -77 25.5 -133t68.5 -85.5t96 -29.5q27 0 53.5 7.5t45.5 22.5l36 92
l67 -7l-29 -133q-31 -20 -84.5 -35.5t-111.5 -15.5zM383 631l-62 20l93 133l116 -23z" />
    <glyph glyph-name="Ccaron" unicode="&#x10c;" horiz-adv-x="622" 
d="M374 -9q-97 0 -171 34.5t-115.5 100t-41.5 158.5q0 72 25.5 130t73 98.5t111 62t140.5 21.5q45 0 91.5 -9.5t77.5 -24.5l7 -153l-61 -4l-35 105q-19 10 -42 15t-47 5q-58 0 -98 -27t-61 -77t-21 -118q0 -77 25.5 -133t68.5 -85.5t96 -29.5q27 0 53.5 7.5t45.5 22.5l36 92
l67 -7l-29 -133q-31 -20 -84.5 -35.5t-111.5 -15.5zM162 749l49 30l174 -84h-66l174 84l49 -30l-137 -103h-106z" />
    <glyph glyph-name="Ccedilla" unicode="&#xc7;" horiz-adv-x="622" 
d="M374 -9q-97 0 -171 34.5t-115.5 100t-41.5 158.5q0 72 25.5 130t73 98.5t111 62t140.5 21.5q45 0 91.5 -9.5t77.5 -24.5l7 -153l-61 -4l-35 105q-19 10 -42 15t-47 5q-58 0 -98 -27t-61 -77t-21 -118q0 -77 25.5 -133t68.5 -85.5t96 -29.5q27 0 53.5 7.5t45.5 22.5l36 92
l67 -7l-29 -133q-31 -20 -84.5 -35.5t-111.5 -15.5zM336 -223q-26 0 -51.5 7t-47.5 20l22 43q17 -10 36.5 -17t38.5 -7q23 0 35 10.5t12 25.5q0 20 -20.5 30.5t-55.5 7.5l-17 19l58 96h59l-62 -79l3 26q51 0 85 -22t34 -62q0 -42 -37.5 -70t-91.5 -28z" />
    <glyph glyph-name="uni1E08" unicode="&#x1e08;" horiz-adv-x="622" 
d="M374 -9q-97 0 -171 34.5t-115.5 100t-41.5 158.5q0 72 25.5 130t73 98.5t111 62t140.5 21.5q45 0 91.5 -9.5t77.5 -24.5l7 -153l-61 -4l-35 105q-19 10 -42 15t-47 5q-58 0 -98 -27t-61 -77t-21 -118q0 -77 25.5 -133t68.5 -85.5t96 -29.5q27 0 53.5 7.5t45.5 22.5l36 92
l67 -7l-29 -133q-31 -20 -84.5 -35.5t-111.5 -15.5zM336 -223q-26 0 -51.5 7t-47.5 20l22 43q17 -10 36.5 -17t38.5 -7q23 0 35 10.5t12 25.5q0 20 -20.5 30.5t-55.5 7.5l-17 19l58 96h59l-62 -79l3 26q51 0 85 -22t34 -62q0 -42 -37.5 -70t-91.5 -28zM383 631l-62 20
l93 133l116 -23z" />
    <glyph glyph-name="Ccircumflex" unicode="&#x108;" horiz-adv-x="622" 
d="M374 -9q-97 0 -171 34.5t-115.5 100t-41.5 158.5q0 72 25.5 130t73 98.5t111 62t140.5 21.5q45 0 91.5 -9.5t77.5 -24.5l7 -153l-61 -4l-35 105q-19 10 -42 15t-47 5q-58 0 -98 -27t-61 -77t-21 -118q0 -77 25.5 -133t68.5 -85.5t96 -29.5q27 0 53.5 7.5t45.5 22.5l36 92
l67 -7l-29 -133q-31 -20 -84.5 -35.5t-111.5 -15.5zM542 668l-49 -31l-174 84h66l-174 -84l-49 31l137 102h106z" />
    <glyph glyph-name="Cdotaccent" unicode="&#x10a;" horiz-adv-x="622" 
d="M374 -9q-97 0 -171 34.5t-115.5 100t-41.5 158.5q0 72 25.5 130t73 98.5t111 62t140.5 21.5q45 0 91.5 -9.5t77.5 -24.5l7 -153l-61 -4l-35 105q-19 10 -42 15t-47 5q-58 0 -98 -27t-61 -77t-21 -118q0 -77 25.5 -133t68.5 -85.5t96 -29.5q27 0 53.5 7.5t45.5 22.5l36 92
l67 -7l-29 -133q-31 -20 -84.5 -35.5t-111.5 -15.5zM353 638q-36 0 -56 22t-20 50q0 29 20 50.5t56 21.5t55 -21.5t19 -50.5q0 -28 -19 -50t-55 -22z" />
    <glyph glyph-name="D" unicode="D" horiz-adv-x="707" 
d="M38 587h276q162 0 252.5 -75.5t90.5 -210.5q0 -87 -43 -155.5t-118 -107t-172 -38.5h-286l-3 50l64 16q3 7 5 50.5t2 103.5v147q0 62 -2 105.5t-5 49.5l-64 15zM243 521q0 -7 -0.5 -26.5t-1 -51t-0.5 -76.5v-147q0 -26 0.5 -54.5t2 -52.5t2.5 -38q22 -4 45 -6.5t43 -2.5
q85 0 128.5 49t43.5 155q0 70 -16 119t-44 79t-64 44t-77 14q-15 0 -30.5 -1.5t-31.5 -3.5z" />
    <glyph glyph-name="uni01C4" unicode="&#x1c4;" horiz-adv-x="1249" 
d="M38 587h276q162 0 252.5 -75.5t90.5 -210.5q0 -87 -43 -155.5t-118 -107t-172 -38.5h-286l-3 50l64 16q3 7 5 50.5t2 103.5v147q0 62 -2 105.5t-5 49.5l-64 15zM243 521q0 -7 -0.5 -26.5t-1 -51t-0.5 -76.5v-147q0 -26 0.5 -54.5t2 -52.5t2.5 -38q22 -4 45 -6.5t43 -2.5
q85 0 128.5 49t43.5 155q0 70 -16 119t-44 79t-64 44t-77 14q-15 0 -30.5 -1.5t-31.5 -3.5zM1202 -5q-14 1 -39 2t-51 2t-44 1h-233q-20 0 -40 -0.5t-39 -2.5v52l317 522v-42h-171q-30 0 -48 -2t-34 -4l-18 -102h-62l-2 168q24 -1 51.5 -1.5t46.5 -0.5h286q19 0 39 0.5
t39 1.5v-52l-310 -515v41h187q18 0 29 1t24 3l42 114l60 -8z" />
    <glyph glyph-name="Eth" unicode="&#xd0;" horiz-adv-x="707" 
d="M38 587h276q162 0 252.5 -75.5t90.5 -210.5q0 -87 -43 -155.5t-118 -107t-172 -38.5h-286l-3 50l64 16q3 7 5 50.5t2 103.5v147q0 62 -2 105.5t-5 49.5l-64 15zM243 521q0 -7 -0.5 -26.5t-1 -51t-0.5 -76.5v-147q0 -26 0.5 -54.5t2 -52.5t2.5 -38q22 -4 45 -6.5t43 -2.5
q85 0 128.5 49t43.5 155q0 70 -16 119t-44 79t-64 44t-77 14q-15 0 -30.5 -1.5t-31.5 -3.5zM27 261v66h371v-66h-371z" />
    <glyph glyph-name="Dcaron" unicode="&#x10e;" horiz-adv-x="707" 
d="M38 587h276q162 0 252.5 -75.5t90.5 -210.5q0 -87 -43 -155.5t-118 -107t-172 -38.5h-286l-3 50l64 16q3 7 5 50.5t2 103.5v147q0 62 -2 105.5t-5 49.5l-64 15zM243 521q0 -7 -0.5 -26.5t-1 -51t-0.5 -76.5v-147q0 -26 0.5 -54.5t2 -52.5t2.5 -38q22 -4 45 -6.5t43 -2.5
q85 0 128.5 49t43.5 155q0 70 -16 119t-44 79t-64 44t-77 14q-15 0 -30.5 -1.5t-31.5 -3.5zM158 749l49 30l174 -84h-66l174 84l49 -30l-137 -103h-106z" />
    <glyph glyph-name="Dcroat" unicode="&#x110;" horiz-adv-x="707" 
d="M38 587h276q162 0 252.5 -75.5t90.5 -210.5q0 -87 -43 -155.5t-118 -107t-172 -38.5h-286l-3 50l64 16q3 7 5 50.5t2 103.5v147q0 62 -2 105.5t-5 49.5l-64 15zM243 521q0 -7 -0.5 -26.5t-1 -51t-0.5 -76.5v-147q0 -26 0.5 -54.5t2 -52.5t2.5 -38q22 -4 45 -6.5t43 -2.5
q85 0 128.5 49t43.5 155q0 70 -16 119t-44 79t-64 44t-77 14q-15 0 -30.5 -1.5t-31.5 -3.5zM27 261v66h371v-66h-371z" />
    <glyph glyph-name="uni1E0C" unicode="&#x1e0c;" horiz-adv-x="707" 
d="M38 587h276q162 0 252.5 -75.5t90.5 -210.5q0 -87 -43 -155.5t-118 -107t-172 -38.5h-286l-3 50l64 16q3 7 5 50.5t2 103.5v147q0 62 -2 105.5t-5 49.5l-64 15zM243 521q0 -7 -0.5 -26.5t-1 -51t-0.5 -76.5v-147q0 -26 0.5 -54.5t2 -52.5t2.5 -38q22 -4 45 -6.5t43 -2.5
q85 0 128.5 49t43.5 155q0 70 -16 119t-44 79t-64 44t-77 14q-15 0 -30.5 -1.5t-31.5 -3.5zM339 -211q-36 0 -56 22t-20 50q0 29 20 50.5t56 21.5t55 -21.5t19 -50.5q0 -28 -19 -50t-55 -22z" />
    <glyph glyph-name="uni1E0E" unicode="&#x1e0e;" horiz-adv-x="707" 
d="M38 587h276q162 0 252.5 -75.5t90.5 -210.5q0 -87 -43 -155.5t-118 -107t-172 -38.5h-286l-3 50l64 16q3 7 5 50.5t2 103.5v147q0 62 -2 105.5t-5 49.5l-64 15zM243 521q0 -7 -0.5 -26.5t-1 -51t-0.5 -76.5v-147q0 -26 0.5 -54.5t2 -52.5t2.5 -38q22 -4 45 -6.5t43 -2.5
q85 0 128.5 49t43.5 155q0 70 -16 119t-44 79t-64 44t-77 14q-15 0 -30.5 -1.5t-31.5 -3.5zM183 -104h310v-71h-310v71z" />
    <glyph glyph-name="uni01C5" unicode="&#x1c5;" horiz-adv-x="1177" 
d="M38 587h276q162 0 252.5 -75.5t90.5 -210.5q0 -87 -43 -155.5t-118 -107t-172 -38.5h-286l-3 50l64 16q3 7 5 50.5t2 103.5v147q0 62 -2 105.5t-5 49.5l-64 15zM243 521q0 -7 -0.5 -26.5t-1 -51t-0.5 -76.5v-147q0 -26 0.5 -54.5t2 -52.5t2.5 -38q22 -4 45 -6.5t43 -2.5
q85 0 128.5 49t43.5 155q0 70 -16 119t-44 79t-64 44t-77 14q-15 0 -30.5 -1.5t-31.5 -3.5zM890 18l-6 42h117q19 0 36.5 1.5t33.5 2.5l26 88h65l-19 -154q-26 2 -55.5 2h-50.5h-195q-21 0 -43 -0.5t-44 -2.5v47l249 377v-40h-103q-27 0 -45.5 -1t-34.5 -3l-14 -84h-62
l-3 148q27 -1 56 -1.5t49 -0.5h198q21 0 43.5 0.5t44.5 1.5v-47zM1104 657l-107 -163h-106l-107 163l58 20l135 -140h-66l135 140z" />
    <glyph glyph-name="E" unicode="E" horiz-adv-x="582" 
d="M520 -6q-29 2 -68 4t-71 2h-344l-3 50l64 16q2 5 3.5 26t2.5 54t1 74v147q0 41 -1 75t-2.5 54.5t-3.5 24.5l-64 16l3 50h308q20 0 48.5 0.5t56 2t46.5 2.5l27 -148l-58 -8l-37 88q-14 3 -24 4t-22 1h-76q-19 0 -36.5 -0.5t-28.5 -2.5q0 -8 -0.5 -24t-1 -41t-0.5 -58v-211
q0 -32 0.5 -57t1 -42t0.5 -26q18 -2 37.5 -3t49.5 -1h54q25 0 37.5 0.5t19 1.5t14.5 2l55 100l57 -11zM392 200l-9 67q-7 1 -22.5 1.5t-34.5 0.5h-53q-18 0 -33 -1t-23 -2v71q8 -1 23 -2t33 -1h53q19 0 34.5 0.5t22.5 0.5l9 67h56v-202h-56z" />
    <glyph glyph-name="Eacute" unicode="&#xc9;" horiz-adv-x="582" 
d="M520 -6q-29 2 -68 4t-71 2h-344l-3 50l64 16q2 5 3.5 26t2.5 54t1 74v147q0 41 -1 75t-2.5 54.5t-3.5 24.5l-64 16l3 50h308q20 0 48.5 0.5t56 2t46.5 2.5l27 -148l-58 -8l-37 88q-14 3 -24 4t-22 1h-76q-19 0 -36.5 -0.5t-28.5 -2.5q0 -8 -0.5 -24t-1 -41t-0.5 -58v-211
q0 -32 0.5 -57t1 -42t0.5 -26q18 -2 37.5 -3t49.5 -1h54q25 0 37.5 0.5t19 1.5t14.5 2l55 100l57 -11zM392 200l-9 67q-7 1 -22.5 1.5t-34.5 0.5h-53q-18 0 -33 -1t-23 -2v71q8 -1 23 -2t33 -1h53q19 0 34.5 0.5t22.5 0.5l9 67h56v-202h-56zM324 631l-62 20l93 133l116 -23z
" />
    <glyph glyph-name="Ebreve" unicode="&#x114;" horiz-adv-x="582" 
d="M520 -6q-29 2 -68 4t-71 2h-344l-3 50l64 16q2 5 3.5 26t2.5 54t1 74v147q0 41 -1 75t-2.5 54.5t-3.5 24.5l-64 16l3 50h308q20 0 48.5 0.5t56 2t46.5 2.5l27 -148l-58 -8l-37 88q-14 3 -24 4t-22 1h-76q-19 0 -36.5 -0.5t-28.5 -2.5q0 -8 -0.5 -24t-1 -41t-0.5 -58v-211
q0 -32 0.5 -57t1 -42t0.5 -26q18 -2 37.5 -3t49.5 -1h54q25 0 37.5 0.5t19 1.5t14.5 2l55 100l57 -11zM392 200l-9 67q-7 1 -22.5 1.5t-34.5 0.5h-53q-18 0 -33 -1t-23 -2v71q8 -1 23 -2t33 -1h53q19 0 34.5 0.5t22.5 0.5l9 67h56v-202h-56zM421 779l58 -20q-12 -54 -63 -85
t-122 -31t-123 31t-64 85l64 20q12 -25 45.5 -41t81.5 -16q47 0 80 16t43 41z" />
    <glyph glyph-name="Ecaron" unicode="&#x11a;" horiz-adv-x="582" 
d="M520 -6q-29 2 -68 4t-71 2h-344l-3 50l64 16q2 5 3.5 26t2.5 54t1 74v147q0 41 -1 75t-2.5 54.5t-3.5 24.5l-64 16l3 50h308q20 0 48.5 0.5t56 2t46.5 2.5l27 -148l-58 -8l-37 88q-14 3 -24 4t-22 1h-76q-19 0 -36.5 -0.5t-28.5 -2.5q0 -8 -0.5 -24t-1 -41t-0.5 -58v-211
q0 -32 0.5 -57t1 -42t0.5 -26q18 -2 37.5 -3t49.5 -1h54q25 0 37.5 0.5t19 1.5t14.5 2l55 100l57 -11zM392 200l-9 67q-7 1 -22.5 1.5t-34.5 0.5h-53q-18 0 -33 -1t-23 -2v71q8 -1 23 -2t33 -1h53q19 0 34.5 0.5t22.5 0.5l9 67h56v-202h-56zM103 749l49 30l174 -84h-66
l174 84l49 -30l-137 -103h-106z" />
    <glyph glyph-name="uni1E1C" unicode="&#x1e1c;" horiz-adv-x="582" 
d="M520 -6q-29 2 -68 4t-71 2h-344l-3 50l64 16q2 5 3.5 26t2.5 54t1 74v147q0 41 -1 75t-2.5 54.5t-3.5 24.5l-64 16l3 50h308q20 0 48.5 0.5t56 2t46.5 2.5l27 -148l-58 -8l-37 88q-14 3 -24 4t-22 1h-76q-19 0 -36.5 -0.5t-28.5 -2.5q0 -8 -0.5 -24t-1 -41t-0.5 -58v-211
q0 -32 0.5 -57t1 -42t0.5 -26q18 -2 37.5 -3t49.5 -1h54q25 0 37.5 0.5t19 1.5t14.5 2l55 100l57 -11zM392 200l-9 67q-7 1 -22.5 1.5t-34.5 0.5h-53q-18 0 -33 -1t-23 -2v71q8 -1 23 -2t33 -1h53q19 0 34.5 0.5t22.5 0.5l9 67h56v-202h-56zM277 -223q-26 0 -51.5 7
t-47.5 20l22 43q17 -10 36.5 -17t38.5 -7q23 0 35 10.5t12 25.5q0 20 -20.5 30.5t-55.5 7.5l-17 19l58 96h59l-62 -79l3 26q51 0 85 -22t34 -62q0 -42 -37.5 -70t-91.5 -28zM421 779l58 -20q-12 -54 -63 -85t-122 -31t-123 31t-64 85l64 20q12 -25 45.5 -41t81.5 -16
q47 0 80 16t43 41z" />
    <glyph glyph-name="Ecircumflex" unicode="&#xca;" horiz-adv-x="582" 
d="M520 -6q-29 2 -68 4t-71 2h-344l-3 50l64 16q2 5 3.5 26t2.5 54t1 74v147q0 41 -1 75t-2.5 54.5t-3.5 24.5l-64 16l3 50h308q20 0 48.5 0.5t56 2t46.5 2.5l27 -148l-58 -8l-37 88q-14 3 -24 4t-22 1h-76q-19 0 -36.5 -0.5t-28.5 -2.5q0 -8 -0.5 -24t-1 -41t-0.5 -58v-211
q0 -32 0.5 -57t1 -42t0.5 -26q18 -2 37.5 -3t49.5 -1h54q25 0 37.5 0.5t19 1.5t14.5 2l55 100l57 -11zM392 200l-9 67q-7 1 -22.5 1.5t-34.5 0.5h-53q-18 0 -33 -1t-23 -2v71q8 -1 23 -2t33 -1h53q19 0 34.5 0.5t22.5 0.5l9 67h56v-202h-56zM483 668l-49 -31l-174 84h66
l-174 -84l-49 31l137 102h106z" />
    <glyph glyph-name="uni1EBE" unicode="&#x1ebe;" horiz-adv-x="582" 
d="M520 -6q-29 2 -68 4t-71 2h-344l-3 50l64 16q2 5 3.5 26t2.5 54t1 74v147q0 41 -1 75t-2.5 54.5t-3.5 24.5l-64 16l3 50h308q20 0 48.5 0.5t56 2t46.5 2.5l27 -148l-58 -8l-37 88q-14 3 -24 4t-22 1h-76q-19 0 -36.5 -0.5t-28.5 -2.5q0 -8 -0.5 -24t-1 -41t-0.5 -58v-211
q0 -32 0.5 -57t1 -42t0.5 -26q18 -2 37.5 -3t49.5 -1h54q25 0 37.5 0.5t19 1.5t14.5 2l55 100l57 -11zM392 200l-9 67q-7 1 -22.5 1.5t-34.5 0.5h-53q-18 0 -33 -1t-23 -2v71q8 -1 23 -2t33 -1h53q19 0 34.5 0.5t22.5 0.5l9 67h56v-202h-56zM448 748l-59 20l67 135l117 -23z
M483 668l-49 -31l-174 84h66l-174 -84l-49 31l137 102h106z" />
    <glyph glyph-name="uni1EC6" unicode="&#x1ec6;" horiz-adv-x="582" 
d="M520 -6q-29 2 -68 4t-71 2h-344l-3 50l64 16q2 5 3.5 26t2.5 54t1 74v147q0 41 -1 75t-2.5 54.5t-3.5 24.5l-64 16l3 50h308q20 0 48.5 0.5t56 2t46.5 2.5l27 -148l-58 -8l-37 88q-14 3 -24 4t-22 1h-76q-19 0 -36.5 -0.5t-28.5 -2.5q0 -8 -0.5 -24t-1 -41t-0.5 -58v-211
q0 -32 0.5 -57t1 -42t0.5 -26q18 -2 37.5 -3t49.5 -1h54q25 0 37.5 0.5t19 1.5t14.5 2l55 100l57 -11zM392 200l-9 67q-7 1 -22.5 1.5t-34.5 0.5h-53q-18 0 -33 -1t-23 -2v71q8 -1 23 -2t33 -1h53q19 0 34.5 0.5t22.5 0.5l9 67h56v-202h-56zM294 -211q-36 0 -56 22t-20 50
q0 29 20 50.5t56 21.5t55 -21.5t19 -50.5q0 -28 -19 -50t-55 -22zM483 668l-49 -31l-174 84h66l-174 -84l-49 31l137 102h106z" />
    <glyph glyph-name="uni1EC0" unicode="&#x1ec0;" horiz-adv-x="582" 
d="M520 -6q-29 2 -68 4t-71 2h-344l-3 50l64 16q2 5 3.5 26t2.5 54t1 74v147q0 41 -1 75t-2.5 54.5t-3.5 24.5l-64 16l3 50h308q20 0 48.5 0.5t56 2t46.5 2.5l27 -148l-58 -8l-37 88q-14 3 -24 4t-22 1h-76q-19 0 -36.5 -0.5t-28.5 -2.5q0 -8 -0.5 -24t-1 -41t-0.5 -58v-211
q0 -32 0.5 -57t1 -42t0.5 -26q18 -2 37.5 -3t49.5 -1h54q25 0 37.5 0.5t19 1.5t14.5 2l55 100l57 -11zM392 200l-9 67q-7 1 -22.5 1.5t-34.5 0.5h-53q-18 0 -33 -1t-23 -2v71q8 -1 23 -2t33 -1h53q19 0 34.5 0.5t22.5 0.5l9 67h56v-202h-56zM438 748l-126 132l117 23
l67 -135zM483 668l-49 -31l-174 84h66l-174 -84l-49 31l137 102h106z" />
    <glyph glyph-name="uni1EC2" unicode="&#x1ec2;" horiz-adv-x="582" 
d="M520 -6q-29 2 -68 4t-71 2h-344l-3 50l64 16q2 5 3.5 26t2.5 54t1 74v147q0 41 -1 75t-2.5 54.5t-3.5 24.5l-64 16l3 50h308q20 0 48.5 0.5t56 2t46.5 2.5l27 -148l-58 -8l-37 88q-14 3 -24 4t-22 1h-76q-19 0 -36.5 -0.5t-28.5 -2.5q0 -8 -0.5 -24t-1 -41t-0.5 -58v-211
q0 -32 0.5 -57t1 -42t0.5 -26q18 -2 37.5 -3t49.5 -1h54q25 0 37.5 0.5t19 1.5t14.5 2l55 100l57 -11zM392 200l-9 67q-7 1 -22.5 1.5t-34.5 0.5h-53q-18 0 -33 -1t-23 -2v71q8 -1 23 -2t33 -1h53q19 0 34.5 0.5t22.5 0.5l9 67h56v-202h-56zM483 668l-49 -31l-174 84h66
l-174 -84l-49 31l137 102h106zM437 903q50 0 79.5 -16t29.5 -48q0 -21 -13 -33.5t-30.5 -21t-31 -16.5t-13.5 -20h-44v14q0 17 11 30t22 25t11 25q0 20 -14.5 24t-41.5 -3l41 15l-40 -43q-9 -9 -18 -13.5t-21 -4.5q-14 0 -22.5 7.5t-8.5 20.5q0 22 28.5 40t75.5 18z" />
    <glyph glyph-name="uni1EC4" unicode="&#x1ec4;" horiz-adv-x="582" 
d="M520 -6q-29 2 -68 4t-71 2h-344l-3 50l64 16q2 5 3.5 26t2.5 54t1 74v147q0 41 -1 75t-2.5 54.5t-3.5 24.5l-64 16l3 50h308q20 0 48.5 0.5t56 2t46.5 2.5l27 -148l-58 -8l-37 88q-14 3 -24 4t-22 1h-76q-19 0 -36.5 -0.5t-28.5 -2.5q0 -8 -0.5 -24t-1 -41t-0.5 -58v-211
q0 -32 0.5 -57t1 -42t0.5 -26q18 -2 37.5 -3t49.5 -1h54q25 0 37.5 0.5t19 1.5t14.5 2l55 100l57 -11zM392 200l-9 67q-7 1 -22.5 1.5t-34.5 0.5h-53q-18 0 -33 -1t-23 -2v71q8 -1 23 -2t33 -1h53q19 0 34.5 0.5t22.5 0.5l9 67h56v-202h-56zM152 637l-49 31l137 102h106
l137 -102l-49 -31l-174 84h66zM362 788q-25 0 -53.5 8.5t-54.5 17t-47 8.5q-19 0 -33.5 -9t-28.5 -24l-39 23q16 43 47 67t71 24q25 0 53 -8t55 -17t47 -9q19 0 33.5 8.5t28.5 24.5l39 -23q-16 -44 -46.5 -67.5t-71.5 -23.5z" />
    <glyph glyph-name="uni0204" unicode="&#x204;" horiz-adv-x="582" 
d="M520 -6q-29 2 -68 4t-71 2h-344l-3 50l64 16q2 5 3.5 26t2.5 54t1 74v147q0 41 -1 75t-2.5 54.5t-3.5 24.5l-64 16l3 50h308q20 0 48.5 0.5t56 2t46.5 2.5l27 -148l-58 -8l-37 88q-14 3 -24 4t-22 1h-76q-19 0 -36.5 -0.5t-28.5 -2.5q0 -8 -0.5 -24t-1 -41t-0.5 -58v-211
q0 -32 0.5 -57t1 -42t0.5 -26q18 -2 37.5 -3t49.5 -1h54q25 0 37.5 0.5t19 1.5t14.5 2l55 100l57 -11zM392 200l-9 67q-7 1 -22.5 1.5t-34.5 0.5h-53q-18 0 -33 -1t-23 -2v71q8 -1 23 -2t33 -1h53q19 0 34.5 0.5t22.5 0.5l9 67h56v-202h-56zM340 637l-81 123l91 19l43 -124z
M193 637l-80 123l91 19l42 -124z" />
    <glyph glyph-name="Edieresis" unicode="&#xcb;" horiz-adv-x="582" 
d="M520 -6q-29 2 -68 4t-71 2h-344l-3 50l64 16q2 5 3.5 26t2.5 54t1 74v147q0 41 -1 75t-2.5 54.5t-3.5 24.5l-64 16l3 50h308q20 0 48.5 0.5t56 2t46.5 2.5l27 -148l-58 -8l-37 88q-14 3 -24 4t-22 1h-76q-19 0 -36.5 -0.5t-28.5 -2.5q0 -8 -0.5 -24t-1 -41t-0.5 -58v-211
q0 -32 0.5 -57t1 -42t0.5 -26q18 -2 37.5 -3t49.5 -1h54q25 0 37.5 0.5t19 1.5t14.5 2l55 100l57 -11zM392 200l-9 67q-7 1 -22.5 1.5t-34.5 0.5h-53q-18 0 -33 -1t-23 -2v71q8 -1 23 -2t33 -1h53q19 0 34.5 0.5t22.5 0.5l9 67h56v-202h-56zM181 645q-33 0 -51.5 20
t-18.5 45q0 26 18.5 45.5t51.5 19.5q32 0 50 -19.5t18 -45.5q0 -25 -18 -45t-50 -20zM407 645q-33 0 -51.5 20t-18.5 45q0 26 18.5 45.5t51.5 19.5t50.5 -19.5t17.5 -45.5q0 -25 -17.5 -45t-50.5 -20z" />
    <glyph glyph-name="Edotaccent" unicode="&#x116;" horiz-adv-x="582" 
d="M520 -6q-29 2 -68 4t-71 2h-344l-3 50l64 16q2 5 3.5 26t2.5 54t1 74v147q0 41 -1 75t-2.5 54.5t-3.5 24.5l-64 16l3 50h308q20 0 48.5 0.5t56 2t46.5 2.5l27 -148l-58 -8l-37 88q-14 3 -24 4t-22 1h-76q-19 0 -36.5 -0.5t-28.5 -2.5q0 -8 -0.5 -24t-1 -41t-0.5 -58v-211
q0 -32 0.5 -57t1 -42t0.5 -26q18 -2 37.5 -3t49.5 -1h54q25 0 37.5 0.5t19 1.5t14.5 2l55 100l57 -11zM392 200l-9 67q-7 1 -22.5 1.5t-34.5 0.5h-53q-18 0 -33 -1t-23 -2v71q8 -1 23 -2t33 -1h53q19 0 34.5 0.5t22.5 0.5l9 67h56v-202h-56zM294 638q-36 0 -56 22t-20 50
q0 29 20 50.5t56 21.5t55 -21.5t19 -50.5q0 -28 -19 -50t-55 -22z" />
    <glyph glyph-name="uni1EB8" unicode="&#x1eb8;" horiz-adv-x="582" 
d="M520 -6q-29 2 -68 4t-71 2h-344l-3 50l64 16q2 5 3.5 26t2.5 54t1 74v147q0 41 -1 75t-2.5 54.5t-3.5 24.5l-64 16l3 50h308q20 0 48.5 0.5t56 2t46.5 2.5l27 -148l-58 -8l-37 88q-14 3 -24 4t-22 1h-76q-19 0 -36.5 -0.5t-28.5 -2.5q0 -8 -0.5 -24t-1 -41t-0.5 -58v-211
q0 -32 0.5 -57t1 -42t0.5 -26q18 -2 37.5 -3t49.5 -1h54q25 0 37.5 0.5t19 1.5t14.5 2l55 100l57 -11zM392 200l-9 67q-7 1 -22.5 1.5t-34.5 0.5h-53q-18 0 -33 -1t-23 -2v71q8 -1 23 -2t33 -1h53q19 0 34.5 0.5t22.5 0.5l9 67h56v-202h-56zM294 -211q-36 0 -56 22t-20 50
q0 29 20 50.5t56 21.5t55 -21.5t19 -50.5q0 -28 -19 -50t-55 -22z" />
    <glyph glyph-name="Egrave" unicode="&#xc8;" horiz-adv-x="582" 
d="M520 -6q-29 2 -68 4t-71 2h-344l-3 50l64 16q2 5 3.5 26t2.5 54t1 74v147q0 41 -1 75t-2.5 54.5t-3.5 24.5l-64 16l3 50h308q20 0 48.5 0.5t56 2t46.5 2.5l27 -148l-58 -8l-37 88q-14 3 -24 4t-22 1h-76q-19 0 -36.5 -0.5t-28.5 -2.5q0 -8 -0.5 -24t-1 -41t-0.5 -58v-211
q0 -32 0.5 -57t1 -42t0.5 -26q18 -2 37.5 -3t49.5 -1h54q25 0 37.5 0.5t19 1.5t14.5 2l55 100l57 -11zM392 200l-9 67q-7 1 -22.5 1.5t-34.5 0.5h-53q-18 0 -33 -1t-23 -2v71q8 -1 23 -2t33 -1h53q19 0 34.5 0.5t22.5 0.5l9 67h56v-202h-56zM262 631l-147 130l116 23
l93 -133z" />
    <glyph glyph-name="uni1EBA" unicode="&#x1eba;" horiz-adv-x="582" 
d="M520 -6q-29 2 -68 4t-71 2h-344l-3 50l64 16q2 5 3.5 26t2.5 54t1 74v147q0 41 -1 75t-2.5 54.5t-3.5 24.5l-64 16l3 50h308q20 0 48.5 0.5t56 2t46.5 2.5l27 -148l-58 -8l-37 88q-14 3 -24 4t-22 1h-76q-19 0 -36.5 -0.5t-28.5 -2.5q0 -8 -0.5 -24t-1 -41t-0.5 -58v-211
q0 -32 0.5 -57t1 -42t0.5 -26q18 -2 37.5 -3t49.5 -1h54q25 0 37.5 0.5t19 1.5t14.5 2l55 100l57 -11zM392 200l-9 67q-7 1 -22.5 1.5t-34.5 0.5h-53q-18 0 -33 -1t-23 -2v71q8 -1 23 -2t33 -1h53q19 0 34.5 0.5t22.5 0.5l9 67h56v-202h-56zM294 819q50 0 79.5 -17.5
t29.5 -49.5q0 -23 -13.5 -37t-30.5 -24t-30.5 -21.5t-13.5 -28.5h-44v17q0 25 11 42t22 31t11 27q0 20 -14.5 24t-41.5 -3l41 15l-40 -43q-9 -9 -17.5 -13.5t-21.5 -4.5q-14 0 -22.5 7.5t-8.5 20.5q0 22 28.5 40t75.5 18z" />
    <glyph glyph-name="uni0206" unicode="&#x206;" horiz-adv-x="582" 
d="M520 -6q-29 2 -68 4t-71 2h-344l-3 50l64 16q2 5 3.5 26t2.5 54t1 74v147q0 41 -1 75t-2.5 54.5t-3.5 24.5l-64 16l3 50h308q20 0 48.5 0.5t56 2t46.5 2.5l27 -148l-58 -8l-37 88q-14 3 -24 4t-22 1h-76q-19 0 -36.5 -0.5t-28.5 -2.5q0 -8 -0.5 -24t-1 -41t-0.5 -58v-211
q0 -32 0.5 -57t1 -42t0.5 -26q18 -2 37.5 -3t49.5 -1h54q25 0 37.5 0.5t19 1.5t14.5 2l55 100l57 -11zM392 200l-9 67q-7 1 -22.5 1.5t-34.5 0.5h-53q-18 0 -33 -1t-23 -2v71q8 -1 23 -2t33 -1h53q19 0 34.5 0.5t22.5 0.5l9 67h56v-202h-56zM165 637l-58 21q12 52 63 83.5
t122 31.5t123 -31.5t64 -83.5l-64 -21q-11 26 -45 41.5t-82 15.5q-47 0 -80 -15.5t-43 -41.5z" />
    <glyph glyph-name="Emacron" unicode="&#x112;" horiz-adv-x="582" 
d="M520 -6q-29 2 -68 4t-71 2h-344l-3 50l64 16q2 5 3.5 26t2.5 54t1 74v147q0 41 -1 75t-2.5 54.5t-3.5 24.5l-64 16l3 50h308q20 0 48.5 0.5t56 2t46.5 2.5l27 -148l-58 -8l-37 88q-14 3 -24 4t-22 1h-76q-19 0 -36.5 -0.5t-28.5 -2.5q0 -8 -0.5 -24t-1 -41t-0.5 -58v-211
q0 -32 0.5 -57t1 -42t0.5 -26q18 -2 37.5 -3t49.5 -1h54q25 0 37.5 0.5t19 1.5t14.5 2l55 100l57 -11zM392 200l-9 67q-7 1 -22.5 1.5t-34.5 0.5h-53q-18 0 -33 -1t-23 -2v71q8 -1 23 -2t33 -1h53q19 0 34.5 0.5t22.5 0.5l9 67h56v-202h-56zM138 744h310v-71h-310v71z" />
    <glyph glyph-name="uni1E16" unicode="&#x1e16;" horiz-adv-x="582" 
d="M520 -6q-29 2 -68 4t-71 2h-344l-3 50l64 16q2 5 3.5 26t2.5 54t1 74v147q0 41 -1 75t-2.5 54.5t-3.5 24.5l-64 16l3 50h308q20 0 48.5 0.5t56 2t46.5 2.5l27 -148l-58 -8l-37 88q-14 3 -24 4t-22 1h-76q-19 0 -36.5 -0.5t-28.5 -2.5q0 -8 -0.5 -24t-1 -41t-0.5 -58v-211
q0 -32 0.5 -57t1 -42t0.5 -26q18 -2 37.5 -3t49.5 -1h54q25 0 37.5 0.5t19 1.5t14.5 2l55 100l57 -11zM392 200l-9 67q-7 1 -22.5 1.5t-34.5 0.5h-53q-18 0 -33 -1t-23 -2v71q8 -1 23 -2t33 -1h53q19 0 34.5 0.5t22.5 0.5l9 67h56v-202h-56zM313 768l-58 20l65 115l117 -23z
M109 660v71h368v-71h-368z" />
    <glyph glyph-name="uni1E14" unicode="&#x1e14;" horiz-adv-x="582" 
d="M520 -6q-29 2 -68 4t-71 2h-344l-3 50l64 16q2 5 3.5 26t2.5 54t1 74v147q0 41 -1 75t-2.5 54.5t-3.5 24.5l-64 16l3 50h308q20 0 48.5 0.5t56 2t46.5 2.5l27 -148l-58 -8l-37 88q-14 3 -24 4t-22 1h-76q-19 0 -36.5 -0.5t-28.5 -2.5q0 -8 -0.5 -24t-1 -41t-0.5 -58v-211
q0 -32 0.5 -57t1 -42t0.5 -26q18 -2 37.5 -3t49.5 -1h54q25 0 37.5 0.5t19 1.5t14.5 2l55 100l57 -11zM392 200l-9 67q-7 1 -22.5 1.5t-34.5 0.5h-53q-18 0 -33 -1t-23 -2v71q8 -1 23 -2t33 -1h53q19 0 34.5 0.5t22.5 0.5l9 67h56v-202h-56zM477 731v-71h-368v71h368z
M273 768l-124 112l117 23l65 -115z" />
    <glyph glyph-name="Eogonek" unicode="&#x118;" horiz-adv-x="582" 
d="M468 -223q-37 0 -66.5 13t-46 36t-16.5 52q0 33 28 65t81 57h-411l-3 50l64 16q2 5 3.5 26t2.5 54t1 74v147q0 41 -1 75t-2.5 54.5t-3.5 24.5l-64 16l3 50h308q20 0 49 0.5t57 2t45 2.5l27 -148l-58 -8l-37 88q-14 3 -24 4t-22 1h-76q-19 0 -36.5 -0.5t-28.5 -2.5
q0 -8 -0.5 -24t-1 -41t-0.5 -58v-211q0 -32 0.5 -57t1 -42t0.5 -26q18 -2 37.5 -3t49.5 -1h54q25 0 37.5 0.5t19 1.5t14.5 2l55 100l57 -11l-43 -156q-88 -55 -88 -113q0 -25 14.5 -40.5t38.5 -15.5q32 0 67 35l29 -39q-45 -50 -115 -50zM392 200l-9 67q-7 1 -22.5 1.5
t-34.5 0.5h-53q-18 0 -33 -1t-23 -2v71q8 -1 23 -2t33 -1h53q19 0 34.5 0.5t22.5 0.5l9 67h56v-202h-56z" />
    <glyph glyph-name="uni1EBC" unicode="&#x1ebc;" horiz-adv-x="582" 
d="M520 -6q-29 2 -68 4t-71 2h-344l-3 50l64 16q2 5 3.5 26t2.5 54t1 74v147q0 41 -1 75t-2.5 54.5t-3.5 24.5l-64 16l3 50h308q20 0 48.5 0.5t56 2t46.5 2.5l27 -148l-58 -8l-37 88q-14 3 -24 4t-22 1h-76q-19 0 -36.5 -0.5t-28.5 -2.5q0 -8 -0.5 -24t-1 -41t-0.5 -58v-211
q0 -32 0.5 -57t1 -42t0.5 -26q18 -2 37.5 -3t49.5 -1h54q25 0 37.5 0.5t19 1.5t14.5 2l55 100l57 -11zM392 200l-9 67q-7 1 -22.5 1.5t-34.5 0.5h-53q-18 0 -33 -1t-23 -2v71q8 -1 23 -2t33 -1h53q19 0 34.5 0.5t22.5 0.5l9 67h56v-202h-56zM466 774l43 -24
q-18 -52 -54.5 -80t-82.5 -28q-29 0 -61.5 11.5t-63.5 23t-54 11.5q-22 0 -39 -11t-34 -34l-43 26q19 50 55 78.5t82 28.5q30 0 62.5 -11.5t63.5 -23t54 -11.5q22 0 39 11t33 33z" />
    <glyph glyph-name="F" unicode="F" horiz-adv-x="538" 
d="M42 0l-3 50l60 16q2 4 3 25t2 54.5t1 73.5l1 149q0 41 -1 74.5t-2 54.5t-3 24l-63 16l3 50h298q21 0 50 0.5t57 2t45 2.5l27 -148l-58 -8l-38 88q-12 3 -22.5 4t-22.5 1h-76q-17 0 -33.5 -1.5t-27.5 -3.5v-11.5v-18.5v-34v-58l1 -231q0 -19 1 -42t2 -41t2 -22l81 -14
l-3 -52h-281zM385 189l-10 71q-12 2 -27 3t-30 1h-57q-19 0 -33.5 -1.5t-25.5 -2.5v71q11 -1 26 -2t33 -1h57q20 0 35 1t22 1l10 66h57v-207h-57z" />
    <glyph glyph-name="G" unicode="G" horiz-adv-x="660" 
d="M371 -9q-96 0 -170 34.5t-115.5 99t-41.5 155.5q0 74 26 132.5t73 99.5t111.5 62.5t141.5 21.5q45 0 91 -9.5t76 -24.5l4 -141l-62 -3l-31 92q-20 11 -44 15.5t-44 4.5q-59 0 -100 -27t-62 -77t-21 -118q0 -77 26 -133.5t69.5 -86t97.5 -29.5q15 0 34.5 4t35.5 13
l-21 -54v106q0 21 -1.5 45t-3.5 37l-71 15l3 52h251l3 -50l-50 -16q-1 -10 -0.5 -31t0.5 -44q0 -17 1 -39t2 -52q-44 -27 -98.5 -40.5t-109.5 -13.5z" />
    <glyph glyph-name="Gbreve" unicode="&#x11e;" horiz-adv-x="660" 
d="M371 -9q-96 0 -170 34.5t-115.5 99t-41.5 155.5q0 74 26 132.5t73 99.5t111.5 62.5t141.5 21.5q45 0 91 -9.5t76 -24.5l4 -141l-62 -3l-31 92q-20 11 -44 15.5t-44 4.5q-59 0 -100 -27t-62 -77t-21 -118q0 -77 26 -133.5t69.5 -86t97.5 -29.5q15 0 34.5 4t35.5 13
l-21 -54v106q0 21 -1.5 45t-3.5 37l-71 15l3 52h251l3 -50l-50 -16q-1 -10 -0.5 -31t0.5 -44q0 -17 1 -39t2 -52q-44 -27 -98.5 -40.5t-109.5 -13.5zM479 779l58 -20q-12 -54 -63 -85t-122 -31t-123 31t-64 85l64 20q12 -25 45.5 -41t81.5 -16q47 0 80 16t43 41z" />
    <glyph glyph-name="Gcaron" unicode="&#x1e6;" horiz-adv-x="660" 
d="M371 -9q-96 0 -170 34.5t-115.5 99t-41.5 155.5q0 74 26 132.5t73 99.5t111.5 62.5t141.5 21.5q45 0 91 -9.5t76 -24.5l4 -141l-62 -3l-31 92q-20 11 -44 15.5t-44 4.5q-59 0 -100 -27t-62 -77t-21 -118q0 -77 26 -133.5t69.5 -86t97.5 -29.5q15 0 34.5 4t35.5 13
l-21 -54v106q0 21 -1.5 45t-3.5 37l-71 15l3 52h251l3 -50l-50 -16q-1 -10 -0.5 -31t0.5 -44q0 -17 1 -39t2 -52q-44 -27 -98.5 -40.5t-109.5 -13.5zM161 749l49 30l174 -84h-66l174 84l49 -30l-137 -103h-106z" />
    <glyph glyph-name="Gcircumflex" unicode="&#x11c;" horiz-adv-x="660" 
d="M371 -9q-96 0 -170 34.5t-115.5 99t-41.5 155.5q0 74 26 132.5t73 99.5t111.5 62.5t141.5 21.5q45 0 91 -9.5t76 -24.5l4 -141l-62 -3l-31 92q-20 11 -44 15.5t-44 4.5q-59 0 -100 -27t-62 -77t-21 -118q0 -77 26 -133.5t69.5 -86t97.5 -29.5q15 0 34.5 4t35.5 13
l-21 -54v106q0 21 -1.5 45t-3.5 37l-71 15l3 52h251l3 -50l-50 -16q-1 -10 -0.5 -31t0.5 -44q0 -17 1 -39t2 -52q-44 -27 -98.5 -40.5t-109.5 -13.5zM541 668l-49 -31l-174 84h66l-174 -84l-49 31l137 102h106z" />
    <glyph glyph-name="uni0122" unicode="&#x122;" horiz-adv-x="660" 
d="M371 -9q-96 0 -170 34.5t-115.5 99t-41.5 155.5q0 74 26 132.5t73 99.5t111.5 62.5t141.5 21.5q45 0 91 -9.5t76 -24.5l4 -141l-62 -3l-31 92q-20 11 -44 15.5t-44 4.5q-59 0 -100 -27t-62 -77t-21 -118q0 -77 26 -133.5t69.5 -86t97.5 -29.5q15 0 34.5 4t35.5 13
l-21 -54v106q0 21 -1.5 45t-3.5 37l-71 15l3 52h251l3 -50l-50 -16q-1 -10 -0.5 -31t0.5 -44q0 -17 1 -39t2 -52q-44 -27 -98.5 -40.5t-109.5 -13.5zM274 -291l-14 34q47 10 64.5 25.5t17.5 29.5q0 12 -10 18.5t-22.5 12.5t-22.5 17t-10 33q0 23 19.5 38.5t48.5 15.5
q20 0 38.5 -8.5t30 -25.5t11.5 -45t-17 -57.5t-50 -53t-84 -34.5z" />
    <glyph glyph-name="Gdotaccent" unicode="&#x120;" horiz-adv-x="660" 
d="M371 -9q-96 0 -170 34.5t-115.5 99t-41.5 155.5q0 74 26 132.5t73 99.5t111.5 62.5t141.5 21.5q45 0 91 -9.5t76 -24.5l4 -141l-62 -3l-31 92q-20 11 -44 15.5t-44 4.5q-59 0 -100 -27t-62 -77t-21 -118q0 -77 26 -133.5t69.5 -86t97.5 -29.5q15 0 34.5 4t35.5 13
l-21 -54v106q0 21 -1.5 45t-3.5 37l-71 15l3 52h251l3 -50l-50 -16q-1 -10 -0.5 -31t0.5 -44q0 -17 1 -39t2 -52q-44 -27 -98.5 -40.5t-109.5 -13.5zM352 638q-36 0 -56 22t-20 50q0 29 20 50.5t56 21.5t55 -21.5t19 -50.5q0 -28 -19 -50t-55 -22z" />
    <glyph glyph-name="uni1E20" unicode="&#x1e20;" horiz-adv-x="660" 
d="M371 -9q-96 0 -170 34.5t-115.5 99t-41.5 155.5q0 74 26 132.5t73 99.5t111.5 62.5t141.5 21.5q45 0 91 -9.5t76 -24.5l4 -141l-62 -3l-31 92q-20 11 -44 15.5t-44 4.5q-59 0 -100 -27t-62 -77t-21 -118q0 -77 26 -133.5t69.5 -86t97.5 -29.5q15 0 34.5 4t35.5 13
l-21 -54v106q0 21 -1.5 45t-3.5 37l-71 15l3 52h251l3 -50l-50 -16q-1 -10 -0.5 -31t0.5 -44q0 -17 1 -39t2 -52q-44 -27 -98.5 -40.5t-109.5 -13.5zM196 744h310v-71h-310v71z" />
    <glyph glyph-name="H" unicode="H" horiz-adv-x="702" 
d="M396 0l-3 50l62 16q2 5 3.5 27t2.5 55t1 72v147q0 40 -1 73.5t-2.5 55t-3.5 26.5l-62 15l3 50h268l3 -50l-63 -15q-1 -5 -3 -28t-3 -57t-1 -70v-147q0 -35 1 -68.5t3 -57t3 -28.5l63 -16l-3 -50h-268zM38 0l-3 50l63 16q2 5 3.5 26t2.5 54.5t1 73.5v147q0 41 -1 75
t-2.5 55.5t-3.5 24.5l-63 15l3 50h267l3 -50l-62 -15q-2 -5 -3.5 -26.5t-2 -55t-0.5 -73.5v-147q0 -39 0.5 -72t2 -55t3.5 -27l62 -16l-3 -50h-267zM217 262v76q24 -3 55.5 -4t78.5 -1t78 1t55 4v-76q-21 1 -52 2.5t-81 1.5t-81.5 -1.5z" />
    <glyph glyph-name="Hbar" unicode="&#x126;" horiz-adv-x="702" 
d="M396 0l-3 50l62 16q2 5 3.5 27t2.5 55t1 72v147q0 40 -1 73.5t-2.5 55t-3.5 26.5l-62 15l3 50h268l3 -50l-63 -15q-1 -5 -3 -28t-3 -57t-1 -70v-147q0 -35 1 -68.5t3 -57t3 -28.5l63 -16l-3 -50h-268zM38 0l-3 50l63 16q2 5 3.5 26t2.5 54.5t1 73.5v147q0 41 -1 75
t-2.5 55.5t-3.5 24.5l-63 15l3 50h267l3 -50l-62 -15q-2 -5 -3.5 -26.5t-2 -55t-0.5 -73.5v-147q0 -39 0.5 -72t2 -55t3.5 -27l62 -16l-3 -50h-267zM217 262v76q24 -3 55.5 -4t78.5 -1t78 1t55 4v-76q-21 1 -52 2.5t-81 1.5t-81.5 -1.5zM28 401v66h646v-66h-646z" />
    <glyph glyph-name="uni1E2A" unicode="&#x1e2a;" horiz-adv-x="702" 
d="M396 0l-3 50l62 16q2 5 3.5 27t2.5 55t1 72v147q0 40 -1 73.5t-2.5 55t-3.5 26.5l-62 15l3 50h268l3 -50l-63 -15q-1 -5 -3 -28t-3 -57t-1 -70v-147q0 -35 1 -68.5t3 -57t3 -28.5l63 -16l-3 -50h-268zM38 0l-3 50l63 16q2 5 3.5 26t2.5 54.5t1 73.5v147q0 41 -1 75
t-2.5 55.5t-3.5 24.5l-63 15l3 50h267l3 -50l-62 -15q-2 -5 -3.5 -26.5t-2 -55t-0.5 -73.5v-147q0 -39 0.5 -72t2 -55t3.5 -27l62 -16l-3 -50h-267zM217 262v76q24 -3 55.5 -4t78.5 -1t78 1t55 4v-76q-21 1 -52 2.5t-81 1.5t-81.5 -1.5zM449 -71l58 -20q-7 -63 -48 -99.5
t-107 -36.5t-107.5 36.5t-49.5 99.5l64 20q9 -35 34 -55t61 -20q37 0 62.5 20t32.5 55z" />
    <glyph glyph-name="Hcircumflex" unicode="&#x124;" horiz-adv-x="702" 
d="M396 0l-3 50l62 16q2 5 3.5 27t2.5 55t1 72v147q0 40 -1 73.5t-2.5 55t-3.5 26.5l-62 15l3 50h268l3 -50l-63 -15q-1 -5 -3 -28t-3 -57t-1 -70v-147q0 -35 1 -68.5t3 -57t3 -28.5l63 -16l-3 -50h-268zM38 0l-3 50l63 16q2 5 3.5 26t2.5 54.5t1 73.5v147q0 41 -1 75
t-2.5 55.5t-3.5 24.5l-63 15l3 50h267l3 -50l-62 -15q-2 -5 -3.5 -26.5t-2 -55t-0.5 -73.5v-147q0 -39 0.5 -72t2 -55t3.5 -27l62 -16l-3 -50h-267zM217 262v76q24 -3 55.5 -4t78.5 -1t78 1t55 4v-76q-21 1 -52 2.5t-81 1.5t-81.5 -1.5zM541 668l-49 -31l-174 84h66
l-174 -84l-49 31l137 102h106z" />
    <glyph glyph-name="uni1E24" unicode="&#x1e24;" horiz-adv-x="702" 
d="M396 0l-3 50l62 16q2 5 3.5 27t2.5 55t1 72v147q0 40 -1 73.5t-2.5 55t-3.5 26.5l-62 15l3 50h268l3 -50l-63 -15q-1 -5 -3 -28t-3 -57t-1 -70v-147q0 -35 1 -68.5t3 -57t3 -28.5l63 -16l-3 -50h-268zM38 0l-3 50l63 16q2 5 3.5 26t2.5 54.5t1 73.5v147q0 41 -1 75
t-2.5 55.5t-3.5 24.5l-63 15l3 50h267l3 -50l-62 -15q-2 -5 -3.5 -26.5t-2 -55t-0.5 -73.5v-147q0 -39 0.5 -72t2 -55t3.5 -27l62 -16l-3 -50h-267zM217 262v76q24 -3 55.5 -4t78.5 -1t78 1t55 4v-76q-21 1 -52 2.5t-81 1.5t-81.5 -1.5zM352 -211q-36 0 -56 22t-20 50
q0 29 20 50.5t56 21.5t55 -21.5t19 -50.5q0 -28 -19 -50t-55 -22z" />
    <glyph glyph-name="I" unicode="I" horiz-adv-x="345" 
d="M38 0l-3 50l63 16q2 5 3.5 26t2.5 54.5t1 73.5v147q0 41 -1 75t-2.5 55.5t-3.5 24.5l-63 15l3 50h269l3 -50l-64 -15q-2 -5 -3.5 -26.5t-2 -55t-0.5 -73.5v-147q0 -39 0.5 -72t2 -55t3.5 -27l64 -16l-3 -50h-269z" />
    <glyph glyph-name="IJ" unicode="&#x132;" horiz-adv-x="690" 
d="M38 0l-3 50l63 16q2 5 3.5 26t2.5 54.5t1 73.5v147q0 41 -1 75t-2.5 55.5t-3.5 24.5l-63 15l3 50h269l3 -50l-64 -15q-2 -5 -3.5 -26.5t-2 -55t-0.5 -73.5v-147q0 -39 0.5 -72t2 -55t3.5 -27l64 -16l-3 -50h-269zM591 522q-2 -4 -3.5 -25t-2 -54t-0.5 -75l1 -364
q0 -63 -23 -109.5t-65.5 -72t-99.5 -25.5q-61 0 -101 23.5t-40 59.5q0 24 14.5 38t35.5 14q18 0 34.5 -7.5t34.5 -25.5l71 -67l-55 20q24 -3 36.5 5t17.5 37t5 84l-1 393q0 37 -1 69.5t-2.5 55t-3.5 27.5l-70 14l3 50h276l3 -50z" />
    <glyph glyph-name="Iacute" unicode="&#xcd;" horiz-adv-x="345" 
d="M38 0l-3 50l63 16q2 5 3.5 26t2.5 54.5t1 73.5v147q0 41 -1 75t-2.5 55.5t-3.5 24.5l-63 15l3 50h269l3 -50l-64 -15q-2 -5 -3.5 -26.5t-2 -55t-0.5 -73.5v-147q0 -39 0.5 -72t2 -55t3.5 -27l64 -16l-3 -50h-269zM203 631l-62 20l93 133l116 -23z" />
    <glyph glyph-name="Ibreve" unicode="&#x12c;" horiz-adv-x="345" 
d="M38 0l-3 50l63 16q2 5 3.5 26t2.5 54.5t1 73.5v147q0 41 -1 75t-2.5 55.5t-3.5 24.5l-63 15l3 50h269l3 -50l-64 -15q-2 -5 -3.5 -26.5t-2 -55t-0.5 -73.5v-147q0 -39 0.5 -72t2 -55t3.5 -27l64 -16l-3 -50h-269zM300 779l58 -20q-12 -54 -63 -85t-122 -31t-123 31
t-64 85l64 20q12 -25 45.5 -41t81.5 -16q47 0 80 16t43 41z" />
    <glyph glyph-name="uni01CF" unicode="&#x1cf;" horiz-adv-x="345" 
d="M38 0l-3 50l63 16q2 5 3.5 26t2.5 54.5t1 73.5v147q0 41 -1 75t-2.5 55.5t-3.5 24.5l-63 15l3 50h269l3 -50l-64 -15q-2 -5 -3.5 -26.5t-2 -55t-0.5 -73.5v-147q0 -39 0.5 -72t2 -55t3.5 -27l64 -16l-3 -50h-269zM-18 749l49 30l174 -84h-66l174 84l49 -30l-137 -103
h-106z" />
    <glyph glyph-name="Icircumflex" unicode="&#xce;" horiz-adv-x="345" 
d="M38 0l-3 50l63 16q2 5 3.5 26t2.5 54.5t1 73.5v147q0 41 -1 75t-2.5 55.5t-3.5 24.5l-63 15l3 50h269l3 -50l-64 -15q-2 -5 -3.5 -26.5t-2 -55t-0.5 -73.5v-147q0 -39 0.5 -72t2 -55t3.5 -27l64 -16l-3 -50h-269zM362 668l-49 -31l-174 84h66l-174 -84l-49 31l137 102
h106z" />
    <glyph glyph-name="uni0208" unicode="&#x208;" horiz-adv-x="345" 
d="M38 0l-3 50l63 16q2 5 3.5 26t2.5 54.5t1 73.5v147q0 41 -1 75t-2.5 55.5t-3.5 24.5l-63 15l3 50h269l3 -50l-64 -15q-2 -5 -3.5 -26.5t-2 -55t-0.5 -73.5v-147q0 -39 0.5 -72t2 -55t3.5 -27l64 -16l-3 -50h-269zM219 637l-81 123l91 19l43 -124zM72 637l-80 123l91 19
l42 -124z" />
    <glyph glyph-name="Idieresis" unicode="&#xcf;" horiz-adv-x="345" 
d="M38 0l-3 50l63 16q2 5 3.5 26t2.5 54.5t1 73.5v147q0 41 -1 75t-2.5 55.5t-3.5 24.5l-63 15l3 50h269l3 -50l-64 -15q-2 -5 -3.5 -26.5t-2 -55t-0.5 -73.5v-147q0 -39 0.5 -72t2 -55t3.5 -27l64 -16l-3 -50h-269zM60 645q-33 0 -51.5 20t-18.5 45q0 26 18.5 45.5
t51.5 19.5q32 0 50 -19.5t18 -45.5q0 -25 -18 -45t-50 -20zM286 645q-33 0 -51.5 20t-18.5 45q0 26 18.5 45.5t51.5 19.5t50.5 -19.5t17.5 -45.5q0 -25 -17.5 -45t-50.5 -20z" />
    <glyph glyph-name="uni1E2E" unicode="&#x1e2e;" horiz-adv-x="345" 
d="M38 0l-3 50l63 16q2 5 3.5 26t2.5 54.5t1 73.5v147q0 41 -1 75t-2.5 55.5t-3.5 24.5l-63 15l3 50h269l3 -50l-64 -15q-2 -5 -3.5 -26.5t-2 -55t-0.5 -73.5v-147q0 -39 0.5 -72t2 -55t3.5 -27l64 -16l-3 -50h-269zM201 767l-58 20l64 116l117 -23zM60 645q-33 0 -51.5 20
t-18.5 45q0 26 18.5 45.5t51.5 19.5q32 0 50 -19.5t18 -45.5q0 -25 -18 -45t-50 -20zM286 645q-33 0 -51.5 20t-18.5 45q0 26 18.5 45.5t51.5 19.5t50.5 -19.5t17.5 -45.5q0 -25 -17.5 -45t-50.5 -20z" />
    <glyph glyph-name="Idotaccent" unicode="&#x130;" horiz-adv-x="345" 
d="M38 0l-3 50l63 16q2 5 3.5 26t2.5 54.5t1 73.5v147q0 41 -1 75t-2.5 55.5t-3.5 24.5l-63 15l3 50h269l3 -50l-64 -15q-2 -5 -3.5 -26.5t-2 -55t-0.5 -73.5v-147q0 -39 0.5 -72t2 -55t3.5 -27l64 -16l-3 -50h-269zM173 638q-36 0 -56 22t-20 50q0 29 20 50.5t56 21.5
t55 -21.5t19 -50.5q0 -28 -19 -50t-55 -22z" />
    <glyph glyph-name="uni1ECA" unicode="&#x1eca;" horiz-adv-x="345" 
d="M38 0l-3 50l63 16q2 5 3.5 26t2.5 54.5t1 73.5v147q0 41 -1 75t-2.5 55.5t-3.5 24.5l-63 15l3 50h269l3 -50l-64 -15q-2 -5 -3.5 -26.5t-2 -55t-0.5 -73.5v-147q0 -39 0.5 -72t2 -55t3.5 -27l64 -16l-3 -50h-269zM173 -211q-36 0 -56 22t-20 50q0 29 20 50.5t56 21.5
t55 -21.5t19 -50.5q0 -28 -19 -50t-55 -22z" />
    <glyph glyph-name="Igrave" unicode="&#xcc;" horiz-adv-x="345" 
d="M38 0l-3 50l63 16q2 5 3.5 26t2.5 54.5t1 73.5v147q0 41 -1 75t-2.5 55.5t-3.5 24.5l-63 15l3 50h269l3 -50l-64 -15q-2 -5 -3.5 -26.5t-2 -55t-0.5 -73.5v-147q0 -39 0.5 -72t2 -55t3.5 -27l64 -16l-3 -50h-269zM141 631l-147 130l116 23l93 -133z" />
    <glyph glyph-name="uni1EC8" unicode="&#x1ec8;" horiz-adv-x="345" 
d="M38 0l-3 50l63 16q2 5 3.5 26t2.5 54.5t1 73.5v147q0 41 -1 75t-2.5 55.5t-3.5 24.5l-63 15l3 50h269l3 -50l-64 -15q-2 -5 -3.5 -26.5t-2 -55t-0.5 -73.5v-147q0 -39 0.5 -72t2 -55t3.5 -27l64 -16l-3 -50h-269zM173 819q50 0 79.5 -17.5t29.5 -49.5q0 -23 -13.5 -37
t-30.5 -24t-30.5 -21.5t-13.5 -28.5h-44v17q0 25 11 42t22 31t11 27q0 20 -14.5 24t-41.5 -3l41 15l-40 -43q-9 -9 -17.5 -13.5t-21.5 -4.5q-14 0 -22.5 7.5t-8.5 20.5q0 22 28.5 40t75.5 18z" />
    <glyph glyph-name="uni020A" unicode="&#x20a;" horiz-adv-x="345" 
d="M38 0l-3 50l63 16q2 5 3.5 26t2.5 54.5t1 73.5v147q0 41 -1 75t-2.5 55.5t-3.5 24.5l-63 15l3 50h269l3 -50l-64 -15q-2 -5 -3.5 -26.5t-2 -55t-0.5 -73.5v-147q0 -39 0.5 -72t2 -55t3.5 -27l64 -16l-3 -50h-269zM44 637l-58 21q12 52 63 83.5t122 31.5t123 -31.5
t64 -83.5l-64 -21q-11 26 -45 41.5t-82 15.5q-47 0 -80 -15.5t-43 -41.5z" />
    <glyph glyph-name="Imacron" unicode="&#x12a;" horiz-adv-x="345" 
d="M38 0l-3 50l63 16q2 5 3.5 26t2.5 54.5t1 73.5v147q0 41 -1 75t-2.5 55.5t-3.5 24.5l-63 15l3 50h269l3 -50l-64 -15q-2 -5 -3.5 -26.5t-2 -55t-0.5 -73.5v-147q0 -39 0.5 -72t2 -55t3.5 -27l64 -16l-3 -50h-269zM17 744h310v-71h-310v71z" />
    <glyph glyph-name="Iogonek" unicode="&#x12e;" horiz-adv-x="345" 
d="M240 220q0 -38 0.5 -71t2 -55.5t3.5 -27.5l64 -16l-3 -50q-44 0 -81.5 -15.5t-60.5 -40t-23 -54.5q0 -27 14.5 -43t38.5 -16q34 0 67 34l27 -38q-22 -25 -51 -37.5t-63 -12.5q-56 0 -93 28.5t-37 72.5q0 47 45.5 83t126.5 53l-6 -14h-173l-3 50l63 16q2 5 3.5 26t2.5 54
t1 74v147q0 41 -1 75t-2.5 55.5t-3.5 24.5l-63 15l3 50h269l3 -50l-64 -15q-2 -5 -3.5 -27t-2 -55.5t-0.5 -72.5v-147z" />
    <glyph glyph-name="Itilde" unicode="&#x128;" horiz-adv-x="345" 
d="M38 0l-3 50l63 16q2 5 3.5 26t2.5 54.5t1 73.5v147q0 41 -1 75t-2.5 55.5t-3.5 24.5l-63 15l3 50h269l3 -50l-64 -15q-2 -5 -3.5 -26.5t-2 -55t-0.5 -73.5v-147q0 -39 0.5 -72t2 -55t3.5 -27l64 -16l-3 -50h-269zM345 774l43 -24q-18 -52 -54.5 -80t-82.5 -28
q-29 0 -61.5 11.5t-63.5 23t-54 11.5q-22 0 -39 -11t-34 -34l-43 26q19 50 55 78.5t82 28.5q30 0 62.5 -11.5t63.5 -23t54 -11.5q22 0 39 11t33 33z" />
    <glyph glyph-name="J" unicode="J" horiz-adv-x="345" 
d="M246 522q-2 -4 -3.5 -25t-2 -54t-0.5 -75l1 -364q0 -63 -23 -109.5t-65.5 -72t-99.5 -25.5q-61 0 -101 23.5t-40 59.5q0 24 14.5 38t35.5 14q18 0 34.5 -7.5t34.5 -25.5l71 -67l-55 20q24 -3 36.5 5t17.5 37t5 84l-1 393q0 37 -1 69.5t-2.5 55t-3.5 27.5l-70 14l3 50h276
l3 -50z" />
    <glyph glyph-name="Jcircumflex" unicode="&#x134;" horiz-adv-x="345" 
d="M246 522q-2 -4 -3.5 -25t-2 -54t-0.5 -75l1 -364q0 -63 -23 -109.5t-65.5 -72t-99.5 -25.5q-61 0 -101 23.5t-40 59.5q0 24 14.5 38t35.5 14q18 0 34.5 -7.5t34.5 -25.5l71 -67l-55 20q24 -3 36.5 5t17.5 37t5 84l-1 393q0 37 -1 69.5t-2.5 55t-3.5 27.5l-70 14l3 50h276
l3 -50zM362 668l-49 -31l-174 84h66l-174 -84l-49 31l137 102h106z" />
    <glyph glyph-name="K" unicode="K" horiz-adv-x="654" 
d="M370 0l-3 50l52 10q-6 11 -12.5 20.5t-20.5 27.5l-124 151h-39v47l42 8l206 212l-64 11l3 50h226l3 -52l-66 -10l-220 -197l-2 43l192 -230q24 -27 38 -43.5t22 -25t13 -13.5l51 -8v-51h-297zM41 0l-3 50l64 16q2 6 3 48.5t1 105.5v147q0 41 -1 74.5t-2.5 54.5t-3.5 25
l-63 16l3 50h269l3 -50l-64 -16q-2 -4 -3.5 -25.5t-2 -55t-0.5 -73.5v-147q0 -63 1.5 -105.5t2.5 -48.5l52 -16l-3 -50h-253z" />
    <glyph glyph-name="uni0136" unicode="&#x136;" horiz-adv-x="654" 
d="M370 0l-3 50l52 10q-6 11 -12.5 20.5t-20.5 27.5l-124 151h-39v47l42 8l206 212l-64 11l3 50h226l3 -52l-66 -10l-220 -197l-2 43l192 -230q24 -27 38 -43.5t22 -25t13 -13.5l51 -8v-51h-297zM41 0l-3 50l64 16q2 6 3 48.5t1 105.5v147q0 41 -1 74.5t-2.5 54.5t-3.5 25
l-63 16l3 50h269l3 -50l-64 -16q-2 -4 -3.5 -25.5t-2 -55t-0.5 -73.5v-147q0 -63 1.5 -105.5t2.5 -48.5l52 -16l-3 -50h-253zM255 -291l-14 34q47 10 64.5 25.5t17.5 29.5q0 12 -10 18.5t-22.5 12.5t-22.5 17t-10 33q0 23 19.5 38.5t48.5 15.5q20 0 38.5 -8.5t30 -25.5
t11.5 -45t-17 -57.5t-50 -53t-84 -34.5z" />
    <glyph glyph-name="L" unicode="L" horiz-adv-x="551" 
d="M498 -7q-25 3 -55 4t-57 2t-44 1h-303l-3 50l64 16q2 5 3 27.5t2 56t1 70.5v147q0 39 -1 72t-2 55t-3 27l-64 16l3 50h289l3 -52l-83 -15q-1 -3 -3 -24t-3 -54.5t-1 -74.5v-147q0 -59 1 -94t3 -48q17 -3 35.5 -4t44.5 -1h37q22 0 39 2t28 4l56 109l62 -16z" />
    <glyph glyph-name="uni01C7" unicode="&#x1c7;" horiz-adv-x="886" 
d="M498 -7q-25 3 -55 4t-57 2t-44 1h-303l-3 50l64 16q2 5 3 27.5t2 56t1 70.5v147q0 39 -1 72t-2 55t-3 27l-64 16l3 50h289l3 -52l-83 -15q-1 -3 -3 -24t-3 -54.5t-1 -74.5v-147q0 -59 1 -94t3 -48q17 -3 35.5 -4t44.5 -1h37q22 0 39 2t28 4l56 109l62 -16zM787 522
q-2 -4 -3.5 -25t-2 -54t-0.5 -75l1 -364q0 -63 -23 -109.5t-65.5 -72t-99.5 -25.5q-61 0 -101 23.5t-40 59.5q0 24 14.5 38t35.5 14q18 0 34.5 -7.5t34.5 -25.5l71 -67l-55 20q24 -3 36.5 5t17.5 37t5 84l-1 393q0 37 -1 69.5t-2.5 55t-3.5 27.5l-70 14l3 50h276l3 -50z" />
    <glyph glyph-name="Lacute" unicode="&#x139;" horiz-adv-x="551" 
d="M498 -7q-25 3 -55 4t-57 2t-44 1h-303l-3 50l64 16q2 5 3 27.5t2 56t1 70.5v147q0 39 -1 72t-2 55t-3 27l-64 16l3 50h289l3 -52l-83 -15q-1 -3 -3 -24t-3 -54.5t-1 -74.5v-147q0 -59 1 -94t3 -48q17 -3 35.5 -4t44.5 -1h37q22 0 39 2t28 4l56 109l62 -16zM204 631
l-62 20l93 133l116 -23z" />
    <glyph glyph-name="Lcaron" unicode="&#x13d;" horiz-adv-x="551" 
d="M498 -7q-25 3 -55 4t-57 2t-44 1h-303l-3 50l64 16q2 5 3 27.5t2 56t1 70.5v147q0 39 -1 72t-2 55t-3 27l-64 16l3 50h289l3 -52l-83 -15q-1 -3 -3 -24t-3 -54.5t-1 -74.5v-147q0 -59 1 -94t3 -48q17 -3 35.5 -4t44.5 -1h37q22 0 39 2t28 4l56 109l62 -16zM406 360
l-22 32q32 18 45 34.5t13 30.5q0 13 -9 19t-21 12t-21 17t-9 34q0 22 18.5 37.5t46.5 15.5q20 0 38.5 -8t30 -24.5t11.5 -42.5q0 -28 -15 -57.5t-42.5 -55.5t-63.5 -44z" />
    <glyph glyph-name="uni013B" unicode="&#x13b;" horiz-adv-x="551" 
d="M498 -7q-25 3 -55 4t-57 2t-44 1h-303l-3 50l64 16q2 5 3 27.5t2 56t1 70.5v147q0 39 -1 72t-2 55t-3 27l-64 16l3 50h289l3 -52l-83 -15q-1 -3 -3 -24t-3 -54.5t-1 -74.5v-147q0 -59 1 -94t3 -48q17 -3 35.5 -4t44.5 -1h37q22 0 39 2t28 4l56 109l62 -16zM220 -291
l-14 34q47 10 64.5 25.5t17.5 29.5q0 12 -10 18.5t-22.5 12.5t-22.5 17t-10 33q0 23 19.5 38.5t48.5 15.5q20 0 38.5 -8.5t30 -25.5t11.5 -45t-17 -57.5t-50 -53t-84 -34.5z" />
    <glyph glyph-name="Ldot" unicode="&#x13f;" horiz-adv-x="551" 
d="M498 -7q-25 3 -55 4t-57 2t-44 1h-303l-3 50l64 16q2 5 3 27.5t2 56t1 70.5v147q0 39 -1 72t-2 55t-3 27l-64 16l3 50h289l3 -52l-83 -15q-1 -3 -3 -24t-3 -54.5t-1 -74.5v-147q0 -59 1 -94t3 -48q17 -3 35.5 -4t44.5 -1h37q22 0 39 2t28 4l56 109l62 -16zM388 246
q-37 0 -57.5 22.5t-20.5 51.5t20.5 51t57.5 22q36 0 56 -22t20 -51t-20 -51.5t-56 -22.5z" />
    <glyph glyph-name="uni1E36" unicode="&#x1e36;" horiz-adv-x="551" 
d="M498 -7q-25 3 -55 4t-57 2t-44 1h-303l-3 50l64 16q2 5 3 27.5t2 56t1 70.5v147q0 39 -1 72t-2 55t-3 27l-64 16l3 50h289l3 -52l-83 -15q-1 -3 -3 -24t-3 -54.5t-1 -74.5v-147q0 -59 1 -94t3 -48q17 -3 35.5 -4t44.5 -1h37q22 0 39 2t28 4l56 109l62 -16zM298 -211
q-36 0 -56 22t-20 50q0 29 20 50.5t56 21.5t55 -21.5t19 -50.5q0 -28 -19 -50t-55 -22z" />
    <glyph glyph-name="uni01C8" unicode="&#x1c8;" horiz-adv-x="838" 
d="M498 -7q-25 3 -55 4t-57 2t-44 1h-303l-3 50l64 16q2 5 3 27.5t2 56t1 70.5v147q0 39 -1 72t-2 55t-3 27l-64 16l3 50h289l3 -52l-83 -15q-1 -3 -3 -24t-3 -54.5t-1 -74.5v-147q0 -59 1 -94t3 -48q17 -3 35.5 -4t44.5 -1h37q22 0 39 2t28 4l56 109l62 -16zM575 -228
q-49 0 -82 21t-33 53q0 22 12.5 32.5t33.5 10.5q18 0 31.5 -6t27.5 -19l57 -53l-44 6q16 0 28.5 12t20 44t7.5 91l1 274q0 35 -2 58t-6 45l-67 14v45l183 45l29 -17q-3 -29 -4.5 -62.5t-1.5 -85.5l1 -279q0 -69 -26 -120.5t-69.5 -80t-96.5 -28.5zM702 527q-40 0 -63 24.5
t-23 56.5t23 56.5t63 24.5t62 -24.5t22 -56.5t-22 -56.5t-62 -24.5z" />
    <glyph glyph-name="uni1E3A" unicode="&#x1e3a;" horiz-adv-x="551" 
d="M498 -7q-25 3 -55 4t-57 2t-44 1h-303l-3 50l64 16q2 5 3 27.5t2 56t1 70.5v147q0 39 -1 72t-2 55t-3 27l-64 16l3 50h289l3 -52l-83 -15q-1 -3 -3 -24t-3 -54.5t-1 -74.5v-147q0 -59 1 -94t3 -48q17 -3 35.5 -4t44.5 -1h37q22 0 39 2t28 4l56 109l62 -16zM142 -104h310
v-71h-310v71z" />
    <glyph glyph-name="Lslash" unicode="&#x141;" horiz-adv-x="551" 
d="M498 -7q-25 3 -55 4t-57 2t-44 1h-303l-3 50l64 16q2 5 3 27.5t2 56t1 70.5v147q0 39 -1 72t-2 55t-3 27l-64 16l3 50h289l3 -52l-83 -15q-1 -3 -3 -24t-3 -54.5t-1 -74.5v-147q0 -59 1 -94t3 -48q17 -3 35.5 -4t44.5 -1h37q22 0 39 2t28 4l56 109l62 -16zM43 154l-37 53
l353 245l37 -53z" />
    <glyph glyph-name="M" unicode="M" horiz-adv-x="891" 
d="M48 587h209l209 -444h-28l188 444h210l3 -50l-64 -15q-1 -13 0 -44.5t2 -81.5l7 -175q2 -42 3.5 -75t3.5 -54t3 -26l63 -16l-3 -50h-271l-3 50l64 16q1 4 1.5 23.5t0.5 52.5t-1 78l-3 338h46l-238 -561h-63l-266 561h61l1 -344q0 -77 1 -109.5t2 -38.5l70 -16l-3 -50
h-219l-3 50l70 16q1 6 1.5 27.5t1.5 51.5t1 62l3 187q1 53 0.5 84t-0.5 43l-63 16z" />
    <glyph glyph-name="uni1E42" unicode="&#x1e42;" horiz-adv-x="891" 
d="M48 587h209l209 -444h-28l188 444h210l3 -50l-64 -15q-1 -13 0 -44.5t2 -81.5l7 -175q2 -42 3.5 -75t3.5 -54t3 -26l63 -16l-3 -50h-271l-3 50l64 16q1 4 1.5 23.5t0.5 52.5t-1 78l-3 338h46l-238 -561h-63l-266 561h61l1 -344q0 -77 1 -109.5t2 -38.5l70 -16l-3 -50
h-219l-3 50l70 16q1 6 1.5 27.5t1.5 51.5t1 62l3 187q1 53 0.5 84t-0.5 43l-63 16zM419 -211q-36 0 -56 22t-20 50q0 29 20 50.5t56 21.5t55 -21.5t19 -50.5q0 -28 -19 -50t-55 -22z" />
    <glyph glyph-name="N" unicode="N" horiz-adv-x="698" 
d="M519 185v154q0 48 -0.5 88t-2 65t-4.5 29l-69 16l3 50h213l3 -50l-64 -16q-2 -4 -3.5 -29t-2.5 -65t-1 -88v-191q0 -47 0.5 -82.5t0.5 -70.5h-61l-402 465l53 1v-200q0 -54 1 -96t2.5 -67.5t3.5 -31.5l70 -16l-3 -50h-216l-3 50l63 16q2 6 3.5 33t2.5 69.5t1 92.5v133
q0 27 -1.5 54.5t-3 47.5t-2.5 25l-63 16l3 50h158l361 -402h-40z" />
    <glyph glyph-name="uni01CA" unicode="&#x1ca;" horiz-adv-x="1038" 
d="M519 185v154q0 48 -0.5 88t-2 65t-4.5 29l-69 16l3 50h213l3 -50l-64 -16q-2 -4 -3.5 -29t-2.5 -65t-1 -88v-191q0 -47 0.5 -82.5t0.5 -70.5h-61l-402 465l53 1v-200q0 -54 1 -96t2.5 -67.5t3.5 -31.5l70 -16l-3 -50h-216l-3 50l63 16q2 6 3.5 33t2.5 69.5t1 92.5v133
q0 27 -1.5 54.5t-3 47.5t-2.5 25l-63 16l3 50h158l361 -402h-40zM939 522q-2 -4 -3.5 -25t-2 -54t-0.5 -75l1 -364q0 -63 -23 -109.5t-65.5 -72t-99.5 -25.5q-61 0 -101 23.5t-40 59.5q0 24 14.5 38t35.5 14q18 0 34.5 -7.5t34.5 -25.5l71 -67l-55 20q24 -3 36.5 5t17.5 37
t5 84l-1 393q0 37 -1 69.5t-2.5 55t-3.5 27.5l-70 14l3 50h276l3 -50z" />
    <glyph glyph-name="Nacute" unicode="&#x143;" horiz-adv-x="698" 
d="M519 185v154q0 48 -0.5 88t-2 65t-4.5 29l-69 16l3 50h213l3 -50l-64 -16q-2 -4 -3.5 -29t-2.5 -65t-1 -88v-191q0 -47 0.5 -82.5t0.5 -70.5h-61l-402 465l53 1v-200q0 -54 1 -96t2.5 -67.5t3.5 -31.5l70 -16l-3 -50h-216l-3 50l63 16q2 6 3.5 33t2.5 69.5t1 92.5v133
q0 27 -1.5 54.5t-3 47.5t-2.5 25l-63 16l3 50h158l361 -402h-40zM380 631l-62 20l93 133l116 -23z" />
    <glyph glyph-name="Ncaron" unicode="&#x147;" horiz-adv-x="698" 
d="M519 185v154q0 48 -0.5 88t-2 65t-4.5 29l-69 16l3 50h213l3 -50l-64 -16q-2 -4 -3.5 -29t-2.5 -65t-1 -88v-191q0 -47 0.5 -82.5t0.5 -70.5h-61l-402 465l53 1v-200q0 -54 1 -96t2.5 -67.5t3.5 -31.5l70 -16l-3 -50h-216l-3 50l63 16q2 6 3.5 33t2.5 69.5t1 92.5v133
q0 27 -1.5 54.5t-3 47.5t-2.5 25l-63 16l3 50h158l361 -402h-40zM159 749l49 30l174 -84h-66l174 84l49 -30l-137 -103h-106z" />
    <glyph glyph-name="uni0145" unicode="&#x145;" horiz-adv-x="698" 
d="M519 185v154q0 48 -0.5 88t-2 65t-4.5 29l-69 16l3 50h213l3 -50l-64 -16q-2 -4 -3.5 -29t-2.5 -65t-1 -88v-191q0 -47 0.5 -82.5t0.5 -70.5h-61l-402 465l53 1v-200q0 -54 1 -96t2.5 -67.5t3.5 -31.5l70 -16l-3 -50h-216l-3 50l63 16q2 6 3.5 33t2.5 69.5t1 92.5v133
q0 27 -1.5 54.5t-3 47.5t-2.5 25l-63 16l3 50h158l361 -402h-40zM272 -291l-14 34q47 10 64.5 25.5t17.5 29.5q0 12 -10 18.5t-22.5 12.5t-22.5 17t-10 33q0 23 19.5 38.5t48.5 15.5q20 0 38.5 -8.5t30 -25.5t11.5 -45t-17 -57.5t-50 -53t-84 -34.5z" />
    <glyph glyph-name="uni1E44" unicode="&#x1e44;" horiz-adv-x="698" 
d="M519 185v154q0 48 -0.5 88t-2 65t-4.5 29l-69 16l3 50h213l3 -50l-64 -16q-2 -4 -3.5 -29t-2.5 -65t-1 -88v-191q0 -47 0.5 -82.5t0.5 -70.5h-61l-402 465l53 1v-200q0 -54 1 -96t2.5 -67.5t3.5 -31.5l70 -16l-3 -50h-216l-3 50l63 16q2 6 3.5 33t2.5 69.5t1 92.5v133
q0 27 -1.5 54.5t-3 47.5t-2.5 25l-63 16l3 50h158l361 -402h-40zM350 638q-36 0 -56 22t-20 50q0 29 20 50.5t56 21.5t55 -21.5t19 -50.5q0 -28 -19 -50t-55 -22z" />
    <glyph glyph-name="uni1E46" unicode="&#x1e46;" horiz-adv-x="698" 
d="M519 185v154q0 48 -0.5 88t-2 65t-4.5 29l-69 16l3 50h213l3 -50l-64 -16q-2 -4 -3.5 -29t-2.5 -65t-1 -88v-191q0 -47 0.5 -82.5t0.5 -70.5h-61l-402 465l53 1v-200q0 -54 1 -96t2.5 -67.5t3.5 -31.5l70 -16l-3 -50h-216l-3 50l63 16q2 6 3.5 33t2.5 69.5t1 92.5v133
q0 27 -1.5 54.5t-3 47.5t-2.5 25l-63 16l3 50h158l361 -402h-40zM350 -211q-36 0 -56 22t-20 50q0 29 20 50.5t56 21.5t55 -21.5t19 -50.5q0 -28 -19 -50t-55 -22z" />
    <glyph glyph-name="Eng" unicode="&#x14a;" horiz-adv-x="698" 
d="M409 -203q-36 0 -67 12t-49.5 32t-18.5 45q0 23 14 36.5t37 13.5q19 0 35.5 -7.5t37.5 -26.5l73 -68l-56 22q32 -5 55 11t36 48.5t13 79.5v90l12 -90l-402 466h53v-200q0 -52 1 -94t2.5 -68.5t3.5 -32.5l70 -16l-3 -50h-216l-3 50l63 16q2 6 3.5 33t2.5 69t1 93v133
q0 31 -1.5 57.5t-3 45.5t-2.5 24l-63 16l3 50h158l361 -402h-40v154q0 52 -1 91t-2.5 63t-3.5 28l-69 16l3 50h212l3 -50l-63 -16q-2 -4 -3.5 -27t-2.5 -62t-1 -93v-293q0 -123 -44.5 -186t-137.5 -63z" />
    <glyph glyph-name="uni01CB" unicode="&#x1cb;" horiz-adv-x="985" 
d="M519 185v154q0 48 -0.5 88t-2 65t-4.5 29l-69 16l3 50h213l3 -50l-64 -16q-2 -4 -3.5 -29t-2.5 -65t-1 -88v-191q0 -47 0.5 -82.5t0.5 -70.5h-61l-402 465l53 1v-200q0 -54 1 -96t2.5 -67.5t3.5 -31.5l70 -16l-3 -50h-216l-3 50l63 16q2 6 3.5 33t2.5 69.5t1 92.5v133
q0 27 -1.5 54.5t-3 47.5t-2.5 25l-63 16l3 50h158l361 -402h-40zM722 -228q-49 0 -82 21t-33 53q0 22 12.5 32.5t33.5 10.5q18 0 31.5 -6t27.5 -19l57 -53l-44 6q16 0 28.5 12t20 44t7.5 91l1 274q0 35 -2 58t-6 45l-67 14v45l183 45l29 -17q-3 -29 -4.5 -62.5t-1.5 -85.5
l1 -279q0 -69 -26 -120.5t-69.5 -80t-96.5 -28.5zM849 527q-40 0 -63 24.5t-23 56.5t23 56.5t63 24.5t62 -24.5t22 -56.5t-22 -56.5t-62 -24.5z" />
    <glyph glyph-name="uni1E48" unicode="&#x1e48;" horiz-adv-x="698" 
d="M519 185v154q0 48 -0.5 88t-2 65t-4.5 29l-69 16l3 50h213l3 -50l-64 -16q-2 -4 -3.5 -29t-2.5 -65t-1 -88v-191q0 -47 0.5 -82.5t0.5 -70.5h-61l-402 465l53 1v-200q0 -54 1 -96t2.5 -67.5t3.5 -31.5l70 -16l-3 -50h-216l-3 50l63 16q2 6 3.5 33t2.5 69.5t1 92.5v133
q0 27 -1.5 54.5t-3 47.5t-2.5 25l-63 16l3 50h158l361 -402h-40zM194 -104h310v-71h-310v71z" />
    <glyph glyph-name="Ntilde" unicode="&#xd1;" horiz-adv-x="698" 
d="M519 185v154q0 48 -0.5 88t-2 65t-4.5 29l-69 16l3 50h213l3 -50l-64 -16q-2 -4 -3.5 -29t-2.5 -65t-1 -88v-191q0 -47 0.5 -82.5t0.5 -70.5h-61l-402 465l53 1v-200q0 -54 1 -96t2.5 -67.5t3.5 -31.5l70 -16l-3 -50h-216l-3 50l63 16q2 6 3.5 33t2.5 69.5t1 92.5v133
q0 27 -1.5 54.5t-3 47.5t-2.5 25l-63 16l3 50h158l361 -402h-40zM522 774l43 -24q-18 -52 -54.5 -80t-82.5 -28q-29 0 -61.5 11.5t-63.5 23t-54 11.5q-22 0 -39 -11t-34 -34l-43 26q19 50 55 78.5t82 28.5q30 0 62.5 -11.5t63.5 -23t54 -11.5q22 0 39 11t33 33z" />
    <glyph glyph-name="O" unicode="O" horiz-adv-x="707" 
d="M360 -9q-92 0 -163.5 38t-112 104.5t-40.5 152.5q0 90 40.5 160t112.5 110t163 40q90 0 158 -37.5t106.5 -103.5t38.5 -154q0 -77 -28 -135t-73.5 -97t-98.5 -58.5t-103 -19.5zM367 65q47 0 78 24.5t46.5 72t15.5 114.5q0 77 -19.5 134t-55 88.5t-84.5 31.5
q-68 0 -107 -57t-39 -158q0 -74 21 -130t58.5 -88t85.5 -32z" />
    <glyph glyph-name="Oacute" unicode="&#xd3;" horiz-adv-x="707" 
d="M360 -9q-92 0 -163.5 38t-112 104.5t-40.5 152.5q0 90 40.5 160t112.5 110t163 40q90 0 158 -37.5t106.5 -103.5t38.5 -154q0 -77 -28 -135t-73.5 -97t-98.5 -58.5t-103 -19.5zM367 65q47 0 78 24.5t46.5 72t15.5 114.5q0 77 -19.5 134t-55 88.5t-84.5 31.5
q-68 0 -107 -57t-39 -158q0 -74 21 -130t58.5 -88t85.5 -32zM385 631l-62 20l93 133l116 -23z" />
    <glyph glyph-name="Obreve" unicode="&#x14e;" horiz-adv-x="707" 
d="M360 -9q-92 0 -163.5 38t-112 104.5t-40.5 152.5q0 90 40.5 160t112.5 110t163 40q90 0 158 -37.5t106.5 -103.5t38.5 -154q0 -77 -28 -135t-73.5 -97t-98.5 -58.5t-103 -19.5zM367 65q47 0 78 24.5t46.5 72t15.5 114.5q0 77 -19.5 134t-55 88.5t-84.5 31.5
q-68 0 -107 -57t-39 -158q0 -74 21 -130t58.5 -88t85.5 -32zM482 779l58 -20q-12 -54 -63 -85t-122 -31t-123 31t-64 85l64 20q12 -25 45.5 -41t81.5 -16q47 0 80 16t43 41z" />
    <glyph glyph-name="Ocircumflex" unicode="&#xd4;" horiz-adv-x="707" 
d="M360 -9q-92 0 -163.5 38t-112 104.5t-40.5 152.5q0 90 40.5 160t112.5 110t163 40q90 0 158 -37.5t106.5 -103.5t38.5 -154q0 -77 -28 -135t-73.5 -97t-98.5 -58.5t-103 -19.5zM367 65q47 0 78 24.5t46.5 72t15.5 114.5q0 77 -19.5 134t-55 88.5t-84.5 31.5
q-68 0 -107 -57t-39 -158q0 -74 21 -130t58.5 -88t85.5 -32zM544 668l-49 -31l-174 84h66l-174 -84l-49 31l137 102h106z" />
    <glyph glyph-name="uni1ED0" unicode="&#x1ed0;" horiz-adv-x="707" 
d="M360 -9q-92 0 -163.5 38t-112 104.5t-40.5 152.5q0 90 40.5 160t112.5 110t163 40q90 0 158 -37.5t106.5 -103.5t38.5 -154q0 -77 -28 -135t-73.5 -97t-98.5 -58.5t-103 -19.5zM367 65q47 0 78 24.5t46.5 72t15.5 114.5q0 77 -19.5 134t-55 88.5t-84.5 31.5
q-68 0 -107 -57t-39 -158q0 -74 21 -130t58.5 -88t85.5 -32zM509 748l-59 20l67 135l117 -23zM544 668l-49 -31l-174 84h66l-174 -84l-49 31l137 102h106z" />
    <glyph glyph-name="uni1ED8" unicode="&#x1ed8;" horiz-adv-x="707" 
d="M360 -9q-92 0 -163.5 38t-112 104.5t-40.5 152.5q0 90 40.5 160t112.5 110t163 40q90 0 158 -37.5t106.5 -103.5t38.5 -154q0 -77 -28 -135t-73.5 -97t-98.5 -58.5t-103 -19.5zM367 65q47 0 78 24.5t46.5 72t15.5 114.5q0 77 -19.5 134t-55 88.5t-84.5 31.5
q-68 0 -107 -57t-39 -158q0 -74 21 -130t58.5 -88t85.5 -32zM355 -211q-36 0 -56 22t-20 50q0 29 20 50.5t56 21.5t55 -21.5t19 -50.5q0 -28 -19 -50t-55 -22zM544 668l-49 -31l-174 84h66l-174 -84l-49 31l137 102h106z" />
    <glyph glyph-name="uni1ED2" unicode="&#x1ed2;" horiz-adv-x="707" 
d="M360 -9q-92 0 -163.5 38t-112 104.5t-40.5 152.5q0 90 40.5 160t112.5 110t163 40q90 0 158 -37.5t106.5 -103.5t38.5 -154q0 -77 -28 -135t-73.5 -97t-98.5 -58.5t-103 -19.5zM367 65q47 0 78 24.5t46.5 72t15.5 114.5q0 77 -19.5 134t-55 88.5t-84.5 31.5
q-68 0 -107 -57t-39 -158q0 -74 21 -130t58.5 -88t85.5 -32zM499 748l-126 132l117 23l67 -135zM544 668l-49 -31l-174 84h66l-174 -84l-49 31l137 102h106z" />
    <glyph glyph-name="uni1ED4" unicode="&#x1ed4;" horiz-adv-x="707" 
d="M360 -9q-92 0 -163.5 38t-112 104.5t-40.5 152.5q0 90 40.5 160t112.5 110t163 40q90 0 158 -37.5t106.5 -103.5t38.5 -154q0 -77 -28 -135t-73.5 -97t-98.5 -58.5t-103 -19.5zM367 65q47 0 78 24.5t46.5 72t15.5 114.5q0 77 -19.5 134t-55 88.5t-84.5 31.5
q-68 0 -107 -57t-39 -158q0 -74 21 -130t58.5 -88t85.5 -32zM544 668l-49 -31l-174 84h66l-174 -84l-49 31l137 102h106zM498 903q50 0 79.5 -16t29.5 -48q0 -21 -13 -33.5t-30.5 -21t-31 -16.5t-13.5 -20h-44v14q0 17 11 30t22 25t11 25q0 20 -14.5 24t-41.5 -3l41 15
l-40 -43q-9 -9 -18 -13.5t-21 -4.5q-14 0 -22.5 7.5t-8.5 20.5q0 22 28.5 40t75.5 18z" />
    <glyph glyph-name="uni1ED6" unicode="&#x1ed6;" horiz-adv-x="707" 
d="M360 -9q-92 0 -163.5 38t-112 104.5t-40.5 152.5q0 90 40.5 160t112.5 110t163 40q90 0 158 -37.5t106.5 -103.5t38.5 -154q0 -77 -28 -135t-73.5 -97t-98.5 -58.5t-103 -19.5zM367 65q47 0 78 24.5t46.5 72t15.5 114.5q0 77 -19.5 134t-55 88.5t-84.5 31.5
q-68 0 -107 -57t-39 -158q0 -74 21 -130t58.5 -88t85.5 -32zM213 637l-49 31l137 102h106l137 -102l-49 -31l-174 84h66zM423 788q-25 0 -53.5 8.5t-54.5 17t-47 8.5q-19 0 -33.5 -9t-28.5 -24l-39 23q16 43 47 67t71 24q25 0 53 -8t55 -17t47 -9q19 0 33.5 8.5t28.5 24.5
l39 -23q-16 -44 -46.5 -67.5t-71.5 -23.5z" />
    <glyph glyph-name="uni020C" unicode="&#x20c;" horiz-adv-x="707" 
d="M360 -9q-92 0 -163.5 38t-112 104.5t-40.5 152.5q0 90 40.5 160t112.5 110t163 40q90 0 158 -37.5t106.5 -103.5t38.5 -154q0 -77 -28 -135t-73.5 -97t-98.5 -58.5t-103 -19.5zM367 65q47 0 78 24.5t46.5 72t15.5 114.5q0 77 -19.5 134t-55 88.5t-84.5 31.5
q-68 0 -107 -57t-39 -158q0 -74 21 -130t58.5 -88t85.5 -32zM401 637l-81 123l91 19l43 -124zM254 637l-80 123l91 19l42 -124z" />
    <glyph glyph-name="Odieresis" unicode="&#xd6;" horiz-adv-x="707" 
d="M360 -9q-92 0 -163.5 38t-112 104.5t-40.5 152.5q0 90 40.5 160t112.5 110t163 40q90 0 158 -37.5t106.5 -103.5t38.5 -154q0 -77 -28 -135t-73.5 -97t-98.5 -58.5t-103 -19.5zM367 65q47 0 78 24.5t46.5 72t15.5 114.5q0 77 -19.5 134t-55 88.5t-84.5 31.5
q-68 0 -107 -57t-39 -158q0 -74 21 -130t58.5 -88t85.5 -32zM242 645q-33 0 -51.5 20t-18.5 45q0 26 18.5 45.5t51.5 19.5q32 0 50 -19.5t18 -45.5q0 -25 -18 -45t-50 -20zM468 645q-33 0 -51.5 20t-18.5 45q0 26 18.5 45.5t51.5 19.5t50.5 -19.5t17.5 -45.5
q0 -25 -17.5 -45t-50.5 -20z" />
    <glyph glyph-name="uni022A" unicode="&#x22a;" horiz-adv-x="707" 
d="M360 -9q-92 0 -163.5 38t-112 104.5t-40.5 152.5q0 90 40.5 160t112.5 110t163 40q90 0 158 -37.5t106.5 -103.5t38.5 -154q0 -77 -28 -135t-73.5 -97t-98.5 -58.5t-103 -19.5zM367 65q47 0 78 24.5t46.5 72t15.5 114.5q0 77 -19.5 134t-55 88.5t-84.5 31.5
q-68 0 -107 -57t-39 -158q0 -74 21 -130t58.5 -88t85.5 -32zM170 888h368v-71h-368v71zM242 645q-33 0 -51.5 20t-18.5 45q0 26 18.5 45.5t51.5 19.5q32 0 50 -19.5t18 -45.5q0 -25 -18 -45t-50 -20zM468 645q-33 0 -51.5 20t-18.5 45q0 26 18.5 45.5t51.5 19.5t50.5 -19.5
t17.5 -45.5q0 -25 -17.5 -45t-50.5 -20z" />
    <glyph glyph-name="uni0230" unicode="&#x230;" horiz-adv-x="707" 
d="M360 -9q-92 0 -163.5 38t-112 104.5t-40.5 152.5q0 90 40.5 160t112.5 110t163 40q90 0 158 -37.5t106.5 -103.5t38.5 -154q0 -77 -28 -135t-73.5 -97t-98.5 -58.5t-103 -19.5zM367 65q47 0 78 24.5t46.5 72t15.5 114.5q0 77 -19.5 134t-55 88.5t-84.5 31.5
q-68 0 -107 -57t-39 -158q0 -74 21 -130t58.5 -88t85.5 -32zM170 817v71h368v-71h-368zM355 645q-33 0 -51.5 20t-18.5 45q0 26 18.5 45.5t51.5 19.5q32 0 50 -19.5t18 -45.5q0 -25 -18 -45t-50 -20z" />
    <glyph glyph-name="uni1ECC" unicode="&#x1ecc;" horiz-adv-x="707" 
d="M360 -9q-92 0 -163.5 38t-112 104.5t-40.5 152.5q0 90 40.5 160t112.5 110t163 40q90 0 158 -37.5t106.5 -103.5t38.5 -154q0 -77 -28 -135t-73.5 -97t-98.5 -58.5t-103 -19.5zM367 65q47 0 78 24.5t46.5 72t15.5 114.5q0 77 -19.5 134t-55 88.5t-84.5 31.5
q-68 0 -107 -57t-39 -158q0 -74 21 -130t58.5 -88t85.5 -32zM355 -211q-36 0 -56 22t-20 50q0 29 20 50.5t56 21.5t55 -21.5t19 -50.5q0 -28 -19 -50t-55 -22z" />
    <glyph glyph-name="Ograve" unicode="&#xd2;" horiz-adv-x="707" 
d="M360 -9q-92 0 -163.5 38t-112 104.5t-40.5 152.5q0 90 40.5 160t112.5 110t163 40q90 0 158 -37.5t106.5 -103.5t38.5 -154q0 -77 -28 -135t-73.5 -97t-98.5 -58.5t-103 -19.5zM367 65q47 0 78 24.5t46.5 72t15.5 114.5q0 77 -19.5 134t-55 88.5t-84.5 31.5
q-68 0 -107 -57t-39 -158q0 -74 21 -130t58.5 -88t85.5 -32zM323 631l-147 130l116 23l93 -133z" />
    <glyph glyph-name="uni1ECE" unicode="&#x1ece;" horiz-adv-x="707" 
d="M360 -9q-92 0 -163.5 38t-112 104.5t-40.5 152.5q0 90 40.5 160t112.5 110t163 40q90 0 158 -37.5t106.5 -103.5t38.5 -154q0 -77 -28 -135t-73.5 -97t-98.5 -58.5t-103 -19.5zM367 65q47 0 78 24.5t46.5 72t15.5 114.5q0 77 -19.5 134t-55 88.5t-84.5 31.5
q-68 0 -107 -57t-39 -158q0 -74 21 -130t58.5 -88t85.5 -32zM355 819q50 0 79.5 -17.5t29.5 -49.5q0 -23 -13.5 -37t-30.5 -24t-30.5 -21.5t-13.5 -28.5h-44v17q0 25 11 42t22 31t11 27q0 20 -14.5 24t-41.5 -3l41 15l-40 -43q-9 -9 -17.5 -13.5t-21.5 -4.5q-14 0 -22.5 7.5
t-8.5 20.5q0 22 28.5 40t75.5 18z" />
    <glyph glyph-name="Ohorn" unicode="&#x1a0;" horiz-adv-x="707" 
d="M698 654q0 -38 -28.5 -72.5t-80 -50.5t-119.5 0l65 16q59 -37 93.5 -100.5t34.5 -145.5q0 -77 -28 -135t-73.5 -97t-98.5 -58.5t-103 -19.5q-92 0 -163.5 38t-112 104.5t-40.5 152.5q0 90 41 160t114 110t169 40q44 0 80 -8t59 -8q35 0 54.5 22t20.5 56l2 60q31 4 57 0.5
t41.5 -18t15.5 -46.5zM367 65q46 0 77 24.5t47 71t16 115.5q0 77 -19.5 134t-55 88.5t-84.5 31.5q-68 0 -107 -57t-39 -158q0 -74 21 -130t58.5 -88t85.5 -32z" />
    <glyph glyph-name="uni1EDA" unicode="&#x1eda;" horiz-adv-x="707" 
d="M698 654q0 -38 -28.5 -72.5t-80 -50.5t-119.5 0l65 16q59 -37 93.5 -100.5t34.5 -145.5q0 -77 -28 -135t-73.5 -97t-98.5 -58.5t-103 -19.5q-92 0 -163.5 38t-112 104.5t-40.5 152.5q0 90 41 160t114 110t169 40q44 0 80 -8t59 -8q35 0 54.5 22t20.5 56l2 60q31 4 57 0.5
t41.5 -18t15.5 -46.5zM367 65q46 0 77 24.5t47 71t16 115.5q0 77 -19.5 134t-55 88.5t-84.5 31.5q-68 0 -107 -57t-39 -158q0 -74 21 -130t58.5 -88t85.5 -32zM385 631l-62 20l93 133l116 -23z" />
    <glyph glyph-name="uni1EE2" unicode="&#x1ee2;" horiz-adv-x="707" 
d="M698 654q0 -38 -28.5 -72.5t-80 -50.5t-119.5 0l65 16q59 -37 93.5 -100.5t34.5 -145.5q0 -77 -28 -135t-73.5 -97t-98.5 -58.5t-103 -19.5q-92 0 -163.5 38t-112 104.5t-40.5 152.5q0 90 41 160t114 110t169 40q44 0 80 -8t59 -8q35 0 54.5 22t20.5 56l2 60q31 4 57 0.5
t41.5 -18t15.5 -46.5zM367 65q46 0 77 24.5t47 71t16 115.5q0 77 -19.5 134t-55 88.5t-84.5 31.5q-68 0 -107 -57t-39 -158q0 -74 21 -130t58.5 -88t85.5 -32zM355 -211q-36 0 -56 22t-20 50q0 29 20 50.5t56 21.5t55 -21.5t19 -50.5q0 -28 -19 -50t-55 -22z" />
    <glyph glyph-name="uni1EDC" unicode="&#x1edc;" horiz-adv-x="707" 
d="M698 654q0 -38 -28.5 -72.5t-80 -50.5t-119.5 0l65 16q59 -37 93.5 -100.5t34.5 -145.5q0 -77 -28 -135t-73.5 -97t-98.5 -58.5t-103 -19.5q-92 0 -163.5 38t-112 104.5t-40.5 152.5q0 90 41 160t114 110t169 40q44 0 80 -8t59 -8q35 0 54.5 22t20.5 56l2 60q31 4 57 0.5
t41.5 -18t15.5 -46.5zM367 65q46 0 77 24.5t47 71t16 115.5q0 77 -19.5 134t-55 88.5t-84.5 31.5q-68 0 -107 -57t-39 -158q0 -74 21 -130t58.5 -88t85.5 -32zM323 631l-147 130l116 23l93 -133z" />
    <glyph glyph-name="uni1EDE" unicode="&#x1ede;" horiz-adv-x="707" 
d="M698 654q0 -38 -28.5 -72.5t-80 -50.5t-119.5 0l65 16q59 -37 93.5 -100.5t34.5 -145.5q0 -77 -28 -135t-73.5 -97t-98.5 -58.5t-103 -19.5q-92 0 -163.5 38t-112 104.5t-40.5 152.5q0 90 41 160t114 110t169 40q44 0 80 -8t59 -8q35 0 54.5 22t20.5 56l2 60q31 4 57 0.5
t41.5 -18t15.5 -46.5zM367 65q46 0 77 24.5t47 71t16 115.5q0 77 -19.5 134t-55 88.5t-84.5 31.5q-68 0 -107 -57t-39 -158q0 -74 21 -130t58.5 -88t85.5 -32zM355 819q50 0 79.5 -17.5t29.5 -49.5q0 -23 -13.5 -37t-30.5 -24t-30.5 -21.5t-13.5 -28.5h-44v17q0 25 11 42
t22 31t11 27q0 20 -14.5 24t-41.5 -3l41 15l-40 -43q-9 -9 -17.5 -13.5t-21.5 -4.5q-14 0 -22.5 7.5t-8.5 20.5q0 22 28.5 40t75.5 18z" />
    <glyph glyph-name="uni1EE0" unicode="&#x1ee0;" horiz-adv-x="707" 
d="M698 654q0 -38 -28.5 -72.5t-80 -50.5t-119.5 0l65 16q59 -37 93.5 -100.5t34.5 -145.5q0 -77 -28 -135t-73.5 -97t-98.5 -58.5t-103 -19.5q-92 0 -163.5 38t-112 104.5t-40.5 152.5q0 90 41 160t114 110t169 40q44 0 80 -8t59 -8q35 0 54.5 22t20.5 56l2 60q31 4 57 0.5
t41.5 -18t15.5 -46.5zM367 65q46 0 77 24.5t47 71t16 115.5q0 77 -19.5 134t-55 88.5t-84.5 31.5q-68 0 -107 -57t-39 -158q0 -74 21 -130t58.5 -88t85.5 -32zM527 774l43 -24q-18 -52 -54.5 -80t-82.5 -28q-29 0 -61.5 11.5t-63.5 23t-54 11.5q-22 0 -39 -11t-34 -34
l-43 26q19 50 55 78.5t82 28.5q30 0 62.5 -11.5t63.5 -23t54 -11.5q22 0 39 11t33 33z" />
    <glyph glyph-name="Ohungarumlaut" unicode="&#x150;" horiz-adv-x="707" 
d="M360 -9q-92 0 -163.5 38t-112 104.5t-40.5 152.5q0 90 40.5 160t112.5 110t163 40q90 0 158 -37.5t106.5 -103.5t38.5 -154q0 -77 -28 -135t-73.5 -97t-98.5 -58.5t-103 -19.5zM367 65q47 0 78 24.5t46.5 72t15.5 114.5q0 77 -19.5 134t-55 88.5t-84.5 31.5
q-68 0 -107 -57t-39 -158q0 -74 21 -130t58.5 -88t85.5 -32zM454 637l-53 18l42 124l91 -19zM307 637l-53 18l43 124l91 -19z" />
    <glyph glyph-name="uni020E" unicode="&#x20e;" horiz-adv-x="707" 
d="M360 -9q-92 0 -163.5 38t-112 104.5t-40.5 152.5q0 90 40.5 160t112.5 110t163 40q90 0 158 -37.5t106.5 -103.5t38.5 -154q0 -77 -28 -135t-73.5 -97t-98.5 -58.5t-103 -19.5zM367 65q47 0 78 24.5t46.5 72t15.5 114.5q0 77 -19.5 134t-55 88.5t-84.5 31.5
q-68 0 -107 -57t-39 -158q0 -74 21 -130t58.5 -88t85.5 -32zM226 637l-58 21q12 52 63 83.5t122 31.5t123 -31.5t64 -83.5l-64 -21q-11 26 -45 41.5t-82 15.5q-47 0 -80 -15.5t-43 -41.5z" />
    <glyph glyph-name="Omacron" unicode="&#x14c;" horiz-adv-x="707" 
d="M360 -9q-92 0 -163.5 38t-112 104.5t-40.5 152.5q0 90 40.5 160t112.5 110t163 40q90 0 158 -37.5t106.5 -103.5t38.5 -154q0 -77 -28 -135t-73.5 -97t-98.5 -58.5t-103 -19.5zM367 65q47 0 78 24.5t46.5 72t15.5 114.5q0 77 -19.5 134t-55 88.5t-84.5 31.5
q-68 0 -107 -57t-39 -158q0 -74 21 -130t58.5 -88t85.5 -32zM199 744h310v-71h-310v71z" />
    <glyph glyph-name="uni1E52" unicode="&#x1e52;" horiz-adv-x="707" 
d="M360 -9q-92 0 -163.5 38t-112 104.5t-40.5 152.5q0 90 40.5 160t112.5 110t163 40q90 0 158 -37.5t106.5 -103.5t38.5 -154q0 -77 -28 -135t-73.5 -97t-98.5 -58.5t-103 -19.5zM367 65q47 0 78 24.5t46.5 72t15.5 114.5q0 77 -19.5 134t-55 88.5t-84.5 31.5
q-68 0 -107 -57t-39 -158q0 -74 21 -130t58.5 -88t85.5 -32zM374 768l-58 20l65 115l117 -23zM170 660v71h368v-71h-368z" />
    <glyph glyph-name="uni1E50" unicode="&#x1e50;" horiz-adv-x="707" 
d="M360 -9q-92 0 -163.5 38t-112 104.5t-40.5 152.5q0 90 40.5 160t112.5 110t163 40q90 0 158 -37.5t106.5 -103.5t38.5 -154q0 -77 -28 -135t-73.5 -97t-98.5 -58.5t-103 -19.5zM367 65q47 0 78 24.5t46.5 72t15.5 114.5q0 77 -19.5 134t-55 88.5t-84.5 31.5
q-68 0 -107 -57t-39 -158q0 -74 21 -130t58.5 -88t85.5 -32zM538 731v-71h-368v71h368zM334 768l-124 112l117 23l65 -115z" />
    <glyph glyph-name="uni01EA" unicode="&#x1ea;" horiz-adv-x="707" 
d="M384 -223q-35 0 -64.5 13t-46.5 36t-17 52q0 42 41.5 80.5t117.5 65.5l-32 -33h-23q-92 0 -163.5 38t-112 104.5t-40.5 152.5q0 90 40.5 160t112.5 110t163 40q90 0 158 -37.5t106.5 -103.5t38.5 -154q0 -76 -27.5 -133.5t-71 -95.5t-93.5 -58q-66 -26 -93 -61t-27 -66
q0 -26 15 -41t37 -15q17 0 34 9t34 26l28 -39q-21 -25 -50.5 -37.5t-64.5 -12.5zM367 65q46 0 77 24.5t47 71t16 115.5q0 77 -19.5 134t-55 88.5t-84.5 31.5q-68 0 -107 -57t-39 -158q0 -74 21 -130t58.5 -88t85.5 -32z" />
    <glyph glyph-name="Oslash" unicode="&#xd8;" horiz-adv-x="707" 
d="M360 -9q-92 0 -163.5 38t-112 104.5t-40.5 152.5q0 90 40.5 160t112.5 110t163 40q90 0 158 -37.5t106.5 -103.5t38.5 -154q0 -77 -28 -135t-73.5 -97t-98.5 -58.5t-103 -19.5zM367 65q47 0 78 24.5t46.5 72t15.5 114.5q0 77 -19.5 134t-55 88.5t-84.5 31.5
q-68 0 -107 -57t-39 -158q0 -74 21 -130t58.5 -88t85.5 -32zM168 -72l-61 36l433 696l61 -36z" />
    <glyph glyph-name="Oslashacute" unicode="&#x1fe;" horiz-adv-x="707" 
d="M360 -9q-92 0 -163.5 38t-112 104.5t-40.5 152.5q0 90 40.5 160t112.5 110t163 40q90 0 158 -37.5t106.5 -103.5t38.5 -154q0 -77 -28 -135t-73.5 -97t-98.5 -58.5t-103 -19.5zM367 65q47 0 78 24.5t46.5 72t15.5 114.5q0 77 -19.5 134t-55 88.5t-84.5 31.5
q-68 0 -107 -57t-39 -158q0 -74 21 -130t58.5 -88t85.5 -32zM168 -72l-61 36l433 696l61 -36zM385 631l-62 20l93 133l116 -23z" />
    <glyph glyph-name="Otilde" unicode="&#xd5;" horiz-adv-x="707" 
d="M360 -9q-92 0 -163.5 38t-112 104.5t-40.5 152.5q0 90 40.5 160t112.5 110t163 40q90 0 158 -37.5t106.5 -103.5t38.5 -154q0 -77 -28 -135t-73.5 -97t-98.5 -58.5t-103 -19.5zM367 65q47 0 78 24.5t46.5 72t15.5 114.5q0 77 -19.5 134t-55 88.5t-84.5 31.5
q-68 0 -107 -57t-39 -158q0 -74 21 -130t58.5 -88t85.5 -32zM527 774l43 -24q-18 -52 -54.5 -80t-82.5 -28q-29 0 -61.5 11.5t-63.5 23t-54 11.5q-22 0 -39 -11t-34 -34l-43 26q19 50 55 78.5t82 28.5q30 0 62.5 -11.5t63.5 -23t54 -11.5q22 0 39 11t33 33z" />
    <glyph glyph-name="uni1E4C" unicode="&#x1e4c;" horiz-adv-x="707" 
d="M360 -9q-92 0 -163.5 38t-112 104.5t-40.5 152.5q0 90 40.5 160t112.5 110t163 40q90 0 158 -37.5t106.5 -103.5t38.5 -154q0 -77 -28 -135t-73.5 -97t-98.5 -58.5t-103 -19.5zM367 65q47 0 78 24.5t46.5 72t15.5 114.5q0 77 -19.5 134t-55 88.5t-84.5 31.5
q-68 0 -107 -57t-39 -158q0 -74 21 -130t58.5 -88t85.5 -32zM383 768l-58 20l65 115l117 -23zM423 644q-25 0 -53.5 8.5t-54.5 17t-47 8.5q-19 0 -33.5 -9t-28.5 -24l-39 23q16 44 47 67.5t71 23.5q25 0 53 -8t55 -17t47 -9q19 0 33.5 9t28.5 25l39 -24q-16 -44 -46.5 -67.5
t-71.5 -23.5z" />
    <glyph glyph-name="uni1E4E" unicode="&#x1e4e;" horiz-adv-x="707" 
d="M360 -9q-92 0 -163.5 38t-112 104.5t-40.5 152.5q0 90 40.5 160t112.5 110t163 40q90 0 158 -37.5t106.5 -103.5t38.5 -154q0 -77 -28 -135t-73.5 -97t-98.5 -58.5t-103 -19.5zM367 65q47 0 78 24.5t46.5 72t15.5 114.5q0 77 -19.5 134t-55 88.5t-84.5 31.5
q-68 0 -107 -57t-39 -158q0 -74 21 -130t58.5 -88t85.5 -32zM240 785q-33 0 -50.5 19t-17.5 44q0 26 17.5 45t50.5 19q31 0 48.5 -19t17.5 -45q0 -25 -17.5 -44t-48.5 -19zM470 785q-32 0 -50 19t-18 44q0 26 18 45t50 19q31 0 48.5 -19t17.5 -45q0 -25 -17.5 -44t-48.5 -19
zM423 644q-25 0 -53.5 8.5t-54.5 17t-47 8.5q-19 0 -33.5 -9t-28.5 -24l-39 23q16 44 47 67.5t71 23.5q25 0 53 -8t55 -17t47 -9q19 0 33.5 9t28.5 25l39 -24q-16 -44 -46.5 -67.5t-71.5 -23.5z" />
    <glyph glyph-name="uni022C" unicode="&#x22c;" horiz-adv-x="707" 
d="M360 -9q-92 0 -163.5 38t-112 104.5t-40.5 152.5q0 90 40.5 160t112.5 110t163 40q90 0 158 -37.5t106.5 -103.5t38.5 -154q0 -77 -28 -135t-73.5 -97t-98.5 -58.5t-103 -19.5zM367 65q47 0 78 24.5t46.5 72t15.5 114.5q0 77 -19.5 134t-55 88.5t-84.5 31.5
q-68 0 -107 -57t-39 -158q0 -74 21 -130t58.5 -88t85.5 -32zM423 644q-25 0 -53.5 8.5t-54.5 17t-47 8.5q-19 0 -33.5 -9t-28.5 -24l-39 23q16 44 47 67.5t71 23.5q25 0 53 -8t55 -17t47 -9q19 0 33.5 9t28.5 25l39 -24q-16 -44 -46.5 -67.5t-71.5 -23.5zM170 797v71h368
v-71h-368z" />
    <glyph glyph-name="OE" unicode="&#x152;" horiz-adv-x="927" 
d="M379 -9q-101 0 -176.5 36.5t-116.5 103t-41 156.5q0 58 20.5 113t63 98.5t109 69t158.5 25.5q27 0 58.5 -3t67.5 -3h167q21 0 48 0.5t54.5 2t48.5 2.5l27 -148l-57 -8l-38 88q-13 3 -23.5 4t-22.5 1h-63q-22 0 -38.5 -1t-26.5 -3q0 -7 -1 -23.5t-1.5 -41t-0.5 -57.5v-211
q0 -33 0.5 -57.5t1.5 -41t1 -25.5q20 -3 40 -4t47 -1h41q25 0 37 0.5t19 1.5t15 2l55 100l57 -11l-45 -162q-20 2 -44.5 3.5t-49 2t-45.5 0.5h-204q-40 0 -73 -4.5t-69 -4.5zM394 64q14 0 31.5 2.5t32.5 6.5q1 12 2 37t1.5 55.5t0.5 58.5v150q0 29 -1 58.5t-2 53t-3 32.5
q-13 4 -31 6.5t-36 2.5q-85 0 -135 -60t-50 -161q0 -113 51 -177.5t139 -64.5zM736 200l-9 67q-7 0 -22 1t-35 1h-40q-18 0 -33 -1t-24 -2v71q9 -1 24 -2t33 -1h40q20 0 35 1t22 0l9 67h55v-202h-55z" />
    <glyph glyph-name="P" unicode="P" horiz-adv-x="568" 
d="M42 0l-3 50l59 16q3 4 4 24t2 52.5t1 72.5l1 161q0 39 -1 71t-2 52.5t-4 24.5l-63 13l3 50h253q123 0 184 -44.5t61 -127.5q0 -55 -29 -99t-83.5 -69.5t-131.5 -25.5q-17 0 -34 2t-33 5v69q12 -5 28.5 -8.5t38.5 -3.5q48 0 74 30t26 87q0 67 -33 98t-91 31h-27
q0 -7 -0.5 -26.5t-1 -51t-0.5 -77.5l1 -161q0 -40 1 -72.5t2.5 -52t2.5 -24.5l81 -14l-3 -52h-283z" />
    <glyph glyph-name="Thorn" unicode="&#xde;" horiz-adv-x="568" 
d="M42 0l-3 50l59 16q3 6 5 48.5t2 105.5v147q0 64 -2 106.5t-5 48.5l-63 15l3 50h263l3 -50l-63 -15q-1 -5 -1.5 -15.5t-0.5 -22.5v-30l-33 36h85q123 0 184 -44.5t61 -128.5q0 -55 -29 -98.5t-83.5 -69t-131.5 -25.5q-17 0 -34 2.5t-33 5.5v66q12 -6 28 -9.5t35 -3.5
q51 0 77.5 31t26.5 88q0 67 -33 98.5t-91 31.5h-28v-305q0 -23 0.5 -40t1.5 -23l81 -14l-3 -52h-278z" />
    <glyph glyph-name="Q" unicode="Q" horiz-adv-x="707" 
d="M360 -7q-92 0 -163.5 37.5t-112 103.5t-40.5 152q0 90 40.5 160t112.5 110t163 40q90 0 158 -37.5t106.5 -103.5t38.5 -154q0 -76 -27 -133.5t-70 -95.5t-94 -57t-98 -19zM609 -147q-54 0 -95.5 10.5t-74 28.5t-60.5 41q-17 15 -32.5 26.5t-29 21t-27 17t-27.5 13.5h150
q37 0 78.5 -9.5t74.5 -29.5q34 -19 58 -27t51 -8q13 0 29.5 2t34.5 7l13 -54q-26 -17 -62.5 -28t-80.5 -11zM367 65q46 0 77 24.5t47 71t16 115.5q0 77 -19.5 134t-55 88.5t-84.5 31.5q-68 0 -107 -57t-39 -158q0 -74 21 -130t58.5 -88t85.5 -32z" />
    <glyph glyph-name="R" unicode="R" horiz-adv-x="624" 
d="M42 0l-3 50l64 16q0 6 0.5 23.5t1 40.5t1 46.5t0.5 43.5v147q0 41 -1 74.5t-2.5 54.5t-3.5 25l-64 16l3 50h258q115 0 170 -36.5t55 -115.5q0 -49 -29.5 -87.5t-82 -60.5t-120.5 -22h-66v58h46q50 0 80.5 30.5t30.5 81.5q0 47 -25.5 71.5t-74.5 24.5h-38
q-1 -3 -1.5 -16.5t-0.5 -35.5v-48.5v-55.5v-155q0 -26 0.5 -57t1.5 -57.5t2 -39.5l56 -16l-3 -50h-255zM564 -12q-56 0 -99.5 18t-78 56t-62.5 96l-56 123l110 26l119 -166q21 -29 41.5 -49t42.5 -32.5t47 -19.5l-1 -46q-16 -3 -31.5 -4.5t-31.5 -1.5z" />
    <glyph glyph-name="Racute" unicode="&#x154;" horiz-adv-x="624" 
d="M42 0l-3 50l64 16q0 6 0.5 23.5t1 40.5t1 46.5t0.5 43.5v147q0 41 -1 74.5t-2.5 54.5t-3.5 25l-64 16l3 50h258q115 0 170 -36.5t55 -115.5q0 -49 -29.5 -87.5t-82 -60.5t-120.5 -22h-66v58h46q50 0 80.5 30.5t30.5 81.5q0 47 -25.5 71.5t-74.5 24.5h-38
q-1 -3 -1.5 -16.5t-0.5 -35.5v-48.5v-55.5v-155q0 -26 0.5 -57t1.5 -57.5t2 -39.5l56 -16l-3 -50h-255zM564 -12q-56 0 -99.5 18t-78 56t-62.5 96l-56 123l110 26l119 -166q21 -29 41.5 -49t42.5 -32.5t47 -19.5l-1 -46q-16 -3 -31.5 -4.5t-31.5 -1.5zM333 631l-62 20
l93 133l116 -23z" />
    <glyph glyph-name="Rcaron" unicode="&#x158;" horiz-adv-x="624" 
d="M42 0l-3 50l64 16q0 6 0.5 23.5t1 40.5t1 46.5t0.5 43.5v147q0 41 -1 74.5t-2.5 54.5t-3.5 25l-64 16l3 50h258q115 0 170 -36.5t55 -115.5q0 -49 -29.5 -87.5t-82 -60.5t-120.5 -22h-66v58h46q50 0 80.5 30.5t30.5 81.5q0 47 -25.5 71.5t-74.5 24.5h-38
q-1 -3 -1.5 -16.5t-0.5 -35.5v-48.5v-55.5v-155q0 -26 0.5 -57t1.5 -57.5t2 -39.5l56 -16l-3 -50h-255zM564 -12q-56 0 -99.5 18t-78 56t-62.5 96l-56 123l110 26l119 -166q21 -29 41.5 -49t42.5 -32.5t47 -19.5l-1 -46q-16 -3 -31.5 -4.5t-31.5 -1.5zM112 749l49 30
l174 -84h-66l174 84l49 -30l-137 -103h-106z" />
    <glyph glyph-name="uni0156" unicode="&#x156;" horiz-adv-x="624" 
d="M42 0l-3 50l64 16q0 6 0.5 23.5t1 40.5t1 46.5t0.5 43.5v147q0 41 -1 74.5t-2.5 54.5t-3.5 25l-64 16l3 50h258q115 0 170 -36.5t55 -115.5q0 -49 -29.5 -87.5t-82 -60.5t-120.5 -22h-66v58h46q50 0 80.5 30.5t30.5 81.5q0 47 -25.5 71.5t-74.5 24.5h-38
q-1 -3 -1.5 -16.5t-0.5 -35.5v-48.5v-55.5v-155q0 -26 0.5 -57t1.5 -57.5t2 -39.5l56 -16l-3 -50h-255zM564 -12q-56 0 -99.5 18t-78 56t-62.5 96l-56 123l110 26l119 -166q21 -29 41.5 -49t42.5 -32.5t47 -19.5l-1 -46q-16 -3 -31.5 -4.5t-31.5 -1.5zM258 -291l-14 34
q47 10 64.5 25.5t17.5 29.5q0 12 -10 18.5t-22.5 12.5t-22.5 17t-10 33q0 23 19.5 38.5t48.5 15.5q20 0 38.5 -8.5t30 -25.5t11.5 -45t-17 -57.5t-50 -53t-84 -34.5z" />
    <glyph glyph-name="uni0210" unicode="&#x210;" horiz-adv-x="624" 
d="M42 0l-3 50l64 16q0 6 0.5 23.5t1 40.5t1 46.5t0.5 43.5v147q0 41 -1 74.5t-2.5 54.5t-3.5 25l-64 16l3 50h258q115 0 170 -36.5t55 -115.5q0 -49 -29.5 -87.5t-82 -60.5t-120.5 -22h-66v58h46q50 0 80.5 30.5t30.5 81.5q0 47 -25.5 71.5t-74.5 24.5h-38
q-1 -3 -1.5 -16.5t-0.5 -35.5v-48.5v-55.5v-155q0 -26 0.5 -57t1.5 -57.5t2 -39.5l56 -16l-3 -50h-255zM564 -12q-56 0 -99.5 18t-78 56t-62.5 96l-56 123l110 26l119 -166q21 -29 41.5 -49t42.5 -32.5t47 -19.5l-1 -46q-16 -3 -31.5 -4.5t-31.5 -1.5zM349 637l-81 123
l91 19l43 -124zM202 637l-80 123l91 19l42 -124z" />
    <glyph glyph-name="uni1E5A" unicode="&#x1e5a;" horiz-adv-x="624" 
d="M42 0l-3 50l64 16q0 6 0.5 23.5t1 40.5t1 46.5t0.5 43.5v147q0 41 -1 74.5t-2.5 54.5t-3.5 25l-64 16l3 50h258q115 0 170 -36.5t55 -115.5q0 -49 -29.5 -87.5t-82 -60.5t-120.5 -22h-66v58h46q50 0 80.5 30.5t30.5 81.5q0 47 -25.5 71.5t-74.5 24.5h-38
q-1 -3 -1.5 -16.5t-0.5 -35.5v-48.5v-55.5v-155q0 -26 0.5 -57t1.5 -57.5t2 -39.5l56 -16l-3 -50h-255zM564 -12q-56 0 -99.5 18t-78 56t-62.5 96l-56 123l110 26l119 -166q21 -29 41.5 -49t42.5 -32.5t47 -19.5l-1 -46q-16 -3 -31.5 -4.5t-31.5 -1.5zM336 -211
q-36 0 -56 22t-20 50q0 29 20 50.5t56 21.5t55 -21.5t19 -50.5q0 -28 -19 -50t-55 -22z" />
    <glyph glyph-name="uni0212" unicode="&#x212;" horiz-adv-x="624" 
d="M42 0l-3 50l64 16q0 6 0.5 23.5t1 40.5t1 46.5t0.5 43.5v147q0 41 -1 74.5t-2.5 54.5t-3.5 25l-64 16l3 50h258q115 0 170 -36.5t55 -115.5q0 -49 -29.5 -87.5t-82 -60.5t-120.5 -22h-66v58h46q50 0 80.5 30.5t30.5 81.5q0 47 -25.5 71.5t-74.5 24.5h-38
q-1 -3 -1.5 -16.5t-0.5 -35.5v-48.5v-55.5v-155q0 -26 0.5 -57t1.5 -57.5t2 -39.5l56 -16l-3 -50h-255zM564 -12q-56 0 -99.5 18t-78 56t-62.5 96l-56 123l110 26l119 -166q21 -29 41.5 -49t42.5 -32.5t47 -19.5l-1 -46q-16 -3 -31.5 -4.5t-31.5 -1.5zM174 637l-58 21
q12 52 63 83.5t122 31.5t123 -31.5t64 -83.5l-64 -21q-11 26 -45 41.5t-82 15.5q-47 0 -80 -15.5t-43 -41.5z" />
    <glyph glyph-name="uni1E5E" unicode="&#x1e5e;" horiz-adv-x="624" 
d="M42 0l-3 50l64 16q0 6 0.5 23.5t1 40.5t1 46.5t0.5 43.5v147q0 41 -1 74.5t-2.5 54.5t-3.5 25l-64 16l3 50h258q115 0 170 -36.5t55 -115.5q0 -49 -29.5 -87.5t-82 -60.5t-120.5 -22h-66v58h46q50 0 80.5 30.5t30.5 81.5q0 47 -25.5 71.5t-74.5 24.5h-38
q-1 -3 -1.5 -16.5t-0.5 -35.5v-48.5v-55.5v-155q0 -26 0.5 -57t1.5 -57.5t2 -39.5l56 -16l-3 -50h-255zM564 -12q-56 0 -99.5 18t-78 56t-62.5 96l-56 123l110 26l119 -166q21 -29 41.5 -49t42.5 -32.5t47 -19.5l-1 -46q-16 -3 -31.5 -4.5t-31.5 -1.5zM180 -104h310v-71
h-310v71z" />
    <glyph glyph-name="S" unicode="S" horiz-adv-x="512" 
d="M234 -9q-42 0 -92.5 12t-86.5 32l-5 148l64 4l34 -103q20 -13 47.5 -20.5t52.5 -7.5q45 0 68.5 19t23.5 51q0 35 -20.5 56t-53.5 36t-70 29.5t-70 35t-53.5 53t-20.5 82.5q0 54 30.5 94.5t86 63t128.5 22.5q23 0 49.5 -3t51.5 -9.5t44 -14.5l11 -146l-63 -4l-32 98
q-31 16 -71 16q-41 0 -67.5 -20.5t-26.5 -57.5q0 -33 21 -54.5t54 -37t70.5 -30.5t71 -35.5t54.5 -51.5t21 -79q0 -51 -31.5 -91.5t-88 -63.5t-131.5 -23z" />
    <glyph glyph-name="Sacute" unicode="&#x15a;" horiz-adv-x="512" 
d="M234 -9q-42 0 -92.5 12t-86.5 32l-5 148l64 4l34 -103q20 -13 47.5 -20.5t52.5 -7.5q45 0 68.5 19t23.5 51q0 35 -20.5 56t-53.5 36t-70 29.5t-70 35t-53.5 53t-20.5 82.5q0 54 30.5 94.5t86 63t128.5 22.5q23 0 49.5 -3t51.5 -9.5t44 -14.5l11 -146l-63 -4l-32 98
q-31 16 -71 16q-41 0 -67.5 -20.5t-26.5 -57.5q0 -33 21 -54.5t54 -37t70.5 -30.5t71 -35.5t54.5 -51.5t21 -79q0 -51 -31.5 -91.5t-88 -63.5t-131.5 -23zM293 631l-62 20l93 133l116 -23z" />
    <glyph glyph-name="uni1E64" unicode="&#x1e64;" horiz-adv-x="512" 
d="M234 -9q-42 0 -92.5 12t-86.5 32l-5 148l64 4l34 -103q20 -13 47.5 -20.5t52.5 -7.5q45 0 68.5 19t23.5 51q0 35 -20.5 56t-53.5 36t-70 29.5t-70 35t-53.5 53t-20.5 82.5q0 54 30.5 94.5t86 63t128.5 22.5q23 0 49.5 -3t51.5 -9.5t44 -14.5l11 -146l-63 -4l-32 98
q-31 16 -71 16q-41 0 -67.5 -20.5t-26.5 -57.5q0 -33 21 -54.5t54 -37t70.5 -30.5t71 -35.5t54.5 -51.5t21 -79q0 -51 -31.5 -91.5t-88 -63.5t-131.5 -23zM293 631l-62 20l93 133l116 -23zM263 846q-36 0 -56 22t-20 50q0 29 20 50.5t56 21.5t55 -21.5t19 -50.5
q0 -28 -19 -50t-55 -22z" />
    <glyph glyph-name="Scaron" unicode="&#x160;" horiz-adv-x="512" 
d="M234 -9q-42 0 -92.5 12t-86.5 32l-5 148l64 4l34 -103q20 -13 47.5 -20.5t52.5 -7.5q45 0 68.5 19t23.5 51q0 35 -20.5 56t-53.5 36t-70 29.5t-70 35t-53.5 53t-20.5 82.5q0 54 30.5 94.5t86 63t128.5 22.5q23 0 49.5 -3t51.5 -9.5t44 -14.5l11 -146l-63 -4l-32 98
q-31 16 -71 16q-41 0 -67.5 -20.5t-26.5 -57.5q0 -33 21 -54.5t54 -37t70.5 -30.5t71 -35.5t54.5 -51.5t21 -79q0 -51 -31.5 -91.5t-88 -63.5t-131.5 -23zM72 749l49 30l174 -84h-66l174 84l49 -30l-137 -103h-106z" />
    <glyph glyph-name="uni1E66" unicode="&#x1e66;" horiz-adv-x="512" 
d="M234 -9q-42 0 -92.5 12t-86.5 32l-5 148l64 4l34 -103q20 -13 47.5 -20.5t52.5 -7.5q45 0 68.5 19t23.5 51q0 35 -20.5 56t-53.5 36t-70 29.5t-70 35t-53.5 53t-20.5 82.5q0 54 30.5 94.5t86 63t128.5 22.5q23 0 49.5 -3t51.5 -9.5t44 -14.5l11 -146l-63 -4l-32 98
q-31 16 -71 16q-41 0 -67.5 -20.5t-26.5 -57.5q0 -33 21 -54.5t54 -37t70.5 -30.5t71 -35.5t54.5 -51.5t21 -79q0 -51 -31.5 -91.5t-88 -63.5t-131.5 -23zM263 776q-32 0 -50 19.5t-18 44.5t18 44t50 19q31 0 48.5 -19t17.5 -44t-17.5 -44.5t-48.5 -19.5zM72 749l49 30
l174 -84h-66l174 84l49 -30l-137 -103h-106z" />
    <glyph glyph-name="Scedilla" unicode="&#x15e;" horiz-adv-x="512" 
d="M234 -9q-42 0 -92.5 12t-86.5 32l-5 148l64 4l34 -103q20 -13 47.5 -20.5t52.5 -7.5q45 0 68.5 19t23.5 51q0 35 -20.5 56t-53.5 36t-70 29.5t-70 35t-53.5 53t-20.5 82.5q0 54 30.5 94.5t86 63t128.5 22.5q23 0 49.5 -3t51.5 -9.5t44 -14.5l11 -146l-63 -4l-32 98
q-31 16 -71 16q-41 0 -67.5 -20.5t-26.5 -57.5q0 -33 21 -54.5t54 -37t70.5 -30.5t71 -35.5t54.5 -51.5t21 -79q0 -51 -31.5 -91.5t-88 -63.5t-131.5 -23zM246 -223q-26 0 -51.5 7t-47.5 20l22 43q17 -10 36.5 -17t38.5 -7q23 0 35 10.5t12 25.5q0 20 -20.5 30.5t-55.5 7.5
l-17 19l58 96h59l-62 -79l3 26q51 0 85 -22t34 -62q0 -42 -37.5 -70t-91.5 -28z" />
    <glyph glyph-name="Scircumflex" unicode="&#x15c;" horiz-adv-x="512" 
d="M234 -9q-42 0 -92.5 12t-86.5 32l-5 148l64 4l34 -103q20 -13 47.5 -20.5t52.5 -7.5q45 0 68.5 19t23.5 51q0 35 -20.5 56t-53.5 36t-70 29.5t-70 35t-53.5 53t-20.5 82.5q0 54 30.5 94.5t86 63t128.5 22.5q23 0 49.5 -3t51.5 -9.5t44 -14.5l11 -146l-63 -4l-32 98
q-31 16 -71 16q-41 0 -67.5 -20.5t-26.5 -57.5q0 -33 21 -54.5t54 -37t70.5 -30.5t71 -35.5t54.5 -51.5t21 -79q0 -51 -31.5 -91.5t-88 -63.5t-131.5 -23zM452 668l-49 -31l-174 84h66l-174 -84l-49 31l137 102h106z" />
    <glyph glyph-name="uni0218" unicode="&#x218;" horiz-adv-x="512" 
d="M234 -9q-42 0 -92.5 12t-86.5 32l-5 148l64 4l34 -103q20 -13 47.5 -20.5t52.5 -7.5q45 0 68.5 19t23.5 51q0 35 -20.5 56t-53.5 36t-70 29.5t-70 35t-53.5 53t-20.5 82.5q0 54 30.5 94.5t86 63t128.5 22.5q23 0 49.5 -3t51.5 -9.5t44 -14.5l11 -146l-63 -4l-32 98
q-31 16 -71 16q-41 0 -67.5 -20.5t-26.5 -57.5q0 -33 21 -54.5t54 -37t70.5 -30.5t71 -35.5t54.5 -51.5t21 -79q0 -51 -31.5 -91.5t-88 -63.5t-131.5 -23zM185 -291l-14 34q47 10 64.5 25.5t17.5 29.5q0 12 -10 18.5t-22.5 12.5t-22.5 17t-10 33q0 23 19.5 38.5t48.5 15.5
q20 0 38.5 -8.5t30 -25.5t11.5 -45t-17 -57.5t-50 -53t-84 -34.5z" />
    <glyph glyph-name="uni1E60" unicode="&#x1e60;" horiz-adv-x="512" 
d="M234 -9q-42 0 -92.5 12t-86.5 32l-5 148l64 4l34 -103q20 -13 47.5 -20.5t52.5 -7.5q45 0 68.5 19t23.5 51q0 35 -20.5 56t-53.5 36t-70 29.5t-70 35t-53.5 53t-20.5 82.5q0 54 30.5 94.5t86 63t128.5 22.5q23 0 49.5 -3t51.5 -9.5t44 -14.5l11 -146l-63 -4l-32 98
q-31 16 -71 16q-41 0 -67.5 -20.5t-26.5 -57.5q0 -33 21 -54.5t54 -37t70.5 -30.5t71 -35.5t54.5 -51.5t21 -79q0 -51 -31.5 -91.5t-88 -63.5t-131.5 -23zM263 638q-36 0 -56 22t-20 50q0 29 20 50.5t56 21.5t55 -21.5t19 -50.5q0 -28 -19 -50t-55 -22z" />
    <glyph glyph-name="uni1E62" unicode="&#x1e62;" horiz-adv-x="512" 
d="M234 -9q-42 0 -92.5 12t-86.5 32l-5 148l64 4l34 -103q20 -13 47.5 -20.5t52.5 -7.5q45 0 68.5 19t23.5 51q0 35 -20.5 56t-53.5 36t-70 29.5t-70 35t-53.5 53t-20.5 82.5q0 54 30.5 94.5t86 63t128.5 22.5q23 0 49.5 -3t51.5 -9.5t44 -14.5l11 -146l-63 -4l-32 98
q-31 16 -71 16q-41 0 -67.5 -20.5t-26.5 -57.5q0 -33 21 -54.5t54 -37t70.5 -30.5t71 -35.5t54.5 -51.5t21 -79q0 -51 -31.5 -91.5t-88 -63.5t-131.5 -23zM263 -211q-36 0 -56 22t-20 50q0 29 20 50.5t56 21.5t55 -21.5t19 -50.5q0 -28 -19 -50t-55 -22z" />
    <glyph glyph-name="uni1E68" unicode="&#x1e68;" horiz-adv-x="512" 
d="M234 -9q-42 0 -92.5 12t-86.5 32l-5 148l64 4l34 -103q20 -13 47.5 -20.5t52.5 -7.5q45 0 68.5 19t23.5 51q0 35 -20.5 56t-53.5 36t-70 29.5t-70 35t-53.5 53t-20.5 82.5q0 54 30.5 94.5t86 63t128.5 22.5q23 0 49.5 -3t51.5 -9.5t44 -14.5l11 -146l-63 -4l-32 98
q-31 16 -71 16q-41 0 -67.5 -20.5t-26.5 -57.5q0 -33 21 -54.5t54 -37t70.5 -30.5t71 -35.5t54.5 -51.5t21 -79q0 -51 -31.5 -91.5t-88 -63.5t-131.5 -23zM263 -211q-36 0 -56 22t-20 50q0 29 20 50.5t56 21.5t55 -21.5t19 -50.5q0 -28 -19 -50t-55 -22zM263 638
q-36 0 -56 22t-20 50q0 29 20 50.5t56 21.5t55 -21.5t19 -50.5q0 -28 -19 -50t-55 -22z" />
    <glyph glyph-name="uni1E9E" unicode="&#x1e9e;" horiz-adv-x="730" 
d="M29 0l-3 50l64 16q2 7 3.5 50.5t1.5 103.5l-1 113q0 82 32.5 141t92 91.5t140.5 32.5q76 0 129.5 -34t79.5 -98h-84q-14 33 -44 50.5t-73 17.5q-67 0 -103.5 -43.5t-35.5 -124.5l2 -146q0 -66 2.5 -107t3.5 -47l60 -16l-3 -50h-264zM487 -9q-23 0 -51.5 3.5t-55.5 11
t-47 17.5l-3 129l62 4l28 -85q16 -9 35 -14t38 -5q20 0 38 5.5t29 17.5t11 31q0 27 -17 43.5t-44.5 28t-58.5 22.5t-58.5 26.5t-45 42t-17.5 67.5q0 45 27 81t72.5 56.5t101.5 20.5q18 0 41.5 -2t46.5 -6t38 -11l10 -129l-59 -4l-30 89q-9 3 -20.5 4t-21.5 1
q-33 0 -56.5 -15t-23.5 -45q0 -23 18 -38.5t45.5 -27.5t58.5 -25t59 -30.5t45.5 -43.5t17.5 -67q0 -44 -28 -79t-76.5 -54.5t-108.5 -19.5z" />
    <glyph glyph-name="uni018F" unicode="&#x18f;" horiz-adv-x="660" 
d="M320 596q63 0 117 -22t94.5 -61.5t62.5 -93.5t22 -116q0 -65 -21.5 -121.5t-60 -99t-90 -67t-111.5 -24.5q-86 0 -151 32t-101 91t-36 137v35h494v-69h-353l21 34v-44q0 -65 35 -104.5t93 -39.5q62 0 94 47t32 131v34q0 92 -51.5 147.5t-140.5 55.5q-60 0 -106.5 -20.5
t-82.5 -59.5l-31 30q24 53 64.5 90.5t93.5 57.5t113 20z" />
    <glyph glyph-name="T" unicode="T" horiz-adv-x="612" 
d="M572 592l23 -177l-61 -5l-40 115q-10 2 -21.5 2.5t-24.5 0.5h-33h-20.5t-17.5 -2q0 -6 -1 -37t-1.5 -73.5t-0.5 -87.5v-93q0 -56 1.5 -101.5t2.5 -67.5l87 -14l-3 -52h-311l-3 52l87 14q1 22 2 67.5t1 101.5v93q0 45 -0.5 87.5t-0.5 73.5t-1 37q-6 2 -17.5 2h-20.5h-35
q-13 0 -25 -0.5t-23 -2.5l-37 -117l-62 6l21 178q10 0 28 -1t39 -2t40.5 -1.5t32.5 -0.5h255q13 0 32.5 0.5t40.5 1.5t38.5 2t28.5 1z" />
    <glyph glyph-name="Tbar" unicode="&#x166;" horiz-adv-x="612" 
d="M572 592l23 -177l-61 -5l-40 115q-10 2 -21.5 2.5t-24.5 0.5h-33h-20.5t-17.5 -2q0 -6 -1 -37t-1.5 -73.5t-0.5 -87.5v-93q0 -56 1.5 -101.5t2.5 -67.5l87 -14l-3 -52h-311l-3 52l87 14q1 22 2 67.5t1 101.5v93q0 45 -0.5 87.5t-0.5 73.5t-1 37q-6 2 -17.5 2h-20.5h-35
q-13 0 -25 -0.5t-23 -2.5l-37 -117l-62 6l21 178q10 0 28 -1t39 -2t40.5 -1.5t32.5 -0.5h255q13 0 32.5 0.5t40.5 1.5t38.5 2t28.5 1zM120 270v66h371v-66h-371z" />
    <glyph glyph-name="Tcaron" unicode="&#x164;" horiz-adv-x="612" 
d="M572 592l23 -177l-61 -5l-40 115q-10 2 -21.5 2.5t-24.5 0.5h-33h-20.5t-17.5 -2q0 -6 -1 -37t-1.5 -73.5t-0.5 -87.5v-93q0 -56 1.5 -101.5t2.5 -67.5l87 -14l-3 -52h-311l-3 52l87 14q1 22 2 67.5t1 101.5v93q0 45 -0.5 87.5t-0.5 73.5t-1 37q-6 2 -17.5 2h-20.5h-35
q-13 0 -25 -0.5t-23 -2.5l-37 -117l-62 6l21 178q10 0 28 -1t39 -2t40.5 -1.5t32.5 -0.5h255q13 0 32.5 0.5t40.5 1.5t38.5 2t28.5 1zM116 749l49 30l174 -84h-66l174 84l49 -30l-137 -103h-106z" />
    <glyph glyph-name="uni0162" unicode="&#x162;" horiz-adv-x="612" 
d="M572 592l23 -177l-61 -5l-40 115q-10 2 -21.5 2.5t-24.5 0.5h-33h-20.5t-17.5 -2q0 -6 -1 -37t-1.5 -73.5t-0.5 -87.5v-93q0 -56 1.5 -101.5t2.5 -67.5l87 -14l-3 -52h-311l-3 52l87 14q1 22 2 67.5t1 101.5v93q0 45 -0.5 87.5t-0.5 73.5t-1 37q-6 2 -17.5 2h-20.5h-35
q-13 0 -25 -0.5t-23 -2.5l-37 -117l-62 6l21 178q10 0 28 -1t39 -2t40.5 -1.5t32.5 -0.5h255q13 0 32.5 0.5t40.5 1.5t38.5 2t28.5 1zM290 -223q-26 0 -51.5 7t-47.5 20l22 43q17 -10 36.5 -17t38.5 -7q23 0 35 10.5t12 25.5q0 20 -20.5 30.5t-55.5 7.5l-17 19l58 96h59
l-62 -79l3 26q51 0 85 -22t34 -62q0 -42 -37.5 -70t-91.5 -28z" />
    <glyph glyph-name="uni021A" unicode="&#x21a;" horiz-adv-x="612" 
d="M572 592l23 -177l-61 -5l-40 115q-10 2 -21.5 2.5t-24.5 0.5h-33h-20.5t-17.5 -2q0 -6 -1 -37t-1.5 -73.5t-0.5 -87.5v-93q0 -56 1.5 -101.5t2.5 -67.5l87 -14l-3 -52h-311l-3 52l87 14q1 22 2 67.5t1 101.5v93q0 45 -0.5 87.5t-0.5 73.5t-1 37q-6 2 -17.5 2h-20.5h-35
q-13 0 -25 -0.5t-23 -2.5l-37 -117l-62 6l21 178q10 0 28 -1t39 -2t40.5 -1.5t32.5 -0.5h255q13 0 32.5 0.5t40.5 1.5t38.5 2t28.5 1zM229 -291l-14 34q47 10 64.5 25.5t17.5 29.5q0 12 -10 18.5t-22.5 12.5t-22.5 17t-10 33q0 23 19.5 38.5t48.5 15.5q20 0 38.5 -8.5
t30 -25.5t11.5 -45t-17 -57.5t-50 -53t-84 -34.5z" />
    <glyph glyph-name="uni1E6C" unicode="&#x1e6c;" horiz-adv-x="612" 
d="M572 592l23 -177l-61 -5l-40 115q-10 2 -21.5 2.5t-24.5 0.5h-33h-20.5t-17.5 -2q0 -6 -1 -37t-1.5 -73.5t-0.5 -87.5v-93q0 -56 1.5 -101.5t2.5 -67.5l87 -14l-3 -52h-311l-3 52l87 14q1 22 2 67.5t1 101.5v93q0 45 -0.5 87.5t-0.5 73.5t-1 37q-6 2 -17.5 2h-20.5h-35
q-13 0 -25 -0.5t-23 -2.5l-37 -117l-62 6l21 178q10 0 28 -1t39 -2t40.5 -1.5t32.5 -0.5h255q13 0 32.5 0.5t40.5 1.5t38.5 2t28.5 1zM307 -211q-36 0 -56 22t-20 50q0 29 20 50.5t56 21.5t55 -21.5t19 -50.5q0 -28 -19 -50t-55 -22z" />
    <glyph glyph-name="uni1E6E" unicode="&#x1e6e;" horiz-adv-x="612" 
d="M572 592l23 -177l-61 -5l-40 115q-10 2 -21.5 2.5t-24.5 0.5h-33h-20.5t-17.5 -2q0 -6 -1 -37t-1.5 -73.5t-0.5 -87.5v-93q0 -56 1.5 -101.5t2.5 -67.5l87 -14l-3 -52h-311l-3 52l87 14q1 22 2 67.5t1 101.5v93q0 45 -0.5 87.5t-0.5 73.5t-1 37q-6 2 -17.5 2h-20.5h-35
q-13 0 -25 -0.5t-23 -2.5l-37 -117l-62 6l21 178q10 0 28 -1t39 -2t40.5 -1.5t32.5 -0.5h255q13 0 32.5 0.5t40.5 1.5t38.5 2t28.5 1zM151 -104h310v-71h-310v71z" />
    <glyph glyph-name="U" unicode="U" horiz-adv-x="701" 
d="M36 587h267l3 -50l-63 -16q-1 -10 -2.5 -31.5t-2 -52t-0.5 -70.5v-104q0 -59 16 -98.5t48 -60t78 -20.5q47 0 77 19.5t45 60t15 100.5v85q0 45 -1 83t-2 62t-3 27l-70 16l3 50h222l3 -50l-63 -16q-2 -3 -3 -27t-2 -62t-1 -83v-102q0 -79 -29 -136.5t-82.5 -88.5
t-126.5 -31q-125 0 -192.5 66t-67.5 188v122q0 42 -1 75.5t-2 54t-2 24.5l-64 16z" />
    <glyph glyph-name="Uacute" unicode="&#xda;" horiz-adv-x="701" 
d="M36 587h267l3 -50l-63 -16q-1 -10 -2.5 -31.5t-2 -52t-0.5 -70.5v-104q0 -59 16 -98.5t48 -60t78 -20.5q47 0 77 19.5t45 60t15 100.5v85q0 45 -1 83t-2 62t-3 27l-70 16l3 50h222l3 -50l-63 -16q-2 -3 -3 -27t-2 -62t-1 -83v-102q0 -79 -29 -136.5t-82.5 -88.5
t-126.5 -31q-125 0 -192.5 66t-67.5 188v122q0 42 -1 75.5t-2 54t-2 24.5l-64 16zM409 631l-62 20l93 133l116 -23z" />
    <glyph glyph-name="Ubreve" unicode="&#x16c;" horiz-adv-x="701" 
d="M36 587h267l3 -50l-63 -16q-1 -10 -2.5 -31.5t-2 -52t-0.5 -70.5v-104q0 -59 16 -98.5t48 -60t78 -20.5q47 0 77 19.5t45 60t15 100.5v85q0 45 -1 83t-2 62t-3 27l-70 16l3 50h222l3 -50l-63 -16q-2 -3 -3 -27t-2 -62t-1 -83v-102q0 -79 -29 -136.5t-82.5 -88.5
t-126.5 -31q-125 0 -192.5 66t-67.5 188v122q0 42 -1 75.5t-2 54t-2 24.5l-64 16zM506 779l58 -20q-12 -54 -63 -85t-122 -31t-123 31t-64 85l64 20q12 -25 45.5 -41t81.5 -16q47 0 80 16t43 41z" />
    <glyph glyph-name="Ucircumflex" unicode="&#xdb;" horiz-adv-x="701" 
d="M36 587h267l3 -50l-63 -16q-1 -10 -2.5 -31.5t-2 -52t-0.5 -70.5v-104q0 -59 16 -98.5t48 -60t78 -20.5q47 0 77 19.5t45 60t15 100.5v85q0 45 -1 83t-2 62t-3 27l-70 16l3 50h222l3 -50l-63 -16q-2 -3 -3 -27t-2 -62t-1 -83v-102q0 -79 -29 -136.5t-82.5 -88.5
t-126.5 -31q-125 0 -192.5 66t-67.5 188v122q0 42 -1 75.5t-2 54t-2 24.5l-64 16zM568 668l-49 -31l-174 84h66l-174 -84l-49 31l137 102h106z" />
    <glyph glyph-name="uni0214" unicode="&#x214;" horiz-adv-x="701" 
d="M36 587h267l3 -50l-63 -16q-1 -10 -2.5 -31.5t-2 -52t-0.5 -70.5v-104q0 -59 16 -98.5t48 -60t78 -20.5q47 0 77 19.5t45 60t15 100.5v85q0 45 -1 83t-2 62t-3 27l-70 16l3 50h222l3 -50l-63 -16q-2 -3 -3 -27t-2 -62t-1 -83v-102q0 -79 -29 -136.5t-82.5 -88.5
t-126.5 -31q-125 0 -192.5 66t-67.5 188v122q0 42 -1 75.5t-2 54t-2 24.5l-64 16zM425 637l-81 123l91 19l43 -124zM278 637l-80 123l91 19l42 -124z" />
    <glyph glyph-name="Udieresis" unicode="&#xdc;" horiz-adv-x="701" 
d="M36 587h267l3 -50l-63 -16q-1 -10 -2.5 -31.5t-2 -52t-0.5 -70.5v-104q0 -59 16 -98.5t48 -60t78 -20.5q47 0 77 19.5t45 60t15 100.5v85q0 45 -1 83t-2 62t-3 27l-70 16l3 50h222l3 -50l-63 -16q-2 -3 -3 -27t-2 -62t-1 -83v-102q0 -79 -29 -136.5t-82.5 -88.5
t-126.5 -31q-125 0 -192.5 66t-67.5 188v122q0 42 -1 75.5t-2 54t-2 24.5l-64 16zM266 645q-33 0 -51.5 20t-18.5 45q0 26 18.5 45.5t51.5 19.5q32 0 50 -19.5t18 -45.5q0 -25 -18 -45t-50 -20zM492 645q-33 0 -51.5 20t-18.5 45q0 26 18.5 45.5t51.5 19.5t50.5 -19.5
t17.5 -45.5q0 -25 -17.5 -45t-50.5 -20z" />
    <glyph glyph-name="uni1EE4" unicode="&#x1ee4;" horiz-adv-x="701" 
d="M36 587h267l3 -50l-63 -16q-1 -10 -2.5 -31.5t-2 -52t-0.5 -70.5v-104q0 -59 16 -98.5t48 -60t78 -20.5q47 0 77 19.5t45 60t15 100.5v85q0 45 -1 83t-2 62t-3 27l-70 16l3 50h222l3 -50l-63 -16q-2 -3 -3 -27t-2 -62t-1 -83v-102q0 -79 -29 -136.5t-82.5 -88.5
t-126.5 -31q-125 0 -192.5 66t-67.5 188v122q0 42 -1 75.5t-2 54t-2 24.5l-64 16zM379 -211q-36 0 -56 22t-20 50q0 29 20 50.5t56 21.5t55 -21.5t19 -50.5q0 -28 -19 -50t-55 -22z" />
    <glyph glyph-name="Ugrave" unicode="&#xd9;" horiz-adv-x="701" 
d="M36 587h267l3 -50l-63 -16q-1 -10 -2.5 -31.5t-2 -52t-0.5 -70.5v-104q0 -59 16 -98.5t48 -60t78 -20.5q47 0 77 19.5t45 60t15 100.5v85q0 45 -1 83t-2 62t-3 27l-70 16l3 50h222l3 -50l-63 -16q-2 -3 -3 -27t-2 -62t-1 -83v-102q0 -79 -29 -136.5t-82.5 -88.5
t-126.5 -31q-125 0 -192.5 66t-67.5 188v122q0 42 -1 75.5t-2 54t-2 24.5l-64 16zM347 631l-147 130l116 23l93 -133z" />
    <glyph glyph-name="uni1EE6" unicode="&#x1ee6;" horiz-adv-x="701" 
d="M36 587h267l3 -50l-63 -16q-1 -10 -2.5 -31.5t-2 -52t-0.5 -70.5v-104q0 -59 16 -98.5t48 -60t78 -20.5q47 0 77 19.5t45 60t15 100.5v85q0 45 -1 83t-2 62t-3 27l-70 16l3 50h222l3 -50l-63 -16q-2 -3 -3 -27t-2 -62t-1 -83v-102q0 -79 -29 -136.5t-82.5 -88.5
t-126.5 -31q-125 0 -192.5 66t-67.5 188v122q0 42 -1 75.5t-2 54t-2 24.5l-64 16zM379 819q50 0 79.5 -17.5t29.5 -49.5q0 -23 -13.5 -37t-30.5 -24t-30.5 -21.5t-13.5 -28.5h-44v17q0 25 11 42t22 31t11 27q0 20 -14.5 24t-41.5 -3l41 15l-40 -43q-9 -9 -17.5 -13.5
t-21.5 -4.5q-14 0 -22.5 7.5t-8.5 20.5q0 22 28.5 40t75.5 18z" />
    <glyph glyph-name="Uhorn" unicode="&#x1af;" horiz-adv-x="701" 
d="M362 -9q-125 0 -192.5 66.5t-67.5 187.5v122q0 41 -1 75t-2 55t-3 24l-63 16l3 50h267l3 -50l-63 -16q-1 -11 -2.5 -32.5t-2 -52t-0.5 -69.5v-104q-1 -179 142 -179q137 0 137 180v85q0 44 -1 82t-2 62.5t-3 27.5l-70 16l3 50h106q20 0 34.5 9t23 25.5t9.5 38.5l2 60
q57 8 85.5 -8.5t28.5 -55.5q0 -50 -38.5 -85t-103.5 -41l15 15q-3 -24 -4.5 -71t-1.5 -125v-102q0 -79 -29 -136.5t-82 -88.5t-127 -31z" />
    <glyph glyph-name="uni1EE8" unicode="&#x1ee8;" horiz-adv-x="701" 
d="M362 -9q-125 0 -192.5 66.5t-67.5 187.5v122q0 41 -1 75t-2 55t-3 24l-63 16l3 50h267l3 -50l-63 -16q-1 -11 -2.5 -32.5t-2 -52t-0.5 -69.5v-104q-1 -179 142 -179q137 0 137 180v85q0 44 -1 82t-2 62.5t-3 27.5l-70 16l3 50h106q20 0 34.5 9t23 25.5t9.5 38.5l2 60
q57 8 85.5 -8.5t28.5 -55.5q0 -50 -38.5 -85t-103.5 -41l15 15q-3 -24 -4.5 -71t-1.5 -125v-102q0 -79 -29 -136.5t-82 -88.5t-127 -31zM409 631l-62 20l93 133l116 -23z" />
    <glyph glyph-name="uni1EF0" unicode="&#x1ef0;" horiz-adv-x="701" 
d="M362 -9q-125 0 -192.5 66.5t-67.5 187.5v122q0 41 -1 75t-2 55t-3 24l-63 16l3 50h267l3 -50l-63 -16q-1 -11 -2.5 -32.5t-2 -52t-0.5 -69.5v-104q-1 -179 142 -179q137 0 137 180v85q0 44 -1 82t-2 62.5t-3 27.5l-70 16l3 50h106q20 0 34.5 9t23 25.5t9.5 38.5l2 60
q57 8 85.5 -8.5t28.5 -55.5q0 -50 -38.5 -85t-103.5 -41l15 15q-3 -24 -4.5 -71t-1.5 -125v-102q0 -79 -29 -136.5t-82 -88.5t-127 -31zM379 -211q-36 0 -56 22t-20 50q0 29 20 50.5t56 21.5t55 -21.5t19 -50.5q0 -28 -19 -50t-55 -22z" />
    <glyph glyph-name="uni1EEA" unicode="&#x1eea;" horiz-adv-x="701" 
d="M362 -9q-125 0 -192.5 66.5t-67.5 187.5v122q0 41 -1 75t-2 55t-3 24l-63 16l3 50h267l3 -50l-63 -16q-1 -11 -2.5 -32.5t-2 -52t-0.5 -69.5v-104q-1 -179 142 -179q137 0 137 180v85q0 44 -1 82t-2 62.5t-3 27.5l-70 16l3 50h106q20 0 34.5 9t23 25.5t9.5 38.5l2 60
q57 8 85.5 -8.5t28.5 -55.5q0 -50 -38.5 -85t-103.5 -41l15 15q-3 -24 -4.5 -71t-1.5 -125v-102q0 -79 -29 -136.5t-82 -88.5t-127 -31zM347 631l-147 130l116 23l93 -133z" />
    <glyph glyph-name="uni1EEC" unicode="&#x1eec;" horiz-adv-x="701" 
d="M362 -9q-125 0 -192.5 66.5t-67.5 187.5v122q0 41 -1 75t-2 55t-3 24l-63 16l3 50h267l3 -50l-63 -16q-1 -11 -2.5 -32.5t-2 -52t-0.5 -69.5v-104q-1 -179 142 -179q137 0 137 180v85q0 44 -1 82t-2 62.5t-3 27.5l-70 16l3 50h106q20 0 34.5 9t23 25.5t9.5 38.5l2 60
q57 8 85.5 -8.5t28.5 -55.5q0 -50 -38.5 -85t-103.5 -41l15 15q-3 -24 -4.5 -71t-1.5 -125v-102q0 -79 -29 -136.5t-82 -88.5t-127 -31zM379 819q50 0 79.5 -17.5t29.5 -49.5q0 -23 -13.5 -37t-30.5 -24t-30.5 -21.5t-13.5 -28.5h-44v17q0 25 11 42t22 31t11 27
q0 20 -14.5 24t-41.5 -3l41 15l-40 -43q-9 -9 -17.5 -13.5t-21.5 -4.5q-14 0 -22.5 7.5t-8.5 20.5q0 22 28.5 40t75.5 18z" />
    <glyph glyph-name="uni1EEE" unicode="&#x1eee;" horiz-adv-x="701" 
d="M362 -9q-125 0 -192.5 66.5t-67.5 187.5v122q0 41 -1 75t-2 55t-3 24l-63 16l3 50h267l3 -50l-63 -16q-1 -11 -2.5 -32.5t-2 -52t-0.5 -69.5v-104q-1 -179 142 -179q137 0 137 180v85q0 44 -1 82t-2 62.5t-3 27.5l-70 16l3 50h106q20 0 34.5 9t23 25.5t9.5 38.5l2 60
q57 8 85.5 -8.5t28.5 -55.5q0 -50 -38.5 -85t-103.5 -41l15 15q-3 -24 -4.5 -71t-1.5 -125v-102q0 -79 -29 -136.5t-82 -88.5t-127 -31zM551 774l43 -24q-18 -52 -54.5 -80t-82.5 -28q-29 0 -61.5 11.5t-63.5 23t-54 11.5q-22 0 -39 -11t-34 -34l-43 26q19 50 55 78.5
t82 28.5q30 0 62.5 -11.5t63.5 -23t54 -11.5q22 0 39 11t33 33z" />
    <glyph glyph-name="Uhungarumlaut" unicode="&#x170;" horiz-adv-x="701" 
d="M36 587h267l3 -50l-63 -16q-1 -10 -2.5 -31.5t-2 -52t-0.5 -70.5v-104q0 -59 16 -98.5t48 -60t78 -20.5q47 0 77 19.5t45 60t15 100.5v85q0 45 -1 83t-2 62t-3 27l-70 16l3 50h222l3 -50l-63 -16q-2 -3 -3 -27t-2 -62t-1 -83v-102q0 -79 -29 -136.5t-82.5 -88.5
t-126.5 -31q-125 0 -192.5 66t-67.5 188v122q0 42 -1 75.5t-2 54t-2 24.5l-64 16zM478 637l-53 18l42 124l91 -19zM331 637l-53 18l43 124l91 -19z" />
    <glyph glyph-name="uni0216" unicode="&#x216;" horiz-adv-x="701" 
d="M36 587h267l3 -50l-63 -16q-1 -10 -2.5 -31.5t-2 -52t-0.5 -70.5v-104q0 -59 16 -98.5t48 -60t78 -20.5q47 0 77 19.5t45 60t15 100.5v85q0 45 -1 83t-2 62t-3 27l-70 16l3 50h222l3 -50l-63 -16q-2 -3 -3 -27t-2 -62t-1 -83v-102q0 -79 -29 -136.5t-82.5 -88.5
t-126.5 -31q-125 0 -192.5 66t-67.5 188v122q0 42 -1 75.5t-2 54t-2 24.5l-64 16zM250 637l-58 21q12 52 63 83.5t122 31.5t123 -31.5t64 -83.5l-64 -21q-11 26 -45 41.5t-82 15.5q-47 0 -80 -15.5t-43 -41.5z" />
    <glyph glyph-name="Umacron" unicode="&#x16a;" horiz-adv-x="701" 
d="M36 587h267l3 -50l-63 -16q-1 -10 -2.5 -31.5t-2 -52t-0.5 -70.5v-104q0 -59 16 -98.5t48 -60t78 -20.5q47 0 77 19.5t45 60t15 100.5v85q0 45 -1 83t-2 62t-3 27l-70 16l3 50h222l3 -50l-63 -16q-2 -3 -3 -27t-2 -62t-1 -83v-102q0 -79 -29 -136.5t-82.5 -88.5
t-126.5 -31q-125 0 -192.5 66t-67.5 188v122q0 42 -1 75.5t-2 54t-2 24.5l-64 16zM223 744h310v-71h-310v71z" />
    <glyph glyph-name="uni1E7A" unicode="&#x1e7a;" horiz-adv-x="701" 
d="M36 587h267l3 -50l-63 -16q-1 -10 -2.5 -31.5t-2 -52t-0.5 -70.5v-104q0 -59 16 -98.5t48 -60t78 -20.5q47 0 77 19.5t45 60t15 100.5v85q0 45 -1 83t-2 62t-3 27l-70 16l3 50h222l3 -50l-63 -16q-2 -3 -3 -27t-2 -62t-1 -83v-102q0 -79 -29 -136.5t-82.5 -88.5
t-126.5 -31q-125 0 -192.5 66t-67.5 188v122q0 42 -1 75.5t-2 54t-2 24.5l-64 16zM194 660v71h368v-71h-368zM266 903q32 0 50 -19.5t18 -45.5t-18 -45.5t-50 -19.5q-33 0 -51.5 19.5t-18.5 45.5t18.5 45.5t51.5 19.5zM492 903q33 0 50.5 -19.5t17.5 -45.5t-17.5 -45.5
t-50.5 -19.5t-51.5 19.5t-18.5 45.5t18.5 45.5t51.5 19.5z" />
    <glyph glyph-name="Uogonek" unicode="&#x172;" horiz-adv-x="701" 
d="M666 587l3 -50l-63 -16q-2 -3 -3.5 -27.5t-2 -62.5t-0.5 -82v-102q0 -87 -35 -149t-101 -89q-52 -22 -80.5 -53.5t-28.5 -68.5q0 -25 14.5 -40.5t37.5 -15.5q33 0 68 35l28 -39q-45 -50 -114 -50q-37 0 -66.5 13t-46 36t-16.5 52q0 44 42.5 82.5t117.5 62.5l-29 -32h-29
q-125 0 -192.5 66.5t-67.5 187.5v122q0 41 -1 75t-2 55t-2 24l-64 16l3 50h267l3 -50l-63 -16q-1 -10 -2.5 -31.5t-2 -52t-0.5 -70.5v-104q-1 -179 142 -179q137 0 137 180v85q0 44 -1 82t-2 62.5t-3 27.5l-70 16l3 50h222z" />
    <glyph glyph-name="Uring" unicode="&#x16e;" horiz-adv-x="701" 
d="M36 587h267l3 -50l-63 -16q-1 -10 -2.5 -31.5t-2 -52t-0.5 -70.5v-104q0 -59 16 -98.5t48 -60t78 -20.5q47 0 77 19.5t45 60t15 100.5v85q0 45 -1 83t-2 62t-3 27l-70 16l3 50h222l3 -50l-63 -16q-2 -3 -3 -27t-2 -62t-1 -83v-102q0 -79 -29 -136.5t-82.5 -88.5
t-126.5 -31q-125 0 -192.5 66t-67.5 188v122q0 42 -1 75.5t-2 54t-2 24.5l-64 16zM379 637q-48 0 -80 30.5t-32 74.5t32 74.5t80 30.5t79 -30t31 -75t-31 -75t-79 -30zM380 681q25 0 41.5 17.5t16.5 43.5q0 28 -16.5 45t-41.5 17q-26 0 -43 -17.5t-17 -43.5t17 -44t43 -18z
" />
    <glyph glyph-name="Utilde" unicode="&#x168;" horiz-adv-x="701" 
d="M36 587h267l3 -50l-63 -16q-1 -10 -2.5 -31.5t-2 -52t-0.5 -70.5v-104q0 -59 16 -98.5t48 -60t78 -20.5q47 0 77 19.5t45 60t15 100.5v85q0 45 -1 83t-2 62t-3 27l-70 16l3 50h222l3 -50l-63 -16q-2 -3 -3 -27t-2 -62t-1 -83v-102q0 -79 -29 -136.5t-82.5 -88.5
t-126.5 -31q-125 0 -192.5 66t-67.5 188v122q0 42 -1 75.5t-2 54t-2 24.5l-64 16zM551 774l43 -24q-18 -52 -54.5 -80t-82.5 -28q-29 0 -61.5 11.5t-63.5 23t-54 11.5q-22 0 -39 -11t-34 -34l-43 26q19 50 55 78.5t82 28.5q30 0 62.5 -11.5t63.5 -23t54 -11.5q22 0 39 11
t33 33z" />
    <glyph glyph-name="uni1E78" unicode="&#x1e78;" horiz-adv-x="701" 
d="M36 587h267l3 -50l-63 -16q-1 -10 -2.5 -31.5t-2 -52t-0.5 -70.5v-104q0 -59 16 -98.5t48 -60t78 -20.5q47 0 77 19.5t45 60t15 100.5v85q0 45 -1 83t-2 62t-3 27l-70 16l3 50h222l3 -50l-63 -16q-2 -3 -3 -27t-2 -62t-1 -83v-102q0 -79 -29 -136.5t-82.5 -88.5
t-126.5 -31q-125 0 -192.5 66t-67.5 188v122q0 42 -1 75.5t-2 54t-2 24.5l-64 16zM407 768l-58 20l65 115l117 -23zM447 644q-25 0 -53.5 8.5t-54.5 17t-47 8.5q-19 0 -33.5 -9t-28.5 -24l-39 23q16 44 47 67.5t71 23.5q25 0 53 -8t55 -17t47 -9q19 0 33.5 9t28.5 25l39 -24
q-16 -44 -46.5 -67.5t-71.5 -23.5z" />
    <glyph glyph-name="V" unicode="V" horiz-adv-x="613" 
d="M277 -3l-231 524l-52 18l3 48h263l3 -50l-63 -16l166 -389h-41l152 389l-70 16l3 50h205l4 -48l-52 -18l-236 -524h-54z" />
    <glyph glyph-name="W" unicode="W" horiz-adv-x="977" 
d="M499 401l-171 -404h-53l-225 524l-51 16l3 50h251l3 -50l-50 -16l158 -389h-48l140 357zM646 -3l-228 524l-50 16l3 50h259l3 -50l-63 -16l161 -389h-42l146 389l-68 16l3 50h204l3 -50l-51 -16l-227 -524h-53z" />
    <glyph glyph-name="Wacute" unicode="&#x1e82;" horiz-adv-x="977" 
d="M499 401l-171 -404h-53l-225 524l-51 16l3 50h251l3 -50l-50 -16l158 -389h-48l140 357zM646 -3l-228 524l-50 16l3 50h259l3 -50l-63 -16l161 -389h-42l146 389l-68 16l3 50h204l3 -50l-51 -16l-227 -524h-53zM525 631l-62 20l93 133l116 -23z" />
    <glyph glyph-name="Wcircumflex" unicode="&#x174;" horiz-adv-x="977" 
d="M499 401l-171 -404h-53l-225 524l-51 16l3 50h251l3 -50l-50 -16l158 -389h-48l140 357zM646 -3l-228 524l-50 16l3 50h259l3 -50l-63 -16l161 -389h-42l146 389l-68 16l3 50h204l3 -50l-51 -16l-227 -524h-53zM684 668l-49 -31l-174 84h66l-174 -84l-49 31l137 102h106z
" />
    <glyph glyph-name="Wdieresis" unicode="&#x1e84;" horiz-adv-x="977" 
d="M499 401l-171 -404h-53l-225 524l-51 16l3 50h251l3 -50l-50 -16l158 -389h-48l140 357zM646 -3l-228 524l-50 16l3 50h259l3 -50l-63 -16l161 -389h-42l146 389l-68 16l3 50h204l3 -50l-51 -16l-227 -524h-53zM382 645q-33 0 -51.5 20t-18.5 45q0 26 18.5 45.5
t51.5 19.5q32 0 50 -19.5t18 -45.5q0 -25 -18 -45t-50 -20zM608 645q-33 0 -51.5 20t-18.5 45q0 26 18.5 45.5t51.5 19.5t50.5 -19.5t17.5 -45.5q0 -25 -17.5 -45t-50.5 -20z" />
    <glyph glyph-name="Wgrave" unicode="&#x1e80;" horiz-adv-x="977" 
d="M499 401l-171 -404h-53l-225 524l-51 16l3 50h251l3 -50l-50 -16l158 -389h-48l140 357zM646 -3l-228 524l-50 16l3 50h259l3 -50l-63 -16l161 -389h-42l146 389l-68 16l3 50h204l3 -50l-51 -16l-227 -524h-53zM463 631l-147 130l116 23l93 -133z" />
    <glyph glyph-name="X" unicode="X" horiz-adv-x="607" 
d="M603 0h-269l-3 50l62 16l-113 166l-41 55l-163 234l-51 16l3 50h256l3 -50l-50 -16l92 -131l37 -54l189 -270l51 -16zM419 521l-53 16l3 50h192l3 -50l-51 -16l-147 -185l-86 -104l-114 -166l66 -16l-3 -50h-205l-3 50l51 16l167 221l90 103z" />
    <glyph glyph-name="Y" unicode="Y" horiz-adv-x="585" 
d="M527 521l-212 -338l44 100v-100v-37.5t1 -36.5t2 -28.5t3 -14.5l70 -15l-3 -51h-279l-3 51l70 15q1 3 2 14.5t2 28.5t1 36.5v37.5v100l32 -100l-199 338l-51 16l3 50h263l3 -50l-63 -16l128 -219h-24l126 219l-70 16l3 50h199l3 -50z" />
    <glyph glyph-name="Yacute" unicode="&#xdd;" horiz-adv-x="585" 
d="M527 521l-212 -338l44 100v-100v-37.5t1 -36.5t2 -28.5t3 -14.5l70 -15l-3 -51h-279l-3 51l70 15q1 3 2 14.5t2 28.5t1 36.5v37.5v100l32 -100l-199 338l-51 16l3 50h263l3 -50l-63 -16l128 -219h-24l126 219l-70 16l3 50h199l3 -50zM323 631l-62 20l93 133l116 -23z" />
    <glyph glyph-name="Ycircumflex" unicode="&#x176;" horiz-adv-x="585" 
d="M527 521l-212 -338l44 100v-100v-37.5t1 -36.5t2 -28.5t3 -14.5l70 -15l-3 -51h-279l-3 51l70 15q1 3 2 14.5t2 28.5t1 36.5v37.5v100l32 -100l-199 338l-51 16l3 50h263l3 -50l-63 -16l128 -219h-24l126 219l-70 16l3 50h199l3 -50zM482 668l-49 -31l-174 84h66
l-174 -84l-49 31l137 102h106z" />
    <glyph glyph-name="Ydieresis" unicode="&#x178;" horiz-adv-x="585" 
d="M527 521l-212 -338l44 100v-100v-37.5t1 -36.5t2 -28.5t3 -14.5l70 -15l-3 -51h-279l-3 51l70 15q1 3 2 14.5t2 28.5t1 36.5v37.5v100l32 -100l-199 338l-51 16l3 50h263l3 -50l-63 -16l128 -219h-24l126 219l-70 16l3 50h199l3 -50zM180 645q-33 0 -51.5 20t-18.5 45
q0 26 18.5 45.5t51.5 19.5q32 0 50 -19.5t18 -45.5q0 -25 -18 -45t-50 -20zM406 645q-33 0 -51.5 20t-18.5 45q0 26 18.5 45.5t51.5 19.5t50.5 -19.5t17.5 -45.5q0 -25 -17.5 -45t-50.5 -20z" />
    <glyph glyph-name="uni1E8E" unicode="&#x1e8e;" horiz-adv-x="585" 
d="M527 521l-212 -338l44 100v-100v-37.5t1 -36.5t2 -28.5t3 -14.5l70 -15l-3 -51h-279l-3 51l70 15q1 3 2 14.5t2 28.5t1 36.5v37.5v100l32 -100l-199 338l-51 16l3 50h263l3 -50l-63 -16l128 -219h-24l126 219l-70 16l3 50h199l3 -50zM293 638q-36 0 -56 22t-20 50
q0 29 20 50.5t56 21.5t55 -21.5t19 -50.5q0 -28 -19 -50t-55 -22z" />
    <glyph glyph-name="uni1EF4" unicode="&#x1ef4;" horiz-adv-x="585" 
d="M527 521l-212 -338l44 100v-100v-37.5t1 -36.5t2 -28.5t3 -14.5l70 -15l-3 -51h-279l-3 51l70 15q1 3 2 14.5t2 28.5t1 36.5v37.5v100l32 -100l-199 338l-51 16l3 50h263l3 -50l-63 -16l128 -219h-24l126 219l-70 16l3 50h199l3 -50zM293 -211q-36 0 -56 22t-20 50
q0 29 20 50.5t56 21.5t55 -21.5t19 -50.5q0 -28 -19 -50t-55 -22z" />
    <glyph glyph-name="Ygrave" unicode="&#x1ef2;" horiz-adv-x="585" 
d="M527 521l-212 -338l44 100v-100v-37.5t1 -36.5t2 -28.5t3 -14.5l70 -15l-3 -51h-279l-3 51l70 15q1 3 2 14.5t2 28.5t1 36.5v37.5v100l32 -100l-199 338l-51 16l3 50h263l3 -50l-63 -16l128 -219h-24l126 219l-70 16l3 50h199l3 -50zM261 631l-147 130l116 23l93 -133z
" />
    <glyph glyph-name="uni1EF6" unicode="&#x1ef6;" horiz-adv-x="585" 
d="M527 521l-212 -338l44 100v-100v-37.5t1 -36.5t2 -28.5t3 -14.5l70 -15l-3 -51h-279l-3 51l70 15q1 3 2 14.5t2 28.5t1 36.5v37.5v100l32 -100l-199 338l-51 16l3 50h263l3 -50l-63 -16l128 -219h-24l126 219l-70 16l3 50h199l3 -50zM293 819q50 0 79.5 -17.5t29.5 -49.5
q0 -23 -13.5 -37t-30.5 -24t-30.5 -21.5t-13.5 -28.5h-44v17q0 25 11 42t22 31t11 27q0 20 -14.5 24t-41.5 -3l41 15l-40 -43q-9 -9 -17.5 -13.5t-21.5 -4.5q-14 0 -22.5 7.5t-8.5 20.5q0 22 28.5 40t75.5 18z" />
    <glyph glyph-name="uni0232" unicode="&#x232;" horiz-adv-x="585" 
d="M527 521l-212 -338l44 100v-100v-37.5t1 -36.5t2 -28.5t3 -14.5l70 -15l-3 -51h-279l-3 51l70 15q1 3 2 14.5t2 28.5t1 36.5v37.5v100l32 -100l-199 338l-51 16l3 50h263l3 -50l-63 -16l128 -219h-24l126 219l-70 16l3 50h199l3 -50zM137 744h310v-71h-310v71z" />
    <glyph glyph-name="uni1EF8" unicode="&#x1ef8;" horiz-adv-x="585" 
d="M527 521l-212 -338l44 100v-100v-37.5t1 -36.5t2 -28.5t3 -14.5l70 -15l-3 -51h-279l-3 51l70 15q1 3 2 14.5t2 28.5t1 36.5v37.5v100l32 -100l-199 338l-51 16l3 50h263l3 -50l-63 -16l128 -219h-24l126 219l-70 16l3 50h199l3 -50zM465 774l43 -24q-18 -52 -54.5 -80
t-82.5 -28q-29 0 -61.5 11.5t-63.5 23t-54 11.5q-22 0 -39 -11t-34 -34l-43 26q19 50 55 78.5t82 28.5q30 0 62.5 -11.5t63.5 -23t54 -11.5q22 0 39 11t33 33z" />
    <glyph glyph-name="Z" unicode="Z" horiz-adv-x="552" 
d="M505 -5q-14 1 -39 2t-51 2t-44 1h-233q-20 0 -40 -0.5t-39 -2.5v52l317 522v-42h-171q-30 0 -48 -2t-34 -4l-18 -102h-62l-2 168q24 -1 51.5 -1.5t46.5 -0.5h286q19 0 39 0.5t39 1.5v-52l-310 -515v41h187q18 0 29 1t24 3l42 114l60 -8z" />
    <glyph glyph-name="Zacute" unicode="&#x179;" horiz-adv-x="552" 
d="M505 -5q-14 1 -39 2t-51 2t-44 1h-233q-20 0 -40 -0.5t-39 -2.5v52l317 522v-42h-171q-30 0 -48 -2t-34 -4l-18 -102h-62l-2 168q24 -1 51.5 -1.5t46.5 -0.5h286q19 0 39 0.5t39 1.5v-52l-310 -515v41h187q18 0 29 1t24 3l42 114l60 -8zM305 631l-62 20l93 133l116 -23z
" />
    <glyph glyph-name="Zcaron" unicode="&#x17d;" horiz-adv-x="552" 
d="M505 -5q-14 1 -39 2t-51 2t-44 1h-233q-20 0 -40 -0.5t-39 -2.5v52l317 522v-42h-171q-30 0 -48 -2t-34 -4l-18 -102h-62l-2 168q24 -1 51.5 -1.5t46.5 -0.5h286q19 0 39 0.5t39 1.5v-52l-310 -515v41h187q18 0 29 1t24 3l42 114l60 -8zM84 749l49 30l174 -84h-66l174 84
l49 -30l-137 -103h-106z" />
    <glyph glyph-name="Zdotaccent" unicode="&#x17b;" horiz-adv-x="552" 
d="M505 -5q-14 1 -39 2t-51 2t-44 1h-233q-20 0 -40 -0.5t-39 -2.5v52l317 522v-42h-171q-30 0 -48 -2t-34 -4l-18 -102h-62l-2 168q24 -1 51.5 -1.5t46.5 -0.5h286q19 0 39 0.5t39 1.5v-52l-310 -515v41h187q18 0 29 1t24 3l42 114l60 -8zM275 638q-36 0 -56 22t-20 50
q0 29 20 50.5t56 21.5t55 -21.5t19 -50.5q0 -28 -19 -50t-55 -22z" />
    <glyph glyph-name="uni1E92" unicode="&#x1e92;" horiz-adv-x="552" 
d="M505 -5q-14 1 -39 2t-51 2t-44 1h-233q-20 0 -40 -0.5t-39 -2.5v52l317 522v-42h-171q-30 0 -48 -2t-34 -4l-18 -102h-62l-2 168q24 -1 51.5 -1.5t46.5 -0.5h286q19 0 39 0.5t39 1.5v-52l-310 -515v41h187q18 0 29 1t24 3l42 114l60 -8zM275 -211q-36 0 -56 22t-20 50
q0 29 20 50.5t56 21.5t55 -21.5t19 -50.5q0 -28 -19 -50t-55 -22z" />
    <glyph glyph-name="Iacute_J.loclNLD" horiz-adv-x="690" 
d="M38 0l-3 50l63 16q2 5 3.5 26t2.5 54.5t1 73.5v147q0 41 -1 75t-2.5 55.5t-3.5 24.5l-63 15l3 50h269l3 -50l-64 -15q-2 -5 -3.5 -26.5t-2 -55t-0.5 -73.5v-147q0 -39 0.5 -72t2 -55t3.5 -27l64 -16l-3 -50h-269zM203 631l-62 20l93 133l116 -23zM591 522q-2 -4 -3.5 -25
t-2 -54t-0.5 -75l1 -364q0 -63 -23 -109.5t-65.5 -72t-99.5 -25.5q-61 0 -101 23.5t-40 59.5q0 24 14.5 38t35.5 14q18 0 34.5 -7.5t34.5 -25.5l71 -67l-55 20q24 -3 36.5 5t17.5 37t5 84l-1 393q0 37 -1 69.5t-2.5 55t-3.5 27.5l-70 14l3 50h276l3 -50zM548 631l-62 20
l93 133l116 -23z" />
    <glyph glyph-name="a" unicode="a" horiz-adv-x="499" 
d="M188 -8q-46 0 -79.5 20t-51 48t-17.5 53q0 36 22.5 60.5t69.5 38.5l157 46v36q0 21 -13.5 39.5t-35.5 30.5t-47 12q-16 0 -22.5 -7.5t-8.5 -29.5l-5 -61q-50 -10 -81.5 3.5t-31.5 44.5q0 19 20 39t49.5 37.5t60.5 30t54 14.5q89 0 141 -40.5t53 -108.5l-3 -139
q0 -28 1.5 -44t5.5 -26l66 -12v-42l-65 -28q-18 -7 -33 -11t-29 -4q-39 0 -55 40l-17 46l21 -5q-31 -38 -63.5 -59.5t-62.5 -21.5zM239 82q14 0 27 5.5t24 16.5v98l-68 -13q-25 -3 -35.5 -15t-10.5 -32q0 -23 18.5 -41.5t44.5 -18.5z" />
    <glyph glyph-name="aacute" unicode="&#xe1;" horiz-adv-x="499" 
d="M188 -8q-46 0 -79.5 20t-51 48t-17.5 53q0 36 22.5 60.5t69.5 38.5l157 46v36q0 21 -13.5 39.5t-35.5 30.5t-47 12q-16 0 -22.5 -7.5t-8.5 -29.5l-5 -61q-50 -10 -81.5 3.5t-31.5 44.5q0 19 20 39t49.5 37.5t60.5 30t54 14.5q89 0 141 -40.5t53 -108.5l-3 -139
q0 -28 1.5 -44t5.5 -26l66 -12v-42l-65 -28q-18 -7 -33 -11t-29 -4q-39 0 -55 40l-17 46l21 -5q-31 -38 -63.5 -59.5t-62.5 -21.5zM239 82q14 0 27 5.5t24 16.5v98l-68 -13q-25 -3 -35.5 -15t-10.5 -32q0 -23 18.5 -41.5t44.5 -18.5zM274 483l-58 20l99 174l117 -23z" />
    <glyph glyph-name="abreve" unicode="&#x103;" horiz-adv-x="499" 
d="M188 -8q-46 0 -79.5 20t-51 48t-17.5 53q0 36 22.5 60.5t69.5 38.5l157 46v36q0 21 -13.5 39.5t-35.5 30.5t-47 12q-16 0 -22.5 -7.5t-8.5 -29.5l-5 -61q-50 -10 -81.5 3.5t-31.5 44.5q0 19 20 39t49.5 37.5t60.5 30t54 14.5q89 0 141 -40.5t53 -108.5l-3 -139
q0 -28 1.5 -44t5.5 -26l66 -12v-42l-65 -28q-18 -7 -33 -11t-29 -4q-39 0 -55 40l-17 46l21 -5q-31 -38 -63.5 -59.5t-62.5 -21.5zM239 82q14 0 27 5.5t24 16.5v98l-68 -13q-25 -3 -35.5 -15t-10.5 -32q0 -23 18.5 -41.5t44.5 -18.5zM343 677l58 -20q-4 -76 -46.5 -121
t-108.5 -45q-44 0 -78.5 20.5t-55 58t-23.5 87.5l64 20q9 -50 34 -76.5t61 -26.5q37 0 62.5 26.5t32.5 76.5z" />
    <glyph glyph-name="uni1EAF" unicode="&#x1eaf;" horiz-adv-x="499" 
d="M188 -8q-46 0 -79.5 20t-51 48t-17.5 53q0 36 22.5 60.5t69.5 38.5l157 46v36q0 21 -13.5 39.5t-35.5 30.5t-47 12q-16 0 -22.5 -7.5t-8.5 -29.5l-5 -61q-50 -10 -81.5 3.5t-31.5 44.5q0 19 20 39t49.5 37.5t60.5 30t54 14.5q89 0 141 -40.5t53 -108.5l-3 -139
q0 -28 1.5 -44t5.5 -26l66 -12v-42l-65 -28q-18 -7 -33 -11t-29 -4q-39 0 -55 40l-17 46l21 -5q-31 -38 -63.5 -59.5t-62.5 -21.5zM239 82q14 0 27 5.5t24 16.5v98l-68 -13q-25 -3 -35.5 -15t-10.5 -32q0 -23 18.5 -41.5t44.5 -18.5zM343 677l58 -20q-4 -76 -46.5 -121
t-108.5 -45q-44 0 -78.5 20.5t-55 58t-23.5 87.5l64 20q9 -50 34 -76.5t61 -26.5q37 0 62.5 26.5t32.5 76.5zM264 635l-58 20l70 135l117 -23z" />
    <glyph glyph-name="uni1EB7" unicode="&#x1eb7;" horiz-adv-x="499" 
d="M188 -8q-46 0 -79.5 20t-51 48t-17.5 53q0 36 22.5 60.5t69.5 38.5l157 46v36q0 21 -13.5 39.5t-35.5 30.5t-47 12q-16 0 -22.5 -7.5t-8.5 -29.5l-5 -61q-50 -10 -81.5 3.5t-31.5 44.5q0 19 20 39t49.5 37.5t60.5 30t54 14.5q89 0 141 -40.5t53 -108.5l-3 -139
q0 -28 1.5 -44t5.5 -26l66 -12v-42l-65 -28q-18 -7 -33 -11t-29 -4q-39 0 -55 40l-17 46l21 -5q-31 -38 -63.5 -59.5t-62.5 -21.5zM239 82q14 0 27 5.5t24 16.5v98l-68 -13q-25 -3 -35.5 -15t-10.5 -32q0 -23 18.5 -41.5t44.5 -18.5zM252 -211q-36 0 -56 22t-20 50
q0 29 20 50.5t56 21.5t55 -21.5t19 -50.5q0 -28 -19 -50t-55 -22zM343 677l58 -20q-4 -76 -46.5 -121t-108.5 -45q-44 0 -78.5 20.5t-55 58t-23.5 87.5l64 20q9 -50 34 -76.5t61 -26.5q37 0 62.5 26.5t32.5 76.5z" />
    <glyph glyph-name="uni1EB1" unicode="&#x1eb1;" horiz-adv-x="499" 
d="M188 -8q-46 0 -79.5 20t-51 48t-17.5 53q0 36 22.5 60.5t69.5 38.5l157 46v36q0 21 -13.5 39.5t-35.5 30.5t-47 12q-16 0 -22.5 -7.5t-8.5 -29.5l-5 -61q-50 -10 -81.5 3.5t-31.5 44.5q0 19 20 39t49.5 37.5t60.5 30t54 14.5q89 0 141 -40.5t53 -108.5l-3 -139
q0 -28 1.5 -44t5.5 -26l66 -12v-42l-65 -28q-18 -7 -33 -11t-29 -4q-39 0 -55 40l-17 46l21 -5q-31 -38 -63.5 -59.5t-62.5 -21.5zM239 82q14 0 27 5.5t24 16.5v98l-68 -13q-25 -3 -35.5 -15t-10.5 -32q0 -23 18.5 -41.5t44.5 -18.5zM343 677l58 -20q-4 -76 -46.5 -121
t-108.5 -45q-44 0 -78.5 20.5t-55 58t-23.5 87.5l64 20q9 -50 34 -76.5t61 -26.5q37 0 62.5 26.5t32.5 76.5zM234 635l-129 132l121 23l70 -135z" />
    <glyph glyph-name="uni1EB3" unicode="&#x1eb3;" horiz-adv-x="499" 
d="M188 -8q-46 0 -79.5 20t-51 48t-17.5 53q0 36 22.5 60.5t69.5 38.5l157 46v36q0 21 -13.5 39.5t-35.5 30.5t-47 12q-16 0 -22.5 -7.5t-8.5 -29.5l-5 -61q-50 -10 -81.5 3.5t-31.5 44.5q0 19 20 39t49.5 37.5t60.5 30t54 14.5q89 0 141 -40.5t53 -108.5l-3 -139
q0 -28 1.5 -44t5.5 -26l66 -12v-42l-65 -28q-18 -7 -33 -11t-29 -4q-39 0 -55 40l-17 46l21 -5q-31 -38 -63.5 -59.5t-62.5 -21.5zM239 82q14 0 27 5.5t24 16.5v98l-68 -13q-25 -3 -35.5 -15t-10.5 -32q0 -23 18.5 -41.5t44.5 -18.5zM343 657l58 -20q-3 -40 -23 -73.5
t-54 -53t-78 -19.5t-78.5 19.5t-55 53t-23.5 73.5l64 20q9 -35 34 -59t61 -24q37 0 62.5 24t32.5 59zM246 790q50 0 79.5 -16.5t29.5 -47.5q0 -23 -13.5 -37t-30.5 -24.5t-30.5 -20t-13.5 -23.5h-44v17q0 20 11 35.5t22 29t11 26.5q0 19 -14.5 23.5t-41.5 -2.5l41 15
l-40 -42q-9 -10 -17.5 -14.5t-21.5 -4.5q-14 0 -22.5 7.5t-8.5 20.5q0 23 28 40.5t76 17.5z" />
    <glyph glyph-name="uni1EB5" unicode="&#x1eb5;" horiz-adv-x="499" 
d="M188 -8q-46 0 -79.5 20t-51 48t-17.5 53q0 36 22.5 60.5t69.5 38.5l157 46v36q0 21 -13.5 39.5t-35.5 30.5t-47 12q-16 0 -22.5 -7.5t-8.5 -29.5l-5 -61q-50 -10 -81.5 3.5t-31.5 44.5q0 19 20 39t49.5 37.5t60.5 30t54 14.5q89 0 141 -40.5t53 -108.5l-3 -139
q0 -28 1.5 -44t5.5 -26l66 -12v-42l-65 -28q-18 -7 -33 -11t-29 -4q-39 0 -55 40l-17 46l21 -5q-31 -38 -63.5 -59.5t-62.5 -21.5zM239 82q14 0 27 5.5t24 16.5v98l-68 -13q-25 -3 -35.5 -15t-10.5 -32q0 -23 18.5 -41.5t44.5 -18.5zM246 491q-39 0 -72.5 16t-55.5 45.5
t-29 67.5l64 18q9 -31 34 -48.5t61 -17.5q37 0 62.5 17.5t32.5 48.5l58 -18q-7 -38 -27 -67.5t-52 -45.5t-76 -16zM306 663q-21 0 -44.5 11t-46.5 22t-40 11q-16 0 -28.5 -10t-23.5 -33l-39 23q14 49 39.5 76t60.5 27q22 0 45.5 -11t46 -22t39.5 -11q16 0 28 10.5t24 32.5
l39 -23q-13 -49 -39 -76t-61 -27z" />
    <glyph glyph-name="acircumflex" unicode="&#xe2;" horiz-adv-x="499" 
d="M188 -8q-46 0 -79.5 20t-51 48t-17.5 53q0 36 22.5 60.5t69.5 38.5l157 46v36q0 21 -13.5 39.5t-35.5 30.5t-47 12q-16 0 -22.5 -7.5t-8.5 -29.5l-5 -61q-50 -10 -81.5 3.5t-31.5 44.5q0 19 20 39t49.5 37.5t60.5 30t54 14.5q89 0 141 -40.5t53 -108.5l-3 -139
q0 -28 1.5 -44t5.5 -26l66 -12v-42l-65 -28q-18 -7 -33 -11t-29 -4q-39 0 -55 40l-17 46l21 -5q-31 -38 -63.5 -59.5t-62.5 -21.5zM239 82q14 0 27 5.5t24 16.5v98l-68 -13q-25 -3 -35.5 -15t-10.5 -32q0 -23 18.5 -41.5t44.5 -18.5zM405 503l-58 -20l-135 139h66l-135 -139
l-58 20l107 163h106z" />
    <glyph glyph-name="uni1EA5" unicode="&#x1ea5;" horiz-adv-x="499" 
d="M188 -8q-46 0 -79.5 20t-51 48t-17.5 53q0 36 22.5 60.5t69.5 38.5l157 46v36q0 21 -13.5 39.5t-35.5 30.5t-47 12q-16 0 -22.5 -7.5t-8.5 -29.5l-5 -61q-50 -10 -81.5 3.5t-31.5 44.5q0 19 20 39t49.5 37.5t60.5 30t54 14.5q89 0 141 -40.5t53 -108.5l-3 -139
q0 -28 1.5 -44t5.5 -26l66 -12v-42l-65 -28q-18 -7 -33 -11t-29 -4q-39 0 -55 40l-17 46l21 -5q-31 -38 -63.5 -59.5t-62.5 -21.5zM239 82q14 0 27 5.5t24 16.5v98l-68 -13q-25 -3 -35.5 -15t-10.5 -32q0 -23 18.5 -41.5t44.5 -18.5zM405 503l-58 -20l-135 139h66l-135 -139
l-58 20l107 163h106zM396 635l-58 20l70 135l117 -23z" />
    <glyph glyph-name="uni1EAD" unicode="&#x1ead;" horiz-adv-x="499" 
d="M188 -8q-46 0 -79.5 20t-51 48t-17.5 53q0 36 22.5 60.5t69.5 38.5l157 46v36q0 21 -13.5 39.5t-35.5 30.5t-47 12q-16 0 -22.5 -7.5t-8.5 -29.5l-5 -61q-50 -10 -81.5 3.5t-31.5 44.5q0 19 20 39t49.5 37.5t60.5 30t54 14.5q89 0 141 -40.5t53 -108.5l-3 -139
q0 -28 1.5 -44t5.5 -26l66 -12v-42l-65 -28q-18 -7 -33 -11t-29 -4q-39 0 -55 40l-17 46l21 -5q-31 -38 -63.5 -59.5t-62.5 -21.5zM239 82q14 0 27 5.5t24 16.5v98l-68 -13q-25 -3 -35.5 -15t-10.5 -32q0 -23 18.5 -41.5t44.5 -18.5zM252 -211q-36 0 -56 22t-20 50
q0 29 20 50.5t56 21.5t55 -21.5t19 -50.5q0 -28 -19 -50t-55 -22zM405 503l-58 -20l-135 139h66l-135 -139l-58 20l107 163h106z" />
    <glyph glyph-name="uni1EA7" unicode="&#x1ea7;" horiz-adv-x="499" 
d="M188 -8q-46 0 -79.5 20t-51 48t-17.5 53q0 36 22.5 60.5t69.5 38.5l157 46v36q0 21 -13.5 39.5t-35.5 30.5t-47 12q-16 0 -22.5 -7.5t-8.5 -29.5l-5 -61q-50 -10 -81.5 3.5t-31.5 44.5q0 19 20 39t49.5 37.5t60.5 30t54 14.5q89 0 141 -40.5t53 -108.5l-3 -139
q0 -28 1.5 -44t5.5 -26l66 -12v-42l-65 -28q-18 -7 -33 -11t-29 -4q-39 0 -55 40l-17 46l21 -5q-31 -38 -63.5 -59.5t-62.5 -21.5zM239 82q14 0 27 5.5t24 16.5v98l-68 -13q-25 -3 -35.5 -15t-10.5 -32q0 -23 18.5 -41.5t44.5 -18.5zM405 503l-58 -20l-135 139h66l-135 -139
l-58 20l107 163h106zM390 635l-129 132l121 23l70 -135z" />
    <glyph glyph-name="uni1EA9" unicode="&#x1ea9;" horiz-adv-x="499" 
d="M188 -8q-46 0 -79.5 20t-51 48t-17.5 53q0 36 22.5 60.5t69.5 38.5l157 46v36q0 21 -13.5 39.5t-35.5 30.5t-47 12q-16 0 -22.5 -7.5t-8.5 -29.5l-5 -61q-50 -10 -81.5 3.5t-31.5 44.5q0 19 20 39t49.5 37.5t60.5 30t54 14.5q89 0 141 -40.5t53 -108.5l-3 -139
q0 -28 1.5 -44t5.5 -26l66 -12v-42l-65 -28q-18 -7 -33 -11t-29 -4q-39 0 -55 40l-17 46l21 -5q-31 -38 -63.5 -59.5t-62.5 -21.5zM239 82q14 0 27 5.5t24 16.5v98l-68 -13q-25 -3 -35.5 -15t-10.5 -32q0 -23 18.5 -41.5t44.5 -18.5zM405 503l-58 -20l-135 139h66l-135 -139
l-58 20l107 163h106zM389 790q50 0 79.5 -18t29.5 -48q0 -24 -13 -38t-30.5 -24t-31 -21t-13.5 -29h-44v17q0 25 11 42t22 31t11 27q0 19 -14.5 23.5t-41.5 -2.5l41 15l-40 -42q-9 -10 -18 -14.5t-21 -4.5q-14 0 -22.5 7.5t-8.5 20.5q0 23 28.5 40.5t75.5 17.5z" />
    <glyph glyph-name="uni1EAB" unicode="&#x1eab;" horiz-adv-x="499" 
d="M188 -8q-46 0 -79.5 20t-51 48t-17.5 53q0 36 22.5 60.5t69.5 38.5l157 46v36q0 21 -13.5 39.5t-35.5 30.5t-47 12q-16 0 -22.5 -7.5t-8.5 -29.5l-5 -61q-50 -10 -81.5 3.5t-31.5 44.5q0 19 20 39t49.5 37.5t60.5 30t54 14.5q89 0 141 -40.5t53 -108.5l-3 -139
q0 -28 1.5 -44t5.5 -26l66 -12v-42l-65 -28q-18 -7 -33 -11t-29 -4q-39 0 -55 40l-17 46l21 -5q-31 -38 -63.5 -59.5t-62.5 -21.5zM239 82q14 0 27 5.5t24 16.5v98l-68 -13q-25 -3 -35.5 -15t-10.5 -32q0 -23 18.5 -41.5t44.5 -18.5zM143 483l-58 20l107 132h106l107 -132
l-58 -20l-135 112h66zM308 663q-22 0 -47 11t-48.5 22t-41.5 11q-17 0 -29.5 -10t-25.5 -33l-38 23q14 49 41 76t63 27q22 0 47 -11t48.5 -22t40.5 -11t30 10.5t26 32.5l38 -23q-13 -49 -40.5 -76t-63.5 -27z" />
    <glyph glyph-name="uni0201" unicode="&#x201;" horiz-adv-x="499" 
d="M188 -8q-46 0 -79.5 20t-51 48t-17.5 53q0 36 22.5 60.5t69.5 38.5l157 46v36q0 21 -13.5 39.5t-35.5 30.5t-47 12q-16 0 -22.5 -7.5t-8.5 -29.5l-5 -61q-50 -10 -81.5 3.5t-31.5 44.5q0 19 20 39t49.5 37.5t60.5 30t54 14.5q89 0 141 -40.5t53 -108.5l-3 -139
q0 -28 1.5 -44t5.5 -26l66 -12v-42l-65 -28q-18 -7 -33 -11t-29 -4q-39 0 -55 40l-17 46l21 -5q-31 -38 -63.5 -59.5t-62.5 -21.5zM239 82q14 0 27 5.5t24 16.5v98l-68 -13q-25 -3 -35.5 -15t-10.5 -32q0 -23 18.5 -41.5t44.5 -18.5zM283 483l-99 176l91 18l60 -176z
M155 483l-99 176l90 18l61 -176z" />
    <glyph glyph-name="adieresis" unicode="&#xe4;" horiz-adv-x="499" 
d="M188 -8q-46 0 -79.5 20t-51 48t-17.5 53q0 36 22.5 60.5t69.5 38.5l157 46v36q0 21 -13.5 39.5t-35.5 30.5t-47 12q-16 0 -22.5 -7.5t-8.5 -29.5l-5 -61q-50 -10 -81.5 3.5t-31.5 44.5q0 19 20 39t49.5 37.5t60.5 30t54 14.5q89 0 141 -40.5t53 -108.5l-3 -139
q0 -28 1.5 -44t5.5 -26l66 -12v-42l-65 -28q-18 -7 -33 -11t-29 -4q-39 0 -55 40l-17 46l21 -5q-31 -38 -63.5 -59.5t-62.5 -21.5zM239 82q14 0 27 5.5t24 16.5v98l-68 -13q-25 -3 -35.5 -15t-10.5 -32q0 -23 18.5 -41.5t44.5 -18.5zM153 513q-33 0 -51.5 20t-18.5 45
q0 26 18.5 45.5t51.5 19.5q32 0 50 -19.5t18 -45.5q0 -25 -18 -45t-50 -20zM339 513q-33 0 -51.5 20t-18.5 45q0 26 18.5 45.5t51.5 19.5t50.5 -19.5t17.5 -45.5q0 -25 -17.5 -45t-50.5 -20z" />
    <glyph glyph-name="uni0227" unicode="&#x227;" horiz-adv-x="499" 
d="M188 -8q-46 0 -79.5 20t-51 48t-17.5 53q0 36 22.5 60.5t69.5 38.5l157 46v36q0 21 -13.5 39.5t-35.5 30.5t-47 12q-16 0 -22.5 -7.5t-8.5 -29.5l-5 -61q-50 -10 -81.5 3.5t-31.5 44.5q0 19 20 39t49.5 37.5t60.5 30t54 14.5q89 0 141 -40.5t53 -108.5l-3 -139
q0 -28 1.5 -44t5.5 -26l66 -12v-42l-65 -28q-18 -7 -33 -11t-29 -4q-39 0 -55 40l-17 46l21 -5q-31 -38 -63.5 -59.5t-62.5 -21.5zM239 82q14 0 27 5.5t24 16.5v98l-68 -13q-25 -3 -35.5 -15t-10.5 -32q0 -23 18.5 -41.5t44.5 -18.5zM246 506q-36 0 -56 22t-20 50
q0 29 20 50.5t56 21.5t55 -21.5t19 -50.5q0 -28 -19 -50t-55 -22z" />
    <glyph glyph-name="uni1EA1" unicode="&#x1ea1;" horiz-adv-x="499" 
d="M188 -8q-46 0 -79.5 20t-51 48t-17.5 53q0 36 22.5 60.5t69.5 38.5l157 46v36q0 21 -13.5 39.5t-35.5 30.5t-47 12q-16 0 -22.5 -7.5t-8.5 -29.5l-5 -61q-50 -10 -81.5 3.5t-31.5 44.5q0 19 20 39t49.5 37.5t60.5 30t54 14.5q89 0 141 -40.5t53 -108.5l-3 -139
q0 -28 1.5 -44t5.5 -26l66 -12v-42l-65 -28q-18 -7 -33 -11t-29 -4q-39 0 -55 40l-17 46l21 -5q-31 -38 -63.5 -59.5t-62.5 -21.5zM239 82q14 0 27 5.5t24 16.5v98l-68 -13q-25 -3 -35.5 -15t-10.5 -32q0 -23 18.5 -41.5t44.5 -18.5zM252 -211q-36 0 -56 22t-20 50
q0 29 20 50.5t56 21.5t55 -21.5t19 -50.5q0 -28 -19 -50t-55 -22z" />
    <glyph glyph-name="agrave" unicode="&#xe0;" horiz-adv-x="499" 
d="M188 -8q-46 0 -79.5 20t-51 48t-17.5 53q0 36 22.5 60.5t69.5 38.5l157 46v36q0 21 -13.5 39.5t-35.5 30.5t-47 12q-16 0 -22.5 -7.5t-8.5 -29.5l-5 -61q-50 -10 -81.5 3.5t-31.5 44.5q0 19 20 39t49.5 37.5t60.5 30t54 14.5q89 0 141 -40.5t53 -108.5l-3 -139
q0 -28 1.5 -44t5.5 -26l66 -12v-42l-65 -28q-18 -7 -33 -11t-29 -4q-39 0 -55 40l-17 46l21 -5q-31 -38 -63.5 -59.5t-62.5 -21.5zM239 82q14 0 27 5.5t24 16.5v98l-68 -13q-25 -3 -35.5 -15t-10.5 -32q0 -23 18.5 -41.5t44.5 -18.5zM214 483l-158 171l121 23l99 -174z" />
    <glyph glyph-name="uni1EA3" unicode="&#x1ea3;" horiz-adv-x="499" 
d="M188 -8q-46 0 -79.5 20t-51 48t-17.5 53q0 36 22.5 60.5t69.5 38.5l157 46v36q0 21 -13.5 39.5t-35.5 30.5t-47 12q-16 0 -22.5 -7.5t-8.5 -29.5l-5 -61q-50 -10 -81.5 3.5t-31.5 44.5q0 19 20 39t49.5 37.5t60.5 30t54 14.5q89 0 141 -40.5t53 -108.5l-3 -139
q0 -28 1.5 -44t5.5 -26l66 -12v-42l-65 -28q-18 -7 -33 -11t-29 -4q-39 0 -55 40l-17 46l21 -5q-31 -38 -63.5 -59.5t-62.5 -21.5zM239 82q14 0 27 5.5t24 16.5v98l-68 -13q-25 -3 -35.5 -15t-10.5 -32q0 -23 18.5 -41.5t44.5 -18.5zM246 671q50 0 79.5 -18t29.5 -49
q0 -23 -13.5 -37t-30.5 -24.5t-30.5 -21.5t-13.5 -28h-44v17q0 25 11 42t22 31t11 27q0 19 -14.5 23.5t-41.5 -2.5l41 15l-40 -43q-9 -9 -17.5 -13.5t-21.5 -4.5q-14 0 -22.5 7.5t-8.5 19.5q0 24 28 41.5t76 17.5z" />
    <glyph glyph-name="uni0203" unicode="&#x203;" horiz-adv-x="499" 
d="M188 -8q-46 0 -79.5 20t-51 48t-17.5 53q0 36 22.5 60.5t69.5 38.5l157 46v36q0 21 -13.5 39.5t-35.5 30.5t-47 12q-16 0 -22.5 -7.5t-8.5 -29.5l-5 -61q-50 -10 -81.5 3.5t-31.5 44.5q0 19 20 39t49.5 37.5t60.5 30t54 14.5q89 0 141 -40.5t53 -108.5l-3 -139
q0 -28 1.5 -44t5.5 -26l66 -12v-42l-65 -28q-18 -7 -33 -11t-29 -4q-39 0 -55 40l-17 46l21 -5q-31 -38 -63.5 -59.5t-62.5 -21.5zM239 82q14 0 27 5.5t24 16.5v98l-68 -13q-25 -3 -35.5 -15t-10.5 -32q0 -23 18.5 -41.5t44.5 -18.5zM149 483l-60 20q3 51 23.5 88t55.5 57
t79 20q66 0 108 -44.5t46 -120.5l-62 -20q-9 50 -34.5 76.5t-60.5 26.5q-36 0 -62 -26.5t-33 -76.5z" />
    <glyph glyph-name="amacron" unicode="&#x101;" horiz-adv-x="499" 
d="M188 -8q-46 0 -79.5 20t-51 48t-17.5 53q0 36 22.5 60.5t69.5 38.5l157 46v36q0 21 -13.5 39.5t-35.5 30.5t-47 12q-16 0 -22.5 -7.5t-8.5 -29.5l-5 -61q-50 -10 -81.5 3.5t-31.5 44.5q0 19 20 39t49.5 37.5t60.5 30t54 14.5q89 0 141 -40.5t53 -108.5l-3 -139
q0 -28 1.5 -44t5.5 -26l66 -12v-42l-65 -28q-18 -7 -33 -11t-29 -4q-39 0 -55 40l-17 46l21 -5q-31 -38 -63.5 -59.5t-62.5 -21.5zM239 82q14 0 27 5.5t24 16.5v98l-68 -13q-25 -3 -35.5 -15t-10.5 -32q0 -23 18.5 -41.5t44.5 -18.5zM90 614h310v-71h-310v71z" />
    <glyph glyph-name="aogonek" unicode="&#x105;" horiz-adv-x="499" 
d="M397 -223q-36 0 -65.5 13t-47 36t-17.5 52q0 37 35 71t100 61l4 -11q-37 -9 -61 -2t-35 35l-17 46l21 -5q-31 -38 -63.5 -59.5t-62.5 -21.5q-46 0 -79.5 20t-51 48t-17.5 53q0 37 22.5 61t69.5 38l157 46v36q0 22 -13.5 40.5t-35.5 30t-47 11.5q-16 0 -22.5 -7.5
t-8.5 -29.5l-5 -61q-48 -10 -80.5 3t-32.5 45q0 19 20 39t49.5 37.5t61 30t53.5 14.5q89 0 141 -40.5t53 -108.5l-3 -139q-1 -26 1 -43t6 -27l66 -12v-42q-52 -36 -79.5 -62t-38 -46.5t-10.5 -39.5q0 -26 14.5 -41t37.5 -15q17 0 34 9t34 26l28 -39q-22 -24 -51 -37t-64 -13
zM239 82q14 0 27.5 6t23.5 16v98l-68 -13q-25 -3 -35.5 -15t-10.5 -32q0 -23 18.5 -41.5t44.5 -18.5z" />
    <glyph glyph-name="aring" unicode="&#xe5;" horiz-adv-x="499" 
d="M188 -8q-46 0 -79.5 20t-51 48t-17.5 53q0 36 22.5 60.5t69.5 38.5l157 46v36q0 21 -13.5 39.5t-35.5 30.5t-47 12q-16 0 -22.5 -7.5t-8.5 -29.5l-5 -61q-50 -10 -81.5 3.5t-31.5 44.5q0 19 20 39t49.5 37.5t60.5 30t54 14.5q89 0 141 -40.5t53 -108.5l-3 -139
q0 -28 1.5 -44t5.5 -26l66 -12v-42l-65 -28q-18 -7 -33 -11t-29 -4q-39 0 -55 40l-17 46l21 -5q-31 -38 -63.5 -59.5t-62.5 -21.5zM239 82q14 0 27 5.5t24 16.5v98l-68 -13q-25 -3 -35.5 -15t-10.5 -32q0 -23 18.5 -41.5t44.5 -18.5zM246 485q-48 0 -80 30.5t-32 74.5
q0 45 32 75t80 30t79 -29.5t31 -75.5q0 -45 -31 -75t-79 -30zM247 530q25 0 41.5 17t16.5 44t-16.5 44t-41.5 17q-26 0 -43 -17.5t-17 -43.5t17 -43.5t43 -17.5z" />
    <glyph glyph-name="aringacute" unicode="&#x1fb;" horiz-adv-x="499" 
d="M188 -8q-46 0 -79.5 20t-51 48t-17.5 53q0 36 22.5 60.5t69.5 38.5l157 46v36q0 21 -13.5 39.5t-35.5 30.5t-47 12q-16 0 -22.5 -7.5t-8.5 -29.5l-5 -61q-50 -10 -81.5 3.5t-31.5 44.5q0 19 20 39t49.5 37.5t60.5 30t54 14.5q89 0 141 -40.5t53 -108.5l-3 -139
q0 -28 1.5 -44t5.5 -26l66 -12v-42l-65 -28q-18 -7 -33 -11t-29 -4q-39 0 -55 40l-17 46l21 -5q-31 -38 -63.5 -59.5t-62.5 -21.5zM239 82q14 0 27 5.5t24 16.5v98l-68 -13q-25 -3 -35.5 -15t-10.5 -32q0 -23 18.5 -41.5t44.5 -18.5zM246 485q-48 0 -80 30.5t-32 74.5
q0 45 32 75t80 30t79 -29.5t31 -75.5q0 -45 -31 -75t-79 -30zM247 530q25 0 41.5 17t16.5 44t-16.5 44t-41.5 17q-26 0 -43 -17.5t-17 -43.5t17 -43.5t43 -17.5zM326 635l-57 20l70 135l117 -23z" />
    <glyph glyph-name="atilde" unicode="&#xe3;" horiz-adv-x="499" 
d="M188 -8q-46 0 -79.5 20t-51 48t-17.5 53q0 36 22.5 60.5t69.5 38.5l157 46v36q0 21 -13.5 39.5t-35.5 30.5t-47 12q-16 0 -22.5 -7.5t-8.5 -29.5l-5 -61q-50 -10 -81.5 3.5t-31.5 44.5q0 19 20 39t49.5 37.5t60.5 30t54 14.5q89 0 141 -40.5t53 -108.5l-3 -139
q0 -28 1.5 -44t5.5 -26l66 -12v-42l-65 -28q-18 -7 -33 -11t-29 -4q-39 0 -55 40l-17 46l21 -5q-31 -38 -63.5 -59.5t-62.5 -21.5zM239 82q14 0 27 5.5t24 16.5v98l-68 -13q-25 -3 -35.5 -15t-10.5 -32q0 -23 18.5 -41.5t44.5 -18.5zM388 647l43 -25q-15 -53 -45.5 -83.5
t-70.5 -30.5q-24 0 -52 12t-53.5 24.5t-46.5 12.5q-19 0 -33 -12t-28 -35l-43 25q16 54 46 84t70 30q25 0 52.5 -12.5t53.5 -24.5t45 -12q20 0 34 12t28 35z" />
    <glyph glyph-name="ae" unicode="&#xe6;" horiz-adv-x="726" 
d="M208 -8q-52 0 -89.5 19.5t-57.5 48t-20 53.5q0 45 33.5 74t110.5 40l411 61l-20 -33v34q0 49 -18.5 76t-50.5 27q-23 0 -41 -13.5t-28.5 -41.5t-10.5 -71v-23q0 -70 35.5 -113t95.5 -43q32 0 58.5 13t50.5 43l32 -29q-27 -60 -76 -91t-111 -31t-111 29t-77 78.5
t-28 111.5v57q0 35 -14 59t-36.5 36.5t-47.5 12.5q-16 0 -23 -7.5t-9 -29.5l-4 -61q-50 -10 -81.5 3.5t-31.5 44.5q0 19 19.5 39t49 37.5t60.5 30t53 14.5q64 0 111 -22t69 -66h-45q26 41 66 64.5t90 23.5q80 0 125.5 -54.5t45.5 -140.5l-464 -71q-28 -4 -40 -15t-12 -29
q0 -24 22.5 -39.5t48.5 -15.5q25 0 43.5 12t40.5 37l31 -43q-33 -36 -60.5 -57t-51 -30t-43.5 -9z" />
    <glyph glyph-name="aeacute" unicode="&#x1fd;" horiz-adv-x="726" 
d="M208 -8q-52 0 -89.5 19.5t-57.5 48t-20 53.5q0 45 33.5 74t110.5 40l411 61l-20 -33v34q0 49 -18.5 76t-50.5 27q-23 0 -41 -13.5t-28.5 -41.5t-10.5 -71v-23q0 -70 35.5 -113t95.5 -43q32 0 58.5 13t50.5 43l32 -29q-27 -60 -76 -91t-111 -31t-111 29t-77 78.5
t-28 111.5v57q0 35 -14 59t-36.5 36.5t-47.5 12.5q-16 0 -23 -7.5t-9 -29.5l-4 -61q-50 -10 -81.5 3.5t-31.5 44.5q0 19 19.5 39t49 37.5t60.5 30t53 14.5q64 0 111 -22t69 -66h-45q26 41 66 64.5t90 23.5q80 0 125.5 -54.5t45.5 -140.5l-464 -71q-28 -4 -40 -15t-12 -29
q0 -24 22.5 -39.5t48.5 -15.5q25 0 43.5 12t40.5 37l31 -43q-33 -36 -60.5 -57t-51 -30t-43.5 -9zM390 483l-58 20l99 174l117 -23z" />
    <glyph glyph-name="b" unicode="b" horiz-adv-x="557" 
d="M68 29q2 33 2.5 67.5t1 71t0.5 71.5v122q0 46 -0.5 84.5t-1.5 68t-1.5 50.5t-1.5 32l-74 9l-2 43l189 49l28 -17q-3 -41 -4.5 -81.5t-3 -93.5t-3.5 -132l3 -1q21 30 58 52.5t78 22.5q50 0 92.5 -24.5t68.5 -70t26 -109.5q0 -69 -33 -126t-94 -91t-144 -34
q-48 0 -93.5 9.5t-90.5 27.5zM277 66q46 0 76.5 35t31.5 113q0 73 -32.5 105.5t-74.5 32.5q-23 0 -43 -9t-35 -25v-226q15 -12 35 -19t42 -7z" />
    <glyph glyph-name="c" unicode="c" horiz-adv-x="459" 
d="M259 -8q-63 0 -113.5 27.5t-81 77t-30.5 112.5t32 117.5t88 87.5t129 33q44 0 79 -11.5t56 -32.5t21 -47q0 -25 -15.5 -37.5t-37.5 -12.5q-19 0 -33.5 7t-33.5 23l-73 64l51 -12q-29 7 -57.5 -8t-46.5 -49.5t-18 -86.5q0 -77 37.5 -116t92.5 -39q28 0 55.5 12.5
t53.5 43.5l32 -29q-28 -61 -78.5 -92.5t-108.5 -31.5z" />
    <glyph glyph-name="cacute" unicode="&#x107;" horiz-adv-x="459" 
d="M259 -8q-63 0 -113.5 27.5t-81 77t-30.5 112.5t32 117.5t88 87.5t129 33q44 0 79 -11.5t56 -32.5t21 -47q0 -25 -15.5 -37.5t-37.5 -12.5q-19 0 -33.5 7t-33.5 23l-73 64l51 -12q-29 7 -57.5 -8t-46.5 -49.5t-18 -86.5q0 -77 37.5 -116t92.5 -39q28 0 55.5 12.5
t53.5 43.5l32 -29q-28 -61 -78.5 -92.5t-108.5 -31.5zM289 483l-58 20l99 174l117 -23z" />
    <glyph glyph-name="ccaron" unicode="&#x10d;" horiz-adv-x="459" 
d="M259 -8q-63 0 -113.5 27.5t-81 77t-30.5 112.5t32 117.5t88 87.5t129 33q44 0 79 -11.5t56 -32.5t21 -47q0 -25 -15.5 -37.5t-37.5 -12.5q-19 0 -33.5 7t-33.5 23l-73 64l51 -12q-29 7 -57.5 -8t-46.5 -49.5t-18 -86.5q0 -77 37.5 -116t92.5 -39q28 0 55.5 12.5
t53.5 43.5l32 -29q-28 -61 -78.5 -92.5t-108.5 -31.5zM420 657l-107 -163h-106l-107 163l58 20l135 -140h-66l135 140z" />
    <glyph glyph-name="ccedilla" unicode="&#xe7;" horiz-adv-x="459" 
d="M259 -8q-63 0 -113.5 27.5t-81 77t-30.5 112.5t32 117.5t88 87.5t129 33q44 0 79 -11.5t56 -32.5t21 -47q0 -25 -15.5 -37.5t-37.5 -12.5q-19 0 -33.5 7t-33.5 23l-73 64l51 -12q-29 7 -57.5 -8t-46.5 -49.5t-18 -86.5q0 -77 37.5 -116t92.5 -39q28 0 55.5 12.5
t53.5 43.5l32 -29q-28 -61 -78.5 -92.5t-108.5 -31.5zM244 -223q-26 0 -51.5 7t-47.5 20l22 43q17 -10 36.5 -17t38.5 -7q23 0 35 10.5t12 25.5q0 20 -20.5 30.5t-55.5 7.5l-17 19l58 96h59l-62 -79l3 26q51 0 85 -22t34 -62q0 -42 -37.5 -70t-91.5 -28z" />
    <glyph glyph-name="uni1E09" unicode="&#x1e09;" horiz-adv-x="459" 
d="M259 -8q-63 0 -113.5 27.5t-81 77t-30.5 112.5t32 117.5t88 87.5t129 33q44 0 79 -11.5t56 -32.5t21 -47q0 -25 -15.5 -37.5t-37.5 -12.5q-19 0 -33.5 7t-33.5 23l-73 64l51 -12q-29 7 -57.5 -8t-46.5 -49.5t-18 -86.5q0 -77 37.5 -116t92.5 -39q28 0 55.5 12.5
t53.5 43.5l32 -29q-28 -61 -78.5 -92.5t-108.5 -31.5zM244 -223q-26 0 -51.5 7t-47.5 20l22 43q17 -10 36.5 -17t38.5 -7q23 0 35 10.5t12 25.5q0 20 -20.5 30.5t-55.5 7.5l-17 19l58 96h59l-62 -79l3 26q51 0 85 -22t34 -62q0 -42 -37.5 -70t-91.5 -28zM289 483l-58 20
l99 174l117 -23z" />
    <glyph glyph-name="ccircumflex" unicode="&#x109;" horiz-adv-x="459" 
d="M259 -8q-63 0 -113.5 27.5t-81 77t-30.5 112.5t32 117.5t88 87.5t129 33q44 0 79 -11.5t56 -32.5t21 -47q0 -25 -15.5 -37.5t-37.5 -12.5q-19 0 -33.5 7t-33.5 23l-73 64l51 -12q-29 7 -57.5 -8t-46.5 -49.5t-18 -86.5q0 -77 37.5 -116t92.5 -39q28 0 55.5 12.5
t53.5 43.5l32 -29q-28 -61 -78.5 -92.5t-108.5 -31.5zM420 503l-58 -20l-135 139h66l-135 -139l-58 20l107 163h106z" />
    <glyph glyph-name="cdotaccent" unicode="&#x10b;" horiz-adv-x="459" 
d="M259 -8q-63 0 -113.5 27.5t-81 77t-30.5 112.5t32 117.5t88 87.5t129 33q44 0 79 -11.5t56 -32.5t21 -47q0 -25 -15.5 -37.5t-37.5 -12.5q-19 0 -33.5 7t-33.5 23l-73 64l51 -12q-29 7 -57.5 -8t-46.5 -49.5t-18 -86.5q0 -77 37.5 -116t92.5 -39q28 0 55.5 12.5
t53.5 43.5l32 -29q-28 -61 -78.5 -92.5t-108.5 -31.5zM261 506q-36 0 -56 22t-20 50q0 29 20 50.5t56 21.5t55 -21.5t19 -50.5q0 -28 -19 -50t-55 -22z" />
    <glyph glyph-name="d" unicode="d" horiz-adv-x="560" 
d="M380 -13l-27 15l1 65l-3 1q-25 -43 -56 -60.5t-64 -17.5q-53 0 -98 27t-72 75.5t-27 112.5q0 56 21 100.5t56 76t78 48t88 16.5q19 0 39 -3.5t33 -10.5q0 19 -0.5 42.5l-1 47t-1 43t-1.5 29.5l-74 11l-2 43l189 49l28 -17q-3 -62 -6 -114.5t-3 -110.5l-1 -232
q0 -49 3 -80t5 -53l66 -14v-43zM279 86q16 0 36.5 10t35.5 33v223q-14 19 -33 26.5t-38 7.5q-47 0 -77.5 -39t-30.5 -107q0 -74 31.5 -114t75.5 -40z" />
    <glyph glyph-name="eth" unicode="&#xf0;" horiz-adv-x="524" 
d="M388 367q-21 9 -44 13.5t-47 4.5q-58 0 -90.5 -40t-32.5 -113q0 -60 16 -99t41 -57.5t52 -18.5q35 0 53.5 39.5t18.5 131.5q0 110 -33 193t-102 138.5t-179 84.5l2 44h149q65 -17 119.5 -57t94 -97t61 -123.5t21.5 -136.5q0 -137 -61 -209.5t-161 -72.5
q-65 0 -117.5 28.5t-83.5 79t-31 117.5q0 73 33.5 124t93 78t137.5 27q24 0 54 -5t57 -13zM87 479l-26 55l356 164l26 -55z" />
    <glyph glyph-name="dcaron" unicode="&#x10f;" horiz-adv-x="560" 
d="M380 -13l-27 15l1 65l-3 1q-25 -43 -56 -60.5t-64 -17.5q-53 0 -98 27t-72 75.5t-27 112.5q0 56 21 100.5t56 76t78 48t88 16.5q19 0 39 -3.5t33 -10.5q0 19 -0.5 42.5l-1 47t-1 43t-1.5 29.5l-74 11l-2 43l189 49l28 -17q-3 -62 -6 -114.5t-3 -110.5l-1 -232
q0 -49 3 -80t5 -53l66 -14v-43zM279 86q16 0 36.5 10t35.5 33v223q-14 19 -33 26.5t-38 7.5q-47 0 -77.5 -39t-30.5 -107q0 -74 31.5 -114t75.5 -40zM541 461l-22 32q32 18 45 34.5t13 30.5q0 13 -9 19t-21 12t-21 17t-9 34q0 22 18.5 37.5t46.5 15.5q20 0 38.5 -8t30 -24.5
t11.5 -42.5q0 -28 -15 -57.5t-42.5 -55.5t-63.5 -44z" />
    <glyph glyph-name="dcroat" unicode="&#x111;" horiz-adv-x="560" 
d="M380 -13l-27 15l1 65l-3 1q-25 -43 -56 -60.5t-64 -17.5q-53 0 -98 27t-72 75.5t-27 112.5q0 56 21 100.5t56 76t78 48t88 16.5q19 0 39 -3.5t33 -10.5q0 19 -0.5 42.5l-1 47t-1 43t-1.5 29.5l-74 11l-2 43l189 49l28 -17q-3 -62 -6 -114.5t-3 -110.5l-1 -232
q0 -49 3 -80t5 -53l66 -14v-43zM279 86q16 0 36.5 10t35.5 33v223q-14 19 -33 26.5t-38 7.5q-47 0 -77.5 -39t-30.5 -107q0 -74 31.5 -114t75.5 -40zM167 492v52h384v-52h-384z" />
    <glyph glyph-name="uni1E0D" unicode="&#x1e0d;" horiz-adv-x="560" 
d="M380 -13l-27 15l1 65l-3 1q-25 -43 -56 -60.5t-64 -17.5q-53 0 -98 27t-72 75.5t-27 112.5q0 56 21 100.5t56 76t78 48t88 16.5q19 0 39 -3.5t33 -10.5q0 19 -0.5 42.5l-1 47t-1 43t-1.5 29.5l-74 11l-2 43l189 49l28 -17q-3 -62 -6 -114.5t-3 -110.5l-1 -232
q0 -49 3 -80t5 -53l66 -14v-43zM279 86q16 0 36.5 10t35.5 33v223q-14 19 -33 26.5t-38 7.5q-47 0 -77.5 -39t-30.5 -107q0 -74 31.5 -114t75.5 -40zM299 -211q-36 0 -56 22t-20 50q0 29 20 50.5t56 21.5t55 -21.5t19 -50.5q0 -28 -19 -50t-55 -22z" />
    <glyph glyph-name="uni1E0F" unicode="&#x1e0f;" horiz-adv-x="560" 
d="M380 -13l-27 15l1 65l-3 1q-25 -43 -56 -60.5t-64 -17.5q-53 0 -98 27t-72 75.5t-27 112.5q0 56 21 100.5t56 76t78 48t88 16.5q19 0 39 -3.5t33 -10.5q0 19 -0.5 42.5l-1 47t-1 43t-1.5 29.5l-74 11l-2 43l189 49l28 -17q-3 -62 -6 -114.5t-3 -110.5l-1 -232
q0 -49 3 -80t5 -53l66 -14v-43zM279 86q16 0 36.5 10t35.5 33v223q-14 19 -33 26.5t-38 7.5q-47 0 -77.5 -39t-30.5 -107q0 -74 31.5 -114t75.5 -40zM143 -104h310v-71h-310v71z" />
    <glyph glyph-name="uni01C6" unicode="&#x1c6;" horiz-adv-x="1030" 
d="M380 -13l-27 15l1 65l-3 1q-25 -43 -56 -60.5t-64 -17.5q-53 0 -98 27t-72 75.5t-27 112.5q0 56 21 100.5t56 76t78 48t88 16.5q19 0 39 -3.5t33 -10.5q0 19 -0.5 42.5l-1 47t-1 43t-1.5 29.5l-74 11l-2 43l189 49l28 -17q-3 -62 -6 -114.5t-3 -110.5l-1 -232
q0 -49 3 -80t5 -53l66 -14v-43zM279 86q16 0 36.5 10t35.5 33v223q-14 19 -33 26.5t-38 7.5q-47 0 -77.5 -39t-30.5 -107q0 -74 31.5 -114t75.5 -40zM743 18l-6 42h117q19 0 36.5 1.5t33.5 2.5l26 88h65l-19 -154q-26 2 -55.5 2h-50.5h-195q-21 0 -43 -0.5t-44 -2.5v47
l249 377v-40h-103q-27 0 -45.5 -1t-34.5 -3l-14 -84h-62l-3 148q27 -1 56 -1.5t49 -0.5h198q21 0 43.5 0.5t44.5 1.5v-47zM957 657l-107 -163h-106l-107 163l58 20l135 -140h-66l135 140z" />
    <glyph glyph-name="e" unicode="e" horiz-adv-x="476" 
d="M258 -8q-65 0 -115.5 29t-79 79t-28.5 113q0 70 32 122.5t83.5 82.5t110.5 29q88 0 136 -54.5t48 -141.5v-24h-294v52h196l-15 -24v34q0 47 -21 75t-58 28q-25 0 -45 -14t-31.5 -42.5t-11.5 -71.5v-21q0 -70 37.5 -113t100.5 -43q34 0 62 12.5t54 42.5l31 -28
q-28 -60 -79 -91t-113 -31z" />
    <glyph glyph-name="eacute" unicode="&#xe9;" horiz-adv-x="476" 
d="M258 -8q-65 0 -115.5 29t-79 79t-28.5 113q0 70 32 122.5t83.5 82.5t110.5 29q88 0 136 -54.5t48 -141.5v-24h-294v52h196l-15 -24v34q0 47 -21 75t-58 28q-25 0 -45 -14t-31.5 -42.5t-11.5 -71.5v-21q0 -70 37.5 -113t100.5 -43q34 0 62 12.5t54 42.5l31 -28
q-28 -60 -79 -91t-113 -31zM282 483l-58 20l99 174l117 -23z" />
    <glyph glyph-name="ebreve" unicode="&#x115;" horiz-adv-x="476" 
d="M258 -8q-65 0 -115.5 29t-79 79t-28.5 113q0 70 32 122.5t83.5 82.5t110.5 29q88 0 136 -54.5t48 -141.5v-24h-294v52h196l-15 -24v34q0 47 -21 75t-58 28q-25 0 -45 -14t-31.5 -42.5t-11.5 -71.5v-21q0 -70 37.5 -113t100.5 -43q34 0 62 12.5t54 42.5l31 -28
q-28 -60 -79 -91t-113 -31zM351 677l58 -20q-4 -76 -46.5 -121t-108.5 -45q-44 0 -78.5 20.5t-55 58t-23.5 87.5l64 20q9 -50 34 -76.5t61 -26.5q37 0 62.5 26.5t32.5 76.5z" />
    <glyph glyph-name="ecaron" unicode="&#x11b;" horiz-adv-x="476" 
d="M258 -8q-65 0 -115.5 29t-79 79t-28.5 113q0 70 32 122.5t83.5 82.5t110.5 29q88 0 136 -54.5t48 -141.5v-24h-294v52h196l-15 -24v34q0 47 -21 75t-58 28q-25 0 -45 -14t-31.5 -42.5t-11.5 -71.5v-21q0 -70 37.5 -113t100.5 -43q34 0 62 12.5t54 42.5l31 -28
q-28 -60 -79 -91t-113 -31zM413 657l-107 -163h-106l-107 163l58 20l135 -140h-66l135 140z" />
    <glyph glyph-name="uni1E1D" unicode="&#x1e1d;" horiz-adv-x="476" 
d="M258 -8q-65 0 -115.5 29t-79 79t-28.5 113q0 70 32 122.5t83.5 82.5t110.5 29q88 0 136 -54.5t48 -141.5v-24h-294v52h196l-15 -24v34q0 47 -21 75t-58 28q-25 0 -45 -14t-31.5 -42.5t-11.5 -71.5v-21q0 -70 37.5 -113t100.5 -43q34 0 62 12.5t54 42.5l31 -28
q-28 -60 -79 -91t-113 -31zM237 -223q-26 0 -51.5 7t-47.5 20l22 43q17 -10 36.5 -17t38.5 -7q23 0 35 10.5t12 25.5q0 20 -20.5 30.5t-55.5 7.5l-17 19l58 96h59l-62 -79l3 26q51 0 85 -22t34 -62q0 -42 -37.5 -70t-91.5 -28zM351 677l58 -20q-4 -76 -46.5 -121t-108.5 -45
q-44 0 -78.5 20.5t-55 58t-23.5 87.5l64 20q9 -50 34 -76.5t61 -26.5q37 0 62.5 26.5t32.5 76.5z" />
    <glyph glyph-name="ecircumflex" unicode="&#xea;" horiz-adv-x="476" 
d="M258 -8q-65 0 -115.5 29t-79 79t-28.5 113q0 70 32 122.5t83.5 82.5t110.5 29q88 0 136 -54.5t48 -141.5v-24h-294v52h196l-15 -24v34q0 47 -21 75t-58 28q-25 0 -45 -14t-31.5 -42.5t-11.5 -71.5v-21q0 -70 37.5 -113t100.5 -43q34 0 62 12.5t54 42.5l31 -28
q-28 -60 -79 -91t-113 -31zM413 503l-58 -20l-135 139h66l-135 -139l-58 20l107 163h106z" />
    <glyph glyph-name="uni1EBF" unicode="&#x1ebf;" horiz-adv-x="476" 
d="M258 -8q-65 0 -115.5 29t-79 79t-28.5 113q0 70 32 122.5t83.5 82.5t110.5 29q88 0 136 -54.5t48 -141.5v-24h-294v52h196l-15 -24v34q0 47 -21 75t-58 28q-25 0 -45 -14t-31.5 -42.5t-11.5 -71.5v-21q0 -70 37.5 -113t100.5 -43q34 0 62 12.5t54 42.5l31 -28
q-28 -60 -79 -91t-113 -31zM413 503l-58 -20l-135 139h66l-135 -139l-58 20l107 163h106zM404 635l-58 20l70 135l117 -23z" />
    <glyph glyph-name="uni1EC7" unicode="&#x1ec7;" horiz-adv-x="476" 
d="M258 -8q-65 0 -115.5 29t-79 79t-28.5 113q0 70 32 122.5t83.5 82.5t110.5 29q88 0 136 -54.5t48 -141.5v-24h-294v52h196l-15 -24v34q0 47 -21 75t-58 28q-25 0 -45 -14t-31.5 -42.5t-11.5 -71.5v-21q0 -70 37.5 -113t100.5 -43q34 0 62 12.5t54 42.5l31 -28
q-28 -60 -79 -91t-113 -31zM254 -211q-36 0 -56 22t-20 50q0 29 20 50.5t56 21.5t55 -21.5t19 -50.5q0 -28 -19 -50t-55 -22zM413 503l-58 -20l-135 139h66l-135 -139l-58 20l107 163h106z" />
    <glyph glyph-name="uni1EC1" unicode="&#x1ec1;" horiz-adv-x="476" 
d="M258 -8q-65 0 -115.5 29t-79 79t-28.5 113q0 70 32 122.5t83.5 82.5t110.5 29q88 0 136 -54.5t48 -141.5v-24h-294v52h196l-15 -24v34q0 47 -21 75t-58 28q-25 0 -45 -14t-31.5 -42.5t-11.5 -71.5v-21q0 -70 37.5 -113t100.5 -43q34 0 62 12.5t54 42.5l31 -28
q-28 -60 -79 -91t-113 -31zM413 503l-58 -20l-135 139h66l-135 -139l-58 20l107 163h106zM398 635l-129 132l121 23l70 -135z" />
    <glyph glyph-name="uni1EC3" unicode="&#x1ec3;" horiz-adv-x="476" 
d="M258 -8q-65 0 -115.5 29t-79 79t-28.5 113q0 70 32 122.5t83.5 82.5t110.5 29q88 0 136 -54.5t48 -141.5v-24h-294v52h196l-15 -24v34q0 47 -21 75t-58 28q-25 0 -45 -14t-31.5 -42.5t-11.5 -71.5v-21q0 -70 37.5 -113t100.5 -43q34 0 62 12.5t54 42.5l31 -28
q-28 -60 -79 -91t-113 -31zM413 503l-58 -20l-135 139h66l-135 -139l-58 20l107 163h106zM397 790q50 0 79.5 -18t29.5 -48q0 -24 -13 -38t-30.5 -24t-31 -21t-13.5 -29h-44v17q0 25 11 42t22 31t11 27q0 19 -14.5 23.5t-41.5 -2.5l41 15l-40 -42q-9 -10 -18 -14.5t-21 -4.5
q-14 0 -22.5 7.5t-8.5 20.5q0 23 28.5 40.5t75.5 17.5z" />
    <glyph glyph-name="uni1EC5" unicode="&#x1ec5;" horiz-adv-x="476" 
d="M258 -8q-65 0 -115.5 29t-79 79t-28.5 113q0 70 32 122.5t83.5 82.5t110.5 29q88 0 136 -54.5t48 -141.5v-24h-294v52h196l-15 -24v34q0 47 -21 75t-58 28q-25 0 -45 -14t-31.5 -42.5t-11.5 -71.5v-21q0 -70 37.5 -113t100.5 -43q34 0 62 12.5t54 42.5l31 -28
q-28 -60 -79 -91t-113 -31zM151 483l-58 20l107 132h106l107 -132l-58 -20l-135 112h66zM316 663q-22 0 -47 11t-48.5 22t-41.5 11q-17 0 -29.5 -10t-25.5 -33l-38 23q14 49 41 76t63 27q22 0 47 -11t48.5 -22t40.5 -11t30 10.5t26 32.5l38 -23q-13 -49 -40.5 -76t-63.5 -27
z" />
    <glyph glyph-name="uni0205" unicode="&#x205;" horiz-adv-x="476" 
d="M258 -8q-65 0 -115.5 29t-79 79t-28.5 113q0 70 32 122.5t83.5 82.5t110.5 29q88 0 136 -54.5t48 -141.5v-24h-294v52h196l-15 -24v34q0 47 -21 75t-58 28q-25 0 -45 -14t-31.5 -42.5t-11.5 -71.5v-21q0 -70 37.5 -113t100.5 -43q34 0 62 12.5t54 42.5l31 -28
q-28 -60 -79 -91t-113 -31zM291 483l-99 176l91 18l60 -176zM163 483l-99 176l90 18l61 -176z" />
    <glyph glyph-name="edieresis" unicode="&#xeb;" horiz-adv-x="476" 
d="M258 -8q-65 0 -115.5 29t-79 79t-28.5 113q0 70 32 122.5t83.5 82.5t110.5 29q88 0 136 -54.5t48 -141.5v-24h-294v52h196l-15 -24v34q0 47 -21 75t-58 28q-25 0 -45 -14t-31.5 -42.5t-11.5 -71.5v-21q0 -70 37.5 -113t100.5 -43q34 0 62 12.5t54 42.5l31 -28
q-28 -60 -79 -91t-113 -31zM161 513q-33 0 -51.5 20t-18.5 45q0 26 18.5 45.5t51.5 19.5q32 0 50 -19.5t18 -45.5q0 -25 -18 -45t-50 -20zM347 513q-33 0 -51.5 20t-18.5 45q0 26 18.5 45.5t51.5 19.5t50.5 -19.5t17.5 -45.5q0 -25 -17.5 -45t-50.5 -20z" />
    <glyph glyph-name="edotaccent" unicode="&#x117;" horiz-adv-x="476" 
d="M258 -8q-65 0 -115.5 29t-79 79t-28.5 113q0 70 32 122.5t83.5 82.5t110.5 29q88 0 136 -54.5t48 -141.5v-24h-294v52h196l-15 -24v34q0 47 -21 75t-58 28q-25 0 -45 -14t-31.5 -42.5t-11.5 -71.5v-21q0 -70 37.5 -113t100.5 -43q34 0 62 12.5t54 42.5l31 -28
q-28 -60 -79 -91t-113 -31zM254 506q-36 0 -56 22t-20 50q0 29 20 50.5t56 21.5t55 -21.5t19 -50.5q0 -28 -19 -50t-55 -22z" />
    <glyph glyph-name="uni1EB9" unicode="&#x1eb9;" horiz-adv-x="476" 
d="M258 -8q-65 0 -115.5 29t-79 79t-28.5 113q0 70 32 122.5t83.5 82.5t110.5 29q88 0 136 -54.5t48 -141.5v-24h-294v52h196l-15 -24v34q0 47 -21 75t-58 28q-25 0 -45 -14t-31.5 -42.5t-11.5 -71.5v-21q0 -70 37.5 -113t100.5 -43q34 0 62 12.5t54 42.5l31 -28
q-28 -60 -79 -91t-113 -31zM254 -211q-36 0 -56 22t-20 50q0 29 20 50.5t56 21.5t55 -21.5t19 -50.5q0 -28 -19 -50t-55 -22z" />
    <glyph glyph-name="egrave" unicode="&#xe8;" horiz-adv-x="476" 
d="M258 -8q-65 0 -115.5 29t-79 79t-28.5 113q0 70 32 122.5t83.5 82.5t110.5 29q88 0 136 -54.5t48 -141.5v-24h-294v52h196l-15 -24v34q0 47 -21 75t-58 28q-25 0 -45 -14t-31.5 -42.5t-11.5 -71.5v-21q0 -70 37.5 -113t100.5 -43q34 0 62 12.5t54 42.5l31 -28
q-28 -60 -79 -91t-113 -31zM222 483l-158 171l121 23l99 -174z" />
    <glyph glyph-name="uni1EBB" unicode="&#x1ebb;" horiz-adv-x="476" 
d="M258 -8q-65 0 -115.5 29t-79 79t-28.5 113q0 70 32 122.5t83.5 82.5t110.5 29q88 0 136 -54.5t48 -141.5v-24h-294v52h196l-15 -24v34q0 47 -21 75t-58 28q-25 0 -45 -14t-31.5 -42.5t-11.5 -71.5v-21q0 -70 37.5 -113t100.5 -43q34 0 62 12.5t54 42.5l31 -28
q-28 -60 -79 -91t-113 -31zM254 671q50 0 79.5 -18t29.5 -49q0 -23 -13.5 -37t-30.5 -24.5t-30.5 -21.5t-13.5 -28h-44v17q0 25 11 42t22 31t11 27q0 19 -14.5 23.5t-41.5 -2.5l41 15l-40 -43q-9 -9 -17.5 -13.5t-21.5 -4.5q-14 0 -22.5 7.5t-8.5 19.5q0 24 28 41.5t76 17.5
z" />
    <glyph glyph-name="uni0207" unicode="&#x207;" horiz-adv-x="476" 
d="M258 -8q-65 0 -115.5 29t-79 79t-28.5 113q0 70 32 122.5t83.5 82.5t110.5 29q88 0 136 -54.5t48 -141.5v-24h-294v52h196l-15 -24v34q0 47 -21 75t-58 28q-25 0 -45 -14t-31.5 -42.5t-11.5 -71.5v-21q0 -70 37.5 -113t100.5 -43q34 0 62 12.5t54 42.5l31 -28
q-28 -60 -79 -91t-113 -31zM157 483l-60 20q3 51 23.5 88t55.5 57t79 20q66 0 108 -44.5t46 -120.5l-62 -20q-9 50 -34.5 76.5t-60.5 26.5q-36 0 -62 -26.5t-33 -76.5z" />
    <glyph glyph-name="emacron" unicode="&#x113;" horiz-adv-x="476" 
d="M258 -8q-65 0 -115.5 29t-79 79t-28.5 113q0 70 32 122.5t83.5 82.5t110.5 29q88 0 136 -54.5t48 -141.5v-24h-294v52h196l-15 -24v34q0 47 -21 75t-58 28q-25 0 -45 -14t-31.5 -42.5t-11.5 -71.5v-21q0 -70 37.5 -113t100.5 -43q34 0 62 12.5t54 42.5l31 -28
q-28 -60 -79 -91t-113 -31zM98 614h310v-71h-310v71z" />
    <glyph glyph-name="uni1E17" unicode="&#x1e17;" horiz-adv-x="476" 
d="M258 -8q-65 0 -115.5 29t-79 79t-28.5 113q0 70 32 122.5t83.5 82.5t110.5 29q88 0 136 -54.5t48 -141.5v-24h-294v52h196l-15 -24v34q0 47 -21 75t-58 28q-25 0 -45 -14t-31.5 -42.5t-11.5 -71.5v-21q0 -70 37.5 -113t100.5 -43q34 0 62 12.5t54 42.5l31 -28
q-28 -60 -79 -91t-113 -31zM98 605h310v-71h-310v71zM282 635l-58 20l70 135l117 -23z" />
    <glyph glyph-name="uni1E15" unicode="&#x1e15;" horiz-adv-x="476" 
d="M258 -8q-65 0 -115.5 29t-79 79t-28.5 113q0 70 32 122.5t83.5 82.5t110.5 29q88 0 136 -54.5t48 -141.5v-24h-294v52h196l-15 -24v34q0 47 -21 75t-58 28q-25 0 -45 -14t-31.5 -42.5t-11.5 -71.5v-21q0 -70 37.5 -113t100.5 -43q34 0 62 12.5t54 42.5l31 -28
q-28 -60 -79 -91t-113 -31zM408 605v-71h-310v71h310zM224 635l-129 132l117 23l70 -135z" />
    <glyph glyph-name="eogonek" unicode="&#x119;" horiz-adv-x="476" 
d="M424 -134l27 -39q-22 -24 -50.5 -37t-64.5 -13q-35 0 -64.5 13t-46.5 36t-17 52q0 33 27.5 67.5t94.5 70.5v-11q-27 -10 -43 -11.5t-29 -1.5q-65 0 -115.5 29t-79 79t-28.5 113q0 70 32 122.5t83.5 82.5t110.5 29q88 0 136 -54.5t48 -141.5v-24h-294v52h196l-15 -24v34
q0 47 -21 75t-58 28q-25 0 -45 -14t-31.5 -42.5t-11.5 -71.5v-21q0 -70 37.5 -113t100.5 -43q34 0 62 12.5t54 42.5l31 -28q-8 -18 -21.5 -36t-28.5 -34q-51 -55 -74 -88.5t-23 -67.5q0 -27 15 -42t37 -15q16 0 33 9t36 26z" />
    <glyph glyph-name="uni1EBD" unicode="&#x1ebd;" horiz-adv-x="476" 
d="M258 -8q-65 0 -115.5 29t-79 79t-28.5 113q0 70 32 122.5t83.5 82.5t110.5 29q88 0 136 -54.5t48 -141.5v-24h-294v52h196l-15 -24v34q0 47 -21 75t-58 28q-25 0 -45 -14t-31.5 -42.5t-11.5 -71.5v-21q0 -70 37.5 -113t100.5 -43q34 0 62 12.5t54 42.5l31 -28
q-28 -60 -79 -91t-113 -31zM396 647l43 -25q-15 -53 -45.5 -83.5t-70.5 -30.5q-24 0 -52 12t-53.5 24.5t-46.5 12.5q-19 0 -33 -12t-28 -35l-43 25q16 54 46 84t70 30q25 0 52.5 -12.5t53.5 -24.5t45 -12q20 0 34 12t28 35z" />
    <glyph glyph-name="uni0259" unicode="&#x259;" horiz-adv-x="481" 
d="M229 447q63 0 111.5 -28.5t77 -78.5t28.5 -113q0 -70 -29 -123t-77.5 -82.5t-107.5 -29.5q-92 0 -146.5 53.5t-54.5 143.5v24h296v-53h-194l17 25v-34q0 -50 23 -77t63 -27q38 0 59.5 34t21.5 94v21q0 71 -36.5 114t-97.5 43q-40 0 -70 -13t-56 -44l-31 28q29 59 80.5 91
t122.5 32z" />
    <glyph glyph-name="f" unicode="f" horiz-adv-x="329" 
d="M298 0h-275l-3 46l62 17q1 17 1.5 32.5t0.5 34.5v47.5v73.5l-1 124v94q0 66 25 118t68 81.5t98 29.5q50 0 82.5 -20.5t32.5 -53.5q0 -21 -12.5 -32t-34.5 -11q-28 0 -58 25l-57 53l43 -6q-29 0 -44.5 -35.5t-15.5 -103.5v-76l2 -63l1 -122q0 -50 2 -102t4 -88l82 -17z
M11 374v46l72 20l59 -3h175v-63h-306z" />
    <glyph glyph-name="g" unicode="g" horiz-adv-x="518" 
d="M242 -228q-106 0 -165.5 29t-59.5 80q0 33 35.5 61.5t96.5 45.5l43 -4q-24 -17 -38 -39t-14 -46q0 -34 28.5 -52.5t83.5 -18.5q54 0 90 23.5t36 58.5q0 25 -18 37.5t-62 16.5l-127 11l-9 5q-51 0 -79 19.5t-28 50.5q0 32 31.5 59.5t86.5 43.5l16 -17q-11 -7 -18 -15.5
t-7 -16.5q0 -12 7.5 -18t21.5 -8l155 -15q74 -7 110 -39t36 -84q0 -47 -32.5 -85t-90 -60.5t-129.5 -22.5zM246 118q-60 0 -105.5 20.5t-70.5 57t-25 84.5q0 49 27 87t73.5 60t104.5 22q57 0 101.5 -22.5t70.5 -60.5t26 -86q0 -47 -26 -83.5t-71 -57.5t-105 -21zM254 176
q31 0 49 27.5t18 74.5q0 51 -19.5 82t-52.5 31q-30 0 -49 -29t-19 -77q0 -49 20 -79t53 -30zM503 357l-135 13l-30 47l165 20v-80z" />
    <glyph glyph-name="gbreve" unicode="&#x11f;" horiz-adv-x="518" 
d="M242 -228q-106 0 -165.5 29t-59.5 80q0 33 35.5 61.5t96.5 45.5l43 -4q-24 -17 -38 -39t-14 -46q0 -34 28.5 -52.5t83.5 -18.5q54 0 90 23.5t36 58.5q0 25 -18 37.5t-62 16.5l-127 11l-9 5q-51 0 -79 19.5t-28 50.5q0 32 31.5 59.5t86.5 43.5l16 -17q-11 -7 -18 -15.5
t-7 -16.5q0 -12 7.5 -18t21.5 -8l155 -15q74 -7 110 -39t36 -84q0 -47 -32.5 -85t-90 -60.5t-129.5 -22.5zM246 118q-60 0 -105.5 20.5t-70.5 57t-25 84.5q0 49 27 87t73.5 60t104.5 22q57 0 101.5 -22.5t70.5 -60.5t26 -86q0 -47 -26 -83.5t-71 -57.5t-105 -21zM254 176
q31 0 49 27.5t18 74.5q0 51 -19.5 82t-52.5 31q-30 0 -49 -29t-19 -77q0 -49 20 -79t53 -30zM503 357l-135 13l-30 47l165 20v-80zM349 677l58 -20q-4 -76 -46.5 -121t-108.5 -45q-44 0 -78.5 20.5t-55 58t-23.5 87.5l64 20q9 -50 34 -76.5t61 -26.5q37 0 62.5 26.5
t32.5 76.5z" />
    <glyph glyph-name="gcaron" unicode="&#x1e7;" horiz-adv-x="518" 
d="M242 -228q-106 0 -165.5 29t-59.5 80q0 33 35.5 61.5t96.5 45.5l43 -4q-24 -17 -38 -39t-14 -46q0 -34 28.5 -52.5t83.5 -18.5q54 0 90 23.5t36 58.5q0 25 -18 37.5t-62 16.5l-127 11l-9 5q-51 0 -79 19.5t-28 50.5q0 32 31.5 59.5t86.5 43.5l16 -17q-11 -7 -18 -15.5
t-7 -16.5q0 -12 7.5 -18t21.5 -8l155 -15q74 -7 110 -39t36 -84q0 -47 -32.5 -85t-90 -60.5t-129.5 -22.5zM246 118q-60 0 -105.5 20.5t-70.5 57t-25 84.5q0 49 27 87t73.5 60t104.5 22q57 0 101.5 -22.5t70.5 -60.5t26 -86q0 -47 -26 -83.5t-71 -57.5t-105 -21zM254 176
q31 0 49 27.5t18 74.5q0 51 -19.5 82t-52.5 31q-30 0 -49 -29t-19 -77q0 -49 20 -79t53 -30zM503 357l-135 13l-30 47l165 20v-80zM411 657l-107 -163h-106l-107 163l58 20l135 -140h-66l135 140z" />
    <glyph glyph-name="gcircumflex" unicode="&#x11d;" horiz-adv-x="518" 
d="M242 -228q-106 0 -165.5 29t-59.5 80q0 33 35.5 61.5t96.5 45.5l43 -4q-24 -17 -38 -39t-14 -46q0 -34 28.5 -52.5t83.5 -18.5q54 0 90 23.5t36 58.5q0 25 -18 37.5t-62 16.5l-127 11l-9 5q-51 0 -79 19.5t-28 50.5q0 32 31.5 59.5t86.5 43.5l16 -17q-11 -7 -18 -15.5
t-7 -16.5q0 -12 7.5 -18t21.5 -8l155 -15q74 -7 110 -39t36 -84q0 -47 -32.5 -85t-90 -60.5t-129.5 -22.5zM246 118q-60 0 -105.5 20.5t-70.5 57t-25 84.5q0 49 27 87t73.5 60t104.5 22q57 0 101.5 -22.5t70.5 -60.5t26 -86q0 -47 -26 -83.5t-71 -57.5t-105 -21zM254 176
q31 0 49 27.5t18 74.5q0 51 -19.5 82t-52.5 31q-30 0 -49 -29t-19 -77q0 -49 20 -79t53 -30zM503 357l-135 13l-30 47l165 20v-80zM411 503l-58 -20l-135 139h66l-135 -139l-58 20l107 163h106z" />
    <glyph glyph-name="uni0123" unicode="&#x123;" horiz-adv-x="518" 
d="M242 -228q-106 0 -165.5 29t-59.5 80q0 33 35.5 61.5t96.5 45.5l43 -4q-24 -17 -38 -39t-14 -46q0 -34 28.5 -52.5t83.5 -18.5q54 0 90 23.5t36 58.5q0 25 -18 37.5t-62 16.5l-127 11l-9 5q-51 0 -79 19.5t-28 50.5q0 32 31.5 59.5t86.5 43.5l16 -17q-11 -7 -18 -15.5
t-7 -16.5q0 -12 7.5 -18t21.5 -8l155 -15q74 -7 110 -39t36 -84q0 -47 -32.5 -85t-90 -60.5t-129.5 -22.5zM246 118q-60 0 -105.5 20.5t-70.5 57t-25 84.5q0 49 27 87t73.5 60t104.5 22q57 0 101.5 -22.5t70.5 -60.5t26 -86q0 -47 -26 -83.5t-71 -57.5t-105 -21zM254 176
q31 0 49 27.5t18 74.5q0 51 -19.5 82t-52.5 31q-30 0 -49 -29t-19 -77q0 -49 20 -79t53 -30zM503 357l-135 13l-30 47l165 20v-80zM328 716l14 -34q-47 -10 -64.5 -25.5t-17.5 -30.5q0 -12 10 -18.5t22.5 -12.5t22.5 -17t10 -34q0 -22 -19 -37.5t-49 -15.5q-20 0 -38.5 8
t-30 25.5t-11.5 44.5q0 30 17 59t50.5 53t83.5 35z" />
    <glyph glyph-name="gdotaccent" unicode="&#x121;" horiz-adv-x="518" 
d="M242 -228q-106 0 -165.5 29t-59.5 80q0 33 35.5 61.5t96.5 45.5l43 -4q-24 -17 -38 -39t-14 -46q0 -34 28.5 -52.5t83.5 -18.5q54 0 90 23.5t36 58.5q0 25 -18 37.5t-62 16.5l-127 11l-9 5q-51 0 -79 19.5t-28 50.5q0 32 31.5 59.5t86.5 43.5l16 -17q-11 -7 -18 -15.5
t-7 -16.5q0 -12 7.5 -18t21.5 -8l155 -15q74 -7 110 -39t36 -84q0 -47 -32.5 -85t-90 -60.5t-129.5 -22.5zM246 118q-60 0 -105.5 20.5t-70.5 57t-25 84.5q0 49 27 87t73.5 60t104.5 22q57 0 101.5 -22.5t70.5 -60.5t26 -86q0 -47 -26 -83.5t-71 -57.5t-105 -21zM254 176
q31 0 49 27.5t18 74.5q0 51 -19.5 82t-52.5 31q-30 0 -49 -29t-19 -77q0 -49 20 -79t53 -30zM503 357l-135 13l-30 47l165 20v-80zM252 506q-36 0 -56 22t-20 50q0 29 20 50.5t56 21.5t55 -21.5t19 -50.5q0 -28 -19 -50t-55 -22z" />
    <glyph glyph-name="uni1E21" unicode="&#x1e21;" horiz-adv-x="518" 
d="M242 -228q-106 0 -165.5 29t-59.5 80q0 33 35.5 61.5t96.5 45.5l43 -4q-24 -17 -38 -39t-14 -46q0 -34 28.5 -52.5t83.5 -18.5q54 0 90 23.5t36 58.5q0 25 -18 37.5t-62 16.5l-127 11l-9 5q-51 0 -79 19.5t-28 50.5q0 32 31.5 59.5t86.5 43.5l16 -17q-11 -7 -18 -15.5
t-7 -16.5q0 -12 7.5 -18t21.5 -8l155 -15q74 -7 110 -39t36 -84q0 -47 -32.5 -85t-90 -60.5t-129.5 -22.5zM246 118q-60 0 -105.5 20.5t-70.5 57t-25 84.5q0 49 27 87t73.5 60t104.5 22q57 0 101.5 -22.5t70.5 -60.5t26 -86q0 -47 -26 -83.5t-71 -57.5t-105 -21zM254 176
q31 0 49 27.5t18 74.5q0 51 -19.5 82t-52.5 31q-30 0 -49 -29t-19 -77q0 -49 20 -79t53 -30zM503 357l-135 13l-30 47l165 20v-80zM96 614h310v-71h-310v71z" />
    <glyph glyph-name="h" unicode="h" horiz-adv-x="588" 
d="M19 0l-3 46l62 17q1 11 2.5 38.5t2.5 63.5t1 70v126q0 34 -0.5 68.5t-1 66t-1.5 57.5t-3 42l-74 10l-2 43l189 49l28 -17q-2 -31 -3.5 -60t-2.5 -63.5t-2 -79t-2 -107.5l3 -1q31 39 68 58.5t79 19.5q43 0 76.5 -21t53.5 -61.5t20 -97.5v-103q0 -34 1.5 -63.5t3.5 -37.5
l62 -17l-3 -46h-250l-3 46l56 17q2 9 3 25.5t1.5 36.5t0.5 38v84q0 38 -11.5 61.5t-30 34.5t-42.5 11t-46 -11t-39 -32v-147q0 -37 1.5 -65t3.5 -36l60 -17l-3 -46h-255z" />
    <glyph glyph-name="hbar" unicode="&#x127;" horiz-adv-x="588" 
d="M19 0l-3 46l62 17q1 11 2.5 38.5t2.5 63.5t1 70v126q0 34 -0.5 68.5t-1 66t-1.5 57.5t-3 42l-74 10l-2 43l189 49l28 -17q-2 -31 -3.5 -60t-2.5 -63.5t-2 -79t-2 -107.5l3 -1q31 39 68 58.5t79 19.5q43 0 76.5 -21t53.5 -61.5t20 -97.5v-103q0 -34 1.5 -63.5t3.5 -37.5
l62 -17l-3 -46h-250l-3 46l56 17q2 9 3 25.5t1.5 36.5t0.5 38v84q0 38 -11.5 61.5t-30 34.5t-42.5 11t-46 -11t-39 -32v-147q0 -37 1.5 -65t3.5 -36l60 -17l-3 -46h-255zM10 492v52h384v-52h-384z" />
    <glyph glyph-name="uni1E2B" unicode="&#x1e2b;" horiz-adv-x="588" 
d="M19 0l-3 46l62 17q1 11 2.5 38.5t2.5 63.5t1 70v126q0 34 -0.5 68.5t-1 66t-1.5 57.5t-3 42l-74 10l-2 43l189 49l28 -17q-2 -31 -3.5 -60t-2.5 -63.5t-2 -79t-2 -107.5l3 -1q31 39 68 58.5t79 19.5q43 0 76.5 -21t53.5 -61.5t20 -97.5v-103q0 -34 1.5 -63.5t3.5 -37.5
l62 -17l-3 -46h-250l-3 46l56 17q2 9 3 25.5t1.5 36.5t0.5 38v84q0 38 -11.5 61.5t-30 34.5t-42.5 11t-46 -11t-39 -32v-147q0 -37 1.5 -65t3.5 -36l60 -17l-3 -46h-255zM395 -71l58 -20q-7 -63 -48 -99.5t-107 -36.5t-107.5 36.5t-49.5 99.5l64 20q9 -35 34 -55t61 -20
q37 0 62.5 20t32.5 55z" />
    <glyph glyph-name="hcircumflex" unicode="&#x125;" horiz-adv-x="588" 
d="M19 0l-3 46l62 17q1 11 2.5 38.5t2.5 63.5t1 70v126q0 34 -0.5 68.5t-1 66t-1.5 57.5t-3 42l-74 10l-2 43l189 49l28 -17q-2 -31 -3.5 -60t-2.5 -63.5t-2 -79t-2 -107.5l3 -1q31 39 68 58.5t79 19.5q43 0 76.5 -21t53.5 -61.5t20 -97.5v-103q0 -34 1.5 -63.5t3.5 -37.5
l62 -17l-3 -46h-250l-3 46l56 17q2 9 3 25.5t1.5 36.5t0.5 38v84q0 38 -11.5 61.5t-30 34.5t-42.5 11t-46 -11t-39 -32v-147q0 -37 1.5 -65t3.5 -36l60 -17l-3 -46h-255zM338 741l-49 -31l-174 84h66l-174 -84l-49 31l137 102h106z" />
    <glyph glyph-name="uni1E25" unicode="&#x1e25;" horiz-adv-x="588" 
d="M19 0l-3 46l62 17q1 11 2.5 38.5t2.5 63.5t1 70v126q0 34 -0.5 68.5t-1 66t-1.5 57.5t-3 42l-74 10l-2 43l189 49l28 -17q-2 -31 -3.5 -60t-2.5 -63.5t-2 -79t-2 -107.5l3 -1q31 39 68 58.5t79 19.5q43 0 76.5 -21t53.5 -61.5t20 -97.5v-103q0 -34 1.5 -63.5t3.5 -37.5
l62 -17l-3 -46h-250l-3 46l56 17q2 9 3 25.5t1.5 36.5t0.5 38v84q0 38 -11.5 61.5t-30 34.5t-42.5 11t-46 -11t-39 -32v-147q0 -37 1.5 -65t3.5 -36l60 -17l-3 -46h-255zM298 -211q-36 0 -56 22t-20 50q0 29 20 50.5t56 21.5t55 -21.5t19 -50.5q0 -28 -19 -50t-55 -22z" />
    <glyph glyph-name="i" unicode="i" horiz-adv-x="297" 
d="M15 0l-3 47l67 16q1 4 2 18.5t2 35.5t1 46l1 75q0 30 -2 54t-7 49l-67 14v45l184 45l27 -17q-3 -32 -4.5 -64.5t-1.5 -73.5v-126q0 -33 1.5 -63t3.5 -38l67 -16l-3 -47h-268zM150 527q-40 0 -63 24.5t-23 56.5t23 56.5t63 24.5t62 -24.5t22 -56.5t-22 -56.5t-62 -24.5z
" />
    <glyph glyph-name="dotlessi" unicode="&#x131;" horiz-adv-x="297" 
d="M15 0l-3 47l67 16q1 4 2 18.5t2 35.5t1 46l1 75q0 30 -2 54t-7 49l-67 14v45l184 45l27 -17q-3 -32 -4.5 -64.5t-1.5 -73.5v-126q0 -33 1.5 -63t3.5 -38l67 -16l-3 -47h-268z" />
    <glyph glyph-name="iacute" unicode="&#xed;" horiz-adv-x="297" 
d="M15 0l-3 47l67 16q1 4 2 18.5t2 35.5t1 46l1 75q0 30 -2 54t-7 49l-67 14v45l184 45l27 -17q-3 -32 -4.5 -64.5t-1.5 -73.5v-126q0 -33 1.5 -63t3.5 -38l67 -16l-3 -47h-268zM178 483l-58 20l99 174l117 -23z" />
    <glyph glyph-name="ibreve" unicode="&#x12d;" horiz-adv-x="297" 
d="M15 0l-3 47l67 16q1 4 2 18.5t2 35.5t1 46l1 75q0 30 -2 54t-7 49l-67 14v45l184 45l27 -17q-3 -32 -4.5 -64.5t-1.5 -73.5v-126q0 -33 1.5 -63t3.5 -38l67 -16l-3 -47h-268zM247 677l58 -20q-4 -76 -46.5 -121t-108.5 -45q-44 0 -78.5 20.5t-55 58t-23.5 87.5l64 20
q9 -50 34 -76.5t61 -26.5q37 0 62.5 26.5t32.5 76.5z" />
    <glyph glyph-name="icircumflex" unicode="&#xee;" horiz-adv-x="297" 
d="M15 0l-3 47l67 16q1 4 2 18.5t2 35.5t1 46l1 75q0 30 -2 54t-7 49l-67 14v45l184 45l27 -17q-3 -32 -4.5 -64.5t-1.5 -73.5v-126q0 -33 1.5 -63t3.5 -38l67 -16l-3 -47h-268zM309 503l-58 -20l-135 139h66l-135 -139l-58 20l107 163h106z" />
    <glyph glyph-name="uni0209" unicode="&#x209;" horiz-adv-x="297" 
d="M15 0l-3 47l67 16q1 4 2 18.5t2 35.5t1 46l1 75q0 30 -2 54t-7 49l-67 14v45l184 45l27 -17q-3 -32 -4.5 -64.5t-1.5 -73.5v-126q0 -33 1.5 -63t3.5 -38l67 -16l-3 -47h-268zM187 483l-99 176l91 18l60 -176zM59 483l-99 176l90 18l61 -176z" />
    <glyph glyph-name="idieresis" unicode="&#xef;" horiz-adv-x="297" 
d="M15 0l-3 47l67 16q1 4 2 18.5t2 35.5t1 46l1 75q0 30 -2 54t-7 49l-67 14v45l184 45l27 -17q-3 -32 -4.5 -64.5t-1.5 -73.5v-126q0 -33 1.5 -63t3.5 -38l67 -16l-3 -47h-268zM57 513q-33 0 -51.5 20t-18.5 45q0 26 18.5 45.5t51.5 19.5q32 0 50 -19.5t18 -45.5
q0 -25 -18 -45t-50 -20zM243 513q-33 0 -51.5 20t-18.5 45q0 26 18.5 45.5t51.5 19.5t50.5 -19.5t17.5 -45.5q0 -25 -17.5 -45t-50.5 -20z" />
    <glyph glyph-name="uni1E2F" unicode="&#x1e2f;" horiz-adv-x="297" 
d="M15 0l-3 47l67 16q1 4 2 18.5t2 35.5t1 46l1 75q0 30 -2 54t-7 49l-67 14v45l184 45l27 -17q-3 -32 -4.5 -64.5t-1.5 -73.5v-126q0 -33 1.5 -63t3.5 -38l67 -16l-3 -47h-268zM57 513q-33 0 -50.5 19t-17.5 44t17.5 44t50.5 19q30 0 48 -19t18 -44t-18 -44t-48 -19z
M243 513q-32 0 -50 19t-18 44t18 44t50 19t49 -19t17 -44t-17 -44t-49 -19zM178 645l-58 20l64 125l117 -23z" />
    <glyph glyph-name="i.loclTRK" horiz-adv-x="297" 
d="M15 0l-3 47l67 16q1 4 2 18.5t2 35.5t1 46l1 75q0 30 -2 54t-7 49l-67 14v45l184 45l27 -17q-3 -32 -4.5 -64.5t-1.5 -73.5v-126q0 -33 1.5 -63t3.5 -38l67 -16l-3 -47h-268zM150 527q-40 0 -63 24.5t-23 56.5t23 56.5t63 24.5t62 -24.5t22 -56.5t-22 -56.5t-62 -24.5z
" />
    <glyph glyph-name="uni1ECB" unicode="&#x1ecb;" horiz-adv-x="297" 
d="M15 0l-3 47l67 16q1 4 2 18.5t2 35.5t1 46l1 75q0 30 -2 54t-7 49l-67 14v45l184 45l27 -17q-3 -32 -4.5 -64.5t-1.5 -73.5v-126q0 -33 1.5 -63t3.5 -38l67 -16l-3 -47h-268zM150 527q-40 0 -63 24.5t-23 56.5t23 56.5t63 24.5t62 -24.5t22 -56.5t-22 -56.5t-62 -24.5z
M150 -211q-36 0 -56 22t-20 50q0 29 20 50.5t56 21.5t55 -21.5t19 -50.5q0 -28 -19 -50t-55 -22z" />
    <glyph glyph-name="igrave" unicode="&#xec;" horiz-adv-x="297" 
d="M15 0l-3 47l67 16q1 4 2 18.5t2 35.5t1 46l1 75q0 30 -2 54t-7 49l-67 14v45l184 45l27 -17q-3 -32 -4.5 -64.5t-1.5 -73.5v-126q0 -33 1.5 -63t3.5 -38l67 -16l-3 -47h-268zM118 483l-158 171l121 23l99 -174z" />
    <glyph glyph-name="uni1EC9" unicode="&#x1ec9;" horiz-adv-x="297" 
d="M15 0l-3 47l67 16q1 4 2 18.5t2 35.5t1 46l1 75q0 30 -2 54t-7 49l-67 14v45l184 45l27 -17q-3 -32 -4.5 -64.5t-1.5 -73.5v-126q0 -33 1.5 -63t3.5 -38l67 -16l-3 -47h-268zM150 671q50 0 79.5 -18t29.5 -49q0 -23 -13.5 -37t-30.5 -24.5t-30.5 -21.5t-13.5 -28h-44v17
q0 25 11 42t22 31t11 27q0 19 -14.5 23.5t-41.5 -2.5l41 15l-40 -43q-9 -9 -17.5 -13.5t-21.5 -4.5q-14 0 -22.5 7.5t-8.5 19.5q0 24 28 41.5t76 17.5z" />
    <glyph glyph-name="uni020B" unicode="&#x20b;" horiz-adv-x="297" 
d="M15 0l-3 47l67 16q1 4 2 18.5t2 35.5t1 46l1 75q0 30 -2 54t-7 49l-67 14v45l184 45l27 -17q-3 -32 -4.5 -64.5t-1.5 -73.5v-126q0 -33 1.5 -63t3.5 -38l67 -16l-3 -47h-268zM53 483l-60 20q3 51 23.5 88t55.5 57t79 20q66 0 108 -44.5t46 -120.5l-62 -20
q-9 50 -34.5 76.5t-60.5 26.5q-36 0 -62 -26.5t-33 -76.5z" />
    <glyph glyph-name="ij" unicode="&#x133;" horiz-adv-x="585" 
d="M15 0l-3 47l67 16q1 4 2 18.5t2 35.5t1 46l1 75q0 30 -2 54t-7 49l-67 14v45l184 45l27 -17q-3 -32 -4.5 -64.5t-1.5 -73.5v-126q0 -33 1.5 -63t3.5 -38l67 -16l-3 -47h-268zM150 527q-40 0 -63 24.5t-23 56.5t23 56.5t63 24.5t62 -24.5t22 -56.5t-22 -56.5t-62 -24.5z
M321 -228q-49 0 -82 21t-33 53q0 22 12.5 32.5t33.5 10.5q18 0 31.5 -6t27.5 -19l57 -53l-44 6q16 0 28.5 12t20 44t7.5 91l1 274q0 35 -2 58t-6 45l-67 14v45l183 45l29 -17q-3 -29 -4.5 -62.5t-1.5 -85.5l1 -279q0 -69 -26 -120.5t-69.5 -80t-96.5 -28.5zM448 527
q-40 0 -63 24.5t-23 56.5t23 56.5t63 24.5t62 -24.5t22 -56.5t-22 -56.5t-62 -24.5z" />
    <glyph glyph-name="imacron" unicode="&#x12b;" horiz-adv-x="297" 
d="M15 0l-3 47l67 16q1 4 2 18.5t2 35.5t1 46l1 75q0 30 -2 54t-7 49l-67 14v45l184 45l27 -17q-3 -32 -4.5 -64.5t-1.5 -73.5v-126q0 -33 1.5 -63t3.5 -38l67 -16l-3 -47h-268zM-6 614h310v-71h-310v71z" />
    <glyph glyph-name="iogonek" unicode="&#x12f;" horiz-adv-x="298" 
d="M153 -223q-35 0 -64.5 13t-47 36t-17.5 52q0 28 18.5 54t55 47t91.5 33l3 -12h-177l-3 47l67 16q1 4 2 18.5t2 35.5t1 46l1 75q0 30 -2 54t-7 49l-67 14v45l184 45l27 -17q-3 -32 -4.5 -64.5t-1.5 -73.5v-126q0 -33 1.5 -63t3.5 -38l67 -16l-3 -47q-49 -1 -80.5 -13
t-49.5 -30t-25.5 -37t-7.5 -34q0 -25 14.5 -40t37.5 -15q16 0 33 9t35 26l28 -39q-21 -24 -50 -37t-65 -13zM150 527q-40 0 -63 24.5t-23 56.5t23 56.5t63 24.5q41 0 63 -24.5t22 -56.5t-22 -56.5t-63 -24.5z" />
    <glyph glyph-name="itilde" unicode="&#x129;" horiz-adv-x="297" 
d="M15 0l-3 47l67 16q1 4 2 18.5t2 35.5t1 46l1 75q0 30 -2 54t-7 49l-67 14v45l184 45l27 -17q-3 -32 -4.5 -64.5t-1.5 -73.5v-126q0 -33 1.5 -63t3.5 -38l67 -16l-3 -47h-268zM292 647l43 -25q-15 -53 -45.5 -83.5t-70.5 -30.5q-24 0 -52 12t-53.5 24.5t-46.5 12.5
q-19 0 -33 -12t-28 -35l-43 25q16 54 46 84t70 30q25 0 52.5 -12.5t53.5 -24.5t45 -12q20 0 34 12t28 35z" />
    <glyph glyph-name="j" unicode="j" horiz-adv-x="288" 
d="M15 -230l-24 45q49 30 70.5 70.5t21.5 102.5l1 250q0 35 -2 58t-6 45l-67 14v45l184 45l28 -17q-3 -29 -4.5 -62.5t-1.5 -85.5l1 -259q0 -39 -15.5 -77.5t-43 -72t-64 -59.5t-78.5 -42zM150 527q-40 0 -63 24.5t-23 56.5t23 56.5t63 24.5t62 -24.5t22 -56.5t-22 -56.5
t-62 -24.5z" />
    <glyph glyph-name="uni0237" unicode="&#x237;" horiz-adv-x="288" 
d="M15 -230l-24 45q49 30 70.5 70.5t21.5 102.5l1 250q0 35 -2 58t-6 45l-67 14v45l184 45l28 -17q-3 -29 -4.5 -62.5t-1.5 -85.5l1 -259q0 -39 -15.5 -77.5t-43 -72t-64 -59.5t-78.5 -42z" />
    <glyph glyph-name="jcircumflex" unicode="&#x135;" horiz-adv-x="288" 
d="M15 -230l-24 45q49 30 70.5 70.5t21.5 102.5l1 250q0 35 -2 58t-6 45l-67 14v45l184 45l28 -17q-3 -29 -4.5 -62.5t-1.5 -85.5l1 -259q0 -39 -15.5 -77.5t-43 -72t-64 -59.5t-78.5 -42zM309 503l-58 -20l-135 139h66l-135 -139l-58 20l107 163h106z" />
    <glyph glyph-name="k" unicode="k" horiz-adv-x="556" 
d="M24 0l-3 46l57 17q2 13 3 41t2 62.5t1 66.5v128q0 36 -0.5 70.5t-1 66t-1.5 56.5t-2 41l-74 10l-2 43l189 49l28 -17q-2 -28 -3.5 -56t-2 -60.5t-1 -75t-0.5 -101.5l-1 -226q0 -22 1 -42.5t1.5 -35t1.5 -20.5l62 -17l-3 -46h-251zM561 0h-168q-15 21 -27.5 36.5
t-25.5 30.5l-116 131h-25l1 37l30 7l147 139l-66 11l3 47h222l3 -47l-66 -12l-166 -138l11 45l153 -174q19 -22 33.5 -37t21.5 -22l38 -8z" />
    <glyph glyph-name="uni0137" unicode="&#x137;" horiz-adv-x="556" 
d="M24 0l-3 46l57 17q2 13 3 41t2 62.5t1 66.5v128q0 36 -0.5 70.5t-1 66t-1.5 56.5t-2 41l-74 10l-2 43l189 49l28 -17q-2 -28 -3.5 -56t-2 -60.5t-1 -75t-0.5 -101.5l-1 -226q0 -22 1 -42.5t1.5 -35t1.5 -20.5l62 -17l-3 -46h-251zM561 0h-168q-15 21 -27.5 36.5
t-25.5 30.5l-116 131h-25l1 37l30 7l147 139l-66 11l3 47h222l3 -47l-66 -12l-166 -138l11 45l153 -174q19 -22 33.5 -37t21.5 -22l38 -8zM211 -291l-14 34q47 10 64.5 25.5t17.5 29.5q0 12 -10 18.5t-22.5 12.5t-22.5 17t-10 33q0 23 19.5 38.5t48.5 15.5q20 0 38.5 -8.5
t30 -25.5t11.5 -45t-17 -57.5t-50 -53t-84 -34.5z" />
    <glyph glyph-name="kgreenlandic" unicode="&#x138;" horiz-adv-x="556" 
d="M19 0l-3 46l62 17q1 4 2 18.5t2 35.5t1 46l1 76q0 29 -2 53t-7 49l-64 15v44l180 45l27 -17q-3 -32 -4.5 -64.5t-1.5 -73.5v-126q0 -34 1.5 -63.5t3.5 -37.5l62 -17l-3 -46h-257zM560 0h-168q-15 21 -27.5 36.5t-25.5 30.5l-116 131h-25l1 37l30 7l147 139l-66 11l3 47
h222l3 -47l-66 -12l-166 -138l12 45l152 -174q19 -22 33.5 -37t22.5 -22l38 -8z" />
    <glyph glyph-name="l" unicode="l" horiz-adv-x="298" 
d="M16 0l-3 47l65 16q1 11 2.5 38.5t2.5 63.5t1 70v126q0 35 -0.5 69.5t-1 66t-1.5 57t-3 41.5l-74 10l-2 43l191 49l28 -17q-2 -42 -3.5 -81.5t-1.5 -89.5t-1 -122l-1 -147q0 -70 1.5 -118.5t3.5 -58.5l65 -16l-2 -47h-266z" />
    <glyph glyph-name="lacute" unicode="&#x13a;" horiz-adv-x="298" 
d="M16 0l-3 47l65 16q1 11 2.5 38.5t2.5 63.5t1 70v126q0 35 -0.5 69.5t-1 66t-1.5 57t-3 41.5l-74 10l-2 43l191 49l28 -17q-2 -42 -3.5 -81.5t-1.5 -89.5t-1 -122l-1 -147q0 -70 1.5 -118.5t3.5 -58.5l65 -16l-2 -47h-266zM180 704l-62 20l93 133l116 -23z" />
    <glyph glyph-name="lcaron" unicode="&#x13e;" horiz-adv-x="298" 
d="M16 0l-3 47l65 16q1 11 2.5 38.5t2.5 63.5t1 70v126q0 35 -0.5 69.5t-1 66t-1.5 57t-3 41.5l-74 10l-2 43l191 49l28 -17q-2 -42 -3.5 -81.5t-1.5 -89.5t-1 -122l-1 -147q0 -70 1.5 -118.5t3.5 -58.5l65 -16l-2 -47h-266zM279 461l-22 32q32 18 45 34.5t13 30.5
q0 13 -9 19t-21 12t-21 17t-9 34q0 22 18.5 37.5t46.5 15.5q20 0 38.5 -8t30 -24.5t11.5 -42.5q0 -28 -15 -57.5t-42.5 -55.5t-63.5 -44z" />
    <glyph glyph-name="uni013C" unicode="&#x13c;" horiz-adv-x="298" 
d="M16 0l-3 47l65 16q1 11 2.5 38.5t2.5 63.5t1 70v126q0 35 -0.5 69.5t-1 66t-1.5 57t-3 41.5l-74 10l-2 43l191 49l28 -17q-2 -42 -3.5 -81.5t-1.5 -89.5t-1 -122l-1 -147q0 -70 1.5 -118.5t3.5 -58.5l65 -16l-2 -47h-266zM72 -291l-14 34q47 10 64.5 25.5t17.5 29.5
q0 12 -10 18.5t-22.5 12.5t-22.5 17t-10 33q0 23 19.5 38.5t48.5 15.5q20 0 38.5 -8.5t30 -25.5t11.5 -45t-17 -57.5t-50 -53t-84 -34.5z" />
    <glyph glyph-name="ldot" unicode="&#x140;" horiz-adv-x="355" 
d="M16 0l-3 47l65 16q1 11 2.5 38.5t2.5 63.5t1 70v126q0 35 -0.5 69.5t-1 66t-1.5 57t-3 41.5l-74 10l-2 43l191 49l28 -17q-2 -42 -3.5 -81.5t-1.5 -89.5t-1 -122l-1 -147q0 -70 1.5 -118.5t3.5 -58.5l65 -16l-2 -47h-266zM329 266q-37 0 -57.5 22.5t-20.5 51.5t20.5 51
t57.5 22q36 0 56 -22t20 -51t-20 -51.5t-56 -22.5z" />
    <glyph glyph-name="uni1E37" unicode="&#x1e37;" horiz-adv-x="298" 
d="M16 0l-3 47l65 16q1 11 2.5 38.5t2.5 63.5t1 70v126q0 35 -0.5 69.5t-1 66t-1.5 57t-3 41.5l-74 10l-2 43l191 49l28 -17q-2 -42 -3.5 -81.5t-1.5 -89.5t-1 -122l-1 -147q0 -70 1.5 -118.5t3.5 -58.5l65 -16l-2 -47h-266zM150 -211q-36 0 -56 22t-20 50q0 29 20 50.5
t56 21.5t55 -21.5t19 -50.5q0 -28 -19 -50t-55 -22z" />
    <glyph glyph-name="uni01C9" unicode="&#x1c9;" horiz-adv-x="585" 
d="M16 0l-3 47l65 16q1 11 2.5 38.5t2.5 63.5t1 70v126q0 35 -0.5 69.5t-1 66t-1.5 57t-3 41.5l-74 10l-2 43l191 49l28 -17q-2 -42 -3.5 -81.5t-1.5 -89.5t-1 -122l-1 -147q0 -70 1.5 -118.5t3.5 -58.5l65 -16l-2 -47h-266zM322 -228q-49 0 -82 21t-33 53q0 22 12.5 32.5
t33.5 10.5q18 0 31.5 -6t27.5 -19l57 -53l-44 6q16 0 28.5 12t20 44t7.5 91l1 274q0 35 -2 58t-6 45l-67 14v45l183 45l29 -17q-3 -29 -4.5 -62.5t-1.5 -85.5l1 -279q0 -69 -26 -120.5t-69.5 -80t-96.5 -28.5zM449 527q-40 0 -63 24.5t-23 56.5t23 56.5t63 24.5t62 -24.5
t22 -56.5t-22 -56.5t-62 -24.5z" />
    <glyph glyph-name="uni1E3B" unicode="&#x1e3b;" horiz-adv-x="298" 
d="M16 0l-3 47l65 16q1 11 2.5 38.5t2.5 63.5t1 70v126q0 35 -0.5 69.5t-1 66t-1.5 57t-3 41.5l-74 10l-2 43l191 49l28 -17q-2 -42 -3.5 -81.5t-1.5 -89.5t-1 -122l-1 -147q0 -70 1.5 -118.5t3.5 -58.5l65 -16l-2 -47h-266zM-6 -104h310v-71h-310v71z" />
    <glyph glyph-name="lslash" unicode="&#x142;" horiz-adv-x="298" 
d="M16 0l-3 47l65 16q1 11 2.5 38.5t2.5 63.5t1 70v126q0 35 -0.5 69.5t-1 66t-1.5 57t-3 41.5l-74 10l-2 43l191 49l28 -17q-2 -42 -3.5 -81.5t-1.5 -89.5t-1 -122l-1 -147q0 -70 1.5 -118.5t3.5 -58.5l65 -16l-2 -47h-266zM23 222l-30 43l282 193l31 -43z" />
    <glyph glyph-name="m" unicode="m" horiz-adv-x="867" 
d="M20 0l-3 46l62 17q1 4 2 18.5t2 35.5t1 46l1 75q0 20 -1 36.5t-3 33t-5 33.5l-64 14v45l176 45l27 -17l-6 -58l3 -1q32 41 67 59.5t73 18.5q39 0 72.5 -19.5t54.5 -59t21 -101.5l2 -103q0 -33 1 -63t4 -38l54 -17l-3 -46h-237l-3 46l51 17q2 9 3 25.5t1.5 36.5t0.5 38
l-1 94q0 36 -10.5 57.5t-28 30.5t-40.5 9q-22 0 -44 -11.5t-37 -31.5v-147q0 -33 1.5 -63t3.5 -38l55 -17l-3 -46h-250zM607 0l-3 46l52 17q2 9 3 25.5t1.5 36.5t0.5 38l-2 85q0 39 -11 62t-30 33.5t-42 10.5q-25 0 -47.5 -10.5t-37.5 -31.5l-29 38q36 48 76.5 72.5
t87.5 24.5t83.5 -21.5t56.5 -61.5t20 -96l2 -104q0 -33 1.5 -63t3.5 -38l62 -17l-3 -46h-245z" />
    <glyph glyph-name="uni1E43" unicode="&#x1e43;" horiz-adv-x="867" 
d="M20 0l-3 46l62 17q1 4 2 18.5t2 35.5t1 46l1 75q0 20 -1 36.5t-3 33t-5 33.5l-64 14v45l176 45l27 -17l-6 -58l3 -1q32 41 67 59.5t73 18.5q39 0 72.5 -19.5t54.5 -59t21 -101.5l2 -103q0 -33 1 -63t4 -38l54 -17l-3 -46h-237l-3 46l51 17q2 9 3 25.5t1.5 36.5t0.5 38
l-1 94q0 36 -10.5 57.5t-28 30.5t-40.5 9q-22 0 -44 -11.5t-37 -31.5v-147q0 -33 1.5 -63t3.5 -38l55 -17l-3 -46h-250zM607 0l-3 46l52 17q2 9 3 25.5t1.5 36.5t0.5 38l-2 85q0 39 -11 62t-30 33.5t-42 10.5q-25 0 -47.5 -10.5t-37.5 -31.5l-29 38q36 48 76.5 72.5
t87.5 24.5t83.5 -21.5t56.5 -61.5t20 -96l2 -104q0 -33 1.5 -63t3.5 -38l62 -17l-3 -46h-245zM437 -211q-36 0 -56 22t-20 50q0 29 20 50.5t56 21.5t55 -21.5t19 -50.5q0 -28 -19 -50t-55 -22z" />
    <glyph glyph-name="n" unicode="n" horiz-adv-x="588" 
d="M19 0l-3 46l62 17q1 4 2 18t2 35.5t1 46.5l1 76q0 31 -2 54t-7 48l-64 14v45l176 45l27 -17l-6 -59l3 -1q31 40 68.5 59.5t79.5 19.5q43 0 76.5 -21t53.5 -61.5t20 -97.5v-103q0 -34 1 -63.5t4 -37.5l62 -17l-3 -46h-251l-3 46l57 17q2 9 3 25.5t1.5 36.5t0.5 38v84
q0 38 -11.5 61.5t-30 34.5t-42.5 11q-25 0 -46.5 -11t-38.5 -32v-147q0 -34 1.5 -63.5t3.5 -37.5l61 -17l-3 -46h-256z" />
    <glyph glyph-name="nacute" unicode="&#x144;" horiz-adv-x="588" 
d="M19 0l-3 46l62 17q1 4 2 18t2 35.5t1 46.5l1 76q0 31 -2 54t-7 48l-64 14v45l176 45l27 -17l-6 -59l3 -1q31 40 68.5 59.5t79.5 19.5q43 0 76.5 -21t53.5 -61.5t20 -97.5v-103q0 -34 1 -63.5t4 -37.5l62 -17l-3 -46h-251l-3 46l57 17q2 9 3 25.5t1.5 36.5t0.5 38v84
q0 38 -11.5 61.5t-30 34.5t-42.5 11q-25 0 -46.5 -11t-38.5 -32v-147q0 -34 1.5 -63.5t3.5 -37.5l61 -17l-3 -46h-256zM326 483l-58 20l99 174l117 -23z" />
    <glyph glyph-name="napostrophe" unicode="&#x149;" horiz-adv-x="588" 
d="M19 0l-3 46l62 17q1 4 2 18t2 35.5t1 46.5l1 76q0 31 -2 54t-7 48l-64 14v45l176 45l27 -17l-6 -59l3 -1q31 40 68.5 59.5t79.5 19.5q43 0 76.5 -21t53.5 -61.5t20 -97.5v-103q0 -34 1 -63.5t4 -37.5l62 -17l-3 -46h-251l-3 46l57 17q2 9 3 25.5t1.5 36.5t0.5 38v84
q0 38 -11.5 61.5t-30 34.5t-42.5 11q-25 0 -46.5 -11t-38.5 -32v-147q0 -34 1.5 -63.5t3.5 -37.5l61 -17l-3 -46h-256zM26 461l-22 32q32 18 45 34.5t13 30.5q0 13 -9 19t-21 12t-21 17t-9 34q0 22 18.5 37.5t46.5 15.5q20 0 38.5 -8t30 -24.5t11.5 -42.5q0 -28 -15 -57.5
t-42.5 -55.5t-63.5 -44z" />
    <glyph glyph-name="ncaron" unicode="&#x148;" horiz-adv-x="588" 
d="M19 0l-3 46l62 17q1 4 2 18t2 35.5t1 46.5l1 76q0 31 -2 54t-7 48l-64 14v45l176 45l27 -17l-6 -59l3 -1q31 40 68.5 59.5t79.5 19.5q43 0 76.5 -21t53.5 -61.5t20 -97.5v-103q0 -34 1 -63.5t4 -37.5l62 -17l-3 -46h-251l-3 46l57 17q2 9 3 25.5t1.5 36.5t0.5 38v84
q0 38 -11.5 61.5t-30 34.5t-42.5 11q-25 0 -46.5 -11t-38.5 -32v-147q0 -34 1.5 -63.5t3.5 -37.5l61 -17l-3 -46h-256zM457 657l-107 -163h-106l-107 163l58 20l135 -140h-66l135 140z" />
    <glyph glyph-name="uni0146" unicode="&#x146;" horiz-adv-x="588" 
d="M19 0l-3 46l62 17q1 4 2 18t2 35.5t1 46.5l1 76q0 31 -2 54t-7 48l-64 14v45l176 45l27 -17l-6 -59l3 -1q31 40 68.5 59.5t79.5 19.5q43 0 76.5 -21t53.5 -61.5t20 -97.5v-103q0 -34 1 -63.5t4 -37.5l62 -17l-3 -46h-251l-3 46l57 17q2 9 3 25.5t1.5 36.5t0.5 38v84
q0 38 -11.5 61.5t-30 34.5t-42.5 11q-25 0 -46.5 -11t-38.5 -32v-147q0 -34 1.5 -63.5t3.5 -37.5l61 -17l-3 -46h-256zM220 -291l-14 34q47 10 64.5 25.5t17.5 29.5q0 12 -10 18.5t-22.5 12.5t-22.5 17t-10 33q0 23 19.5 38.5t48.5 15.5q20 0 38.5 -8.5t30 -25.5t11.5 -45
t-17 -57.5t-50 -53t-84 -34.5z" />
    <glyph glyph-name="uni1E45" unicode="&#x1e45;" horiz-adv-x="588" 
d="M19 0l-3 46l62 17q1 4 2 18t2 35.5t1 46.5l1 76q0 31 -2 54t-7 48l-64 14v45l176 45l27 -17l-6 -59l3 -1q31 40 68.5 59.5t79.5 19.5q43 0 76.5 -21t53.5 -61.5t20 -97.5v-103q0 -34 1 -63.5t4 -37.5l62 -17l-3 -46h-251l-3 46l57 17q2 9 3 25.5t1.5 36.5t0.5 38v84
q0 38 -11.5 61.5t-30 34.5t-42.5 11q-25 0 -46.5 -11t-38.5 -32v-147q0 -34 1.5 -63.5t3.5 -37.5l61 -17l-3 -46h-256zM298 506q-36 0 -56 22t-20 50q0 29 20 50.5t56 21.5t55 -21.5t19 -50.5q0 -28 -19 -50t-55 -22z" />
    <glyph glyph-name="uni1E47" unicode="&#x1e47;" horiz-adv-x="588" 
d="M19 0l-3 46l62 17q1 4 2 18t2 35.5t1 46.5l1 76q0 31 -2 54t-7 48l-64 14v45l176 45l27 -17l-6 -59l3 -1q31 40 68.5 59.5t79.5 19.5q43 0 76.5 -21t53.5 -61.5t20 -97.5v-103q0 -34 1 -63.5t4 -37.5l62 -17l-3 -46h-251l-3 46l57 17q2 9 3 25.5t1.5 36.5t0.5 38v84
q0 38 -11.5 61.5t-30 34.5t-42.5 11q-25 0 -46.5 -11t-38.5 -32v-147q0 -34 1.5 -63.5t3.5 -37.5l61 -17l-3 -46h-256zM298 -211q-36 0 -56 22t-20 50q0 29 20 50.5t56 21.5t55 -21.5t19 -50.5q0 -28 -19 -50t-55 -22z" />
    <glyph glyph-name="eng" unicode="&#x14b;" horiz-adv-x="575" 
d="M505 267l-2 -266q0 -66 -24 -118t-66.5 -81.5t-97.5 -29.5q-51 0 -83.5 20.5t-32.5 53.5q0 21 13 32t34 11q16 0 29.5 -6t28.5 -19l40 -36q16 13 23.5 47.5t7.5 88.5l2 283q1 38 -10.5 61.5t-30 34.5t-41.5 11t-44.5 -11t-38.5 -32v-147q0 -33 1.5 -63t3.5 -38l67 -17
l-3 -46h-262l-3 46l62 17q1 4 2 18.5t2 35.5t1 46l1 75q0 30 -2 54t-7 49l-64 14v45l176 45l27 -17l-6 -59l3 -1q32 41 69.5 60t76.5 19q42 0 75.5 -21t53 -61.5t19.5 -97.5z" />
    <glyph glyph-name="uni01CC" unicode="&#x1cc;" horiz-adv-x="875" 
d="M19 0l-3 46l62 17q1 4 2 18t2 35.5t1 46.5l1 76q0 31 -2 54t-7 48l-64 14v45l176 45l27 -17l-6 -59l3 -1q31 40 68.5 59.5t79.5 19.5q43 0 76.5 -21t53.5 -61.5t20 -97.5v-103q0 -34 1 -63.5t4 -37.5l62 -17l-3 -46h-251l-3 46l57 17q2 9 3 25.5t1.5 36.5t0.5 38v84
q0 38 -11.5 61.5t-30 34.5t-42.5 11q-25 0 -46.5 -11t-38.5 -32v-147q0 -34 1.5 -63.5t3.5 -37.5l61 -17l-3 -46h-256zM612 -228q-49 0 -82 21t-33 53q0 22 12.5 32.5t33.5 10.5q18 0 31.5 -6t27.5 -19l57 -53l-44 6q16 0 28.5 12t20 44t7.5 91l1 274q0 35 -2 58t-6 45
l-67 14v45l183 45l29 -17q-3 -29 -4.5 -62.5t-1.5 -85.5l1 -279q0 -69 -26 -120.5t-69.5 -80t-96.5 -28.5zM739 527q-40 0 -63 24.5t-23 56.5t23 56.5t63 24.5t62 -24.5t22 -56.5t-22 -56.5t-62 -24.5z" />
    <glyph glyph-name="uni1E49" unicode="&#x1e49;" horiz-adv-x="588" 
d="M19 0l-3 46l62 17q1 4 2 18t2 35.5t1 46.5l1 76q0 31 -2 54t-7 48l-64 14v45l176 45l27 -17l-6 -59l3 -1q31 40 68.5 59.5t79.5 19.5q43 0 76.5 -21t53.5 -61.5t20 -97.5v-103q0 -34 1 -63.5t4 -37.5l62 -17l-3 -46h-251l-3 46l57 17q2 9 3 25.5t1.5 36.5t0.5 38v84
q0 38 -11.5 61.5t-30 34.5t-42.5 11q-25 0 -46.5 -11t-38.5 -32v-147q0 -34 1.5 -63.5t3.5 -37.5l61 -17l-3 -46h-256zM142 -104h310v-71h-310v71z" />
    <glyph glyph-name="ntilde" unicode="&#xf1;" horiz-adv-x="588" 
d="M19 0l-3 46l62 17q1 4 2 18t2 35.5t1 46.5l1 76q0 31 -2 54t-7 48l-64 14v45l176 45l27 -17l-6 -59l3 -1q31 40 68.5 59.5t79.5 19.5q43 0 76.5 -21t53.5 -61.5t20 -97.5v-103q0 -34 1 -63.5t4 -37.5l62 -17l-3 -46h-251l-3 46l57 17q2 9 3 25.5t1.5 36.5t0.5 38v84
q0 38 -11.5 61.5t-30 34.5t-42.5 11q-25 0 -46.5 -11t-38.5 -32v-147q0 -34 1.5 -63.5t3.5 -37.5l61 -17l-3 -46h-256zM440 647l43 -25q-15 -53 -45.5 -83.5t-70.5 -30.5q-24 0 -52 12t-53.5 24.5t-46.5 12.5q-19 0 -33 -12t-28 -35l-43 25q16 54 46 84t70 30
q25 0 52.5 -12.5t53.5 -24.5t45 -12q20 0 34 12t28 35z" />
    <glyph glyph-name="o" unicode="o" horiz-adv-x="533" 
d="M270 -8q-70 0 -123 28.5t-83 79t-30 115.5q0 74 34 126t89 79t117 27q66 0 116.5 -28t79 -78.5t28.5 -115.5q0 -66 -30.5 -118.5t-82.5 -83.5t-115 -31zM280 56q25 0 42.5 16t27 47t9.5 74q0 86 -27.5 140t-73.5 54q-38 0 -60 -38.5t-22 -104.5q0 -53 13.5 -96t37 -67.5
t53.5 -24.5z" />
    <glyph glyph-name="oacute" unicode="&#xf3;" horiz-adv-x="533" 
d="M270 -8q-70 0 -123 28.5t-83 79t-30 115.5q0 74 34 126t89 79t117 27q66 0 116.5 -28t79 -78.5t28.5 -115.5q0 -66 -30.5 -118.5t-82.5 -83.5t-115 -31zM280 56q25 0 42.5 16t27 47t9.5 74q0 86 -27.5 140t-73.5 54q-38 0 -60 -38.5t-22 -104.5q0 -53 13.5 -96t37 -67.5
t53.5 -24.5zM296 483l-58 20l99 174l117 -23z" />
    <glyph glyph-name="obreve" unicode="&#x14f;" horiz-adv-x="533" 
d="M270 -8q-70 0 -123 28.5t-83 79t-30 115.5q0 74 34 126t89 79t117 27q66 0 116.5 -28t79 -78.5t28.5 -115.5q0 -66 -30.5 -118.5t-82.5 -83.5t-115 -31zM280 56q25 0 42.5 16t27 47t9.5 74q0 86 -27.5 140t-73.5 54q-38 0 -60 -38.5t-22 -104.5q0 -53 13.5 -96t37 -67.5
t53.5 -24.5zM365 677l58 -20q-4 -76 -46.5 -121t-108.5 -45q-44 0 -78.5 20.5t-55 58t-23.5 87.5l64 20q9 -50 34 -76.5t61 -26.5q37 0 62.5 26.5t32.5 76.5z" />
    <glyph glyph-name="ocircumflex" unicode="&#xf4;" horiz-adv-x="533" 
d="M270 -8q-70 0 -123 28.5t-83 79t-30 115.5q0 74 34 126t89 79t117 27q66 0 116.5 -28t79 -78.5t28.5 -115.5q0 -66 -30.5 -118.5t-82.5 -83.5t-115 -31zM280 56q25 0 42.5 16t27 47t9.5 74q0 86 -27.5 140t-73.5 54q-38 0 -60 -38.5t-22 -104.5q0 -53 13.5 -96t37 -67.5
t53.5 -24.5zM427 503l-58 -20l-135 139h66l-135 -139l-58 20l107 163h106z" />
    <glyph glyph-name="uni1ED1" unicode="&#x1ed1;" horiz-adv-x="533" 
d="M270 -8q-70 0 -123 28.5t-83 79t-30 115.5q0 74 34 126t89 79t117 27q66 0 116.5 -28t79 -78.5t28.5 -115.5q0 -66 -30.5 -118.5t-82.5 -83.5t-115 -31zM280 56q25 0 42.5 16t27 47t9.5 74q0 86 -27.5 140t-73.5 54q-38 0 -60 -38.5t-22 -104.5q0 -53 13.5 -96t37 -67.5
t53.5 -24.5zM427 503l-58 -20l-135 139h66l-135 -139l-58 20l107 163h106zM418 635l-58 20l70 135l117 -23z" />
    <glyph glyph-name="uni1ED9" unicode="&#x1ed9;" horiz-adv-x="533" 
d="M270 -8q-70 0 -123 28.5t-83 79t-30 115.5q0 74 34 126t89 79t117 27q66 0 116.5 -28t79 -78.5t28.5 -115.5q0 -66 -30.5 -118.5t-82.5 -83.5t-115 -31zM280 56q25 0 42.5 16t27 47t9.5 74q0 86 -27.5 140t-73.5 54q-38 0 -60 -38.5t-22 -104.5q0 -53 13.5 -96t37 -67.5
t53.5 -24.5zM268 -211q-36 0 -56 22t-20 50q0 29 20 50.5t56 21.5t55 -21.5t19 -50.5q0 -28 -19 -50t-55 -22zM427 503l-58 -20l-135 139h66l-135 -139l-58 20l107 163h106z" />
    <glyph glyph-name="uni1ED3" unicode="&#x1ed3;" horiz-adv-x="533" 
d="M270 -8q-70 0 -123 28.5t-83 79t-30 115.5q0 74 34 126t89 79t117 27q66 0 116.5 -28t79 -78.5t28.5 -115.5q0 -66 -30.5 -118.5t-82.5 -83.5t-115 -31zM280 56q25 0 42.5 16t27 47t9.5 74q0 86 -27.5 140t-73.5 54q-38 0 -60 -38.5t-22 -104.5q0 -53 13.5 -96t37 -67.5
t53.5 -24.5zM427 503l-58 -20l-135 139h66l-135 -139l-58 20l107 163h106zM412 635l-129 132l121 23l70 -135z" />
    <glyph glyph-name="uni1ED5" unicode="&#x1ed5;" horiz-adv-x="533" 
d="M270 -8q-70 0 -123 28.5t-83 79t-30 115.5q0 74 34 126t89 79t117 27q66 0 116.5 -28t79 -78.5t28.5 -115.5q0 -66 -30.5 -118.5t-82.5 -83.5t-115 -31zM280 56q25 0 42.5 16t27 47t9.5 74q0 86 -27.5 140t-73.5 54q-38 0 -60 -38.5t-22 -104.5q0 -53 13.5 -96t37 -67.5
t53.5 -24.5zM427 503l-58 -20l-135 139h66l-135 -139l-58 20l107 163h106zM411 790q50 0 79.5 -18t29.5 -48q0 -24 -13 -38t-30.5 -24t-31 -21t-13.5 -29h-44v17q0 25 11 42t22 31t11 27q0 19 -14.5 23.5t-41.5 -2.5l41 15l-40 -42q-9 -10 -18 -14.5t-21 -4.5
q-14 0 -22.5 7.5t-8.5 20.5q0 23 28.5 40.5t75.5 17.5z" />
    <glyph glyph-name="uni1ED7" unicode="&#x1ed7;" horiz-adv-x="533" 
d="M270 -8q-70 0 -123 28.5t-83 79t-30 115.5q0 74 34 126t89 79t117 27q66 0 116.5 -28t79 -78.5t28.5 -115.5q0 -66 -30.5 -118.5t-82.5 -83.5t-115 -31zM280 56q25 0 42.5 16t27 47t9.5 74q0 86 -27.5 140t-73.5 54q-38 0 -60 -38.5t-22 -104.5q0 -53 13.5 -96t37 -67.5
t53.5 -24.5zM165 483l-58 20l107 132h106l107 -132l-58 -20l-135 112h66zM330 663q-22 0 -47 11t-48.5 22t-41.5 11q-17 0 -29.5 -10t-25.5 -33l-38 23q14 49 41 76t63 27q22 0 47 -11t48.5 -22t40.5 -11t30 10.5t26 32.5l38 -23q-13 -49 -40.5 -76t-63.5 -27z" />
    <glyph glyph-name="uni020D" unicode="&#x20d;" horiz-adv-x="533" 
d="M270 -8q-70 0 -123 28.5t-83 79t-30 115.5q0 74 34 126t89 79t117 27q66 0 116.5 -28t79 -78.5t28.5 -115.5q0 -66 -30.5 -118.5t-82.5 -83.5t-115 -31zM280 56q25 0 42.5 16t27 47t9.5 74q0 86 -27.5 140t-73.5 54q-38 0 -60 -38.5t-22 -104.5q0 -53 13.5 -96t37 -67.5
t53.5 -24.5zM305 483l-99 176l91 18l60 -176zM177 483l-99 176l90 18l61 -176z" />
    <glyph glyph-name="odieresis" unicode="&#xf6;" horiz-adv-x="533" 
d="M270 -8q-70 0 -123 28.5t-83 79t-30 115.5q0 74 34 126t89 79t117 27q66 0 116.5 -28t79 -78.5t28.5 -115.5q0 -66 -30.5 -118.5t-82.5 -83.5t-115 -31zM280 56q25 0 42.5 16t27 47t9.5 74q0 86 -27.5 140t-73.5 54q-38 0 -60 -38.5t-22 -104.5q0 -53 13.5 -96t37 -67.5
t53.5 -24.5zM175 513q-33 0 -51.5 20t-18.5 45q0 26 18.5 45.5t51.5 19.5q32 0 50 -19.5t18 -45.5q0 -25 -18 -45t-50 -20zM361 513q-33 0 -51.5 20t-18.5 45q0 26 18.5 45.5t51.5 19.5t50.5 -19.5t17.5 -45.5q0 -25 -17.5 -45t-50.5 -20z" />
    <glyph glyph-name="uni022B" unicode="&#x22b;" horiz-adv-x="533" 
d="M270 -8q-70 0 -123 28.5t-83 79t-30 115.5q0 74 34 126t89 79t117 27q66 0 116.5 -28t79 -78.5t28.5 -115.5q0 -66 -30.5 -118.5t-82.5 -83.5t-115 -31zM280 56q25 0 42.5 16t27 47t9.5 74q0 86 -27.5 140t-73.5 54q-38 0 -60 -38.5t-22 -104.5q0 -53 13.5 -96t37 -67.5
t53.5 -24.5zM175 513q-33 0 -51.5 20t-18.5 45q0 26 18.5 45.5t51.5 19.5q32 0 50 -19.5t18 -45.5q0 -25 -18 -45t-50 -20zM361 513q-33 0 -51.5 20t-18.5 45q0 26 18.5 45.5t51.5 19.5t50.5 -19.5t17.5 -45.5q0 -25 -17.5 -45t-50.5 -20zM112 755h310v-71h-310v71z" />
    <glyph glyph-name="uni0231" unicode="&#x231;" horiz-adv-x="533" 
d="M270 -8q-70 0 -123 28.5t-83 79t-30 115.5q0 74 34 126t89 79t117 27q66 0 116.5 -28t79 -78.5t28.5 -115.5q0 -66 -30.5 -118.5t-82.5 -83.5t-115 -31zM280 56q25 0 42.5 16t27 47t9.5 74q0 86 -27.5 140t-73.5 54q-38 0 -60 -38.5t-22 -104.5q0 -53 13.5 -96t37 -67.5
t53.5 -24.5zM268 513q-33 0 -51.5 20t-18.5 45q0 26 18.5 45.5t51.5 19.5q32 0 50 -19.5t18 -45.5q0 -25 -18 -45t-50 -20zM112 755h310v-71h-310v71z" />
    <glyph glyph-name="uni1ECD" unicode="&#x1ecd;" horiz-adv-x="533" 
d="M270 -8q-70 0 -123 28.5t-83 79t-30 115.5q0 74 34 126t89 79t117 27q66 0 116.5 -28t79 -78.5t28.5 -115.5q0 -66 -30.5 -118.5t-82.5 -83.5t-115 -31zM280 56q25 0 42.5 16t27 47t9.5 74q0 86 -27.5 140t-73.5 54q-38 0 -60 -38.5t-22 -104.5q0 -53 13.5 -96t37 -67.5
t53.5 -24.5zM268 -211q-36 0 -56 22t-20 50q0 29 20 50.5t56 21.5t55 -21.5t19 -50.5q0 -28 -19 -50t-55 -22z" />
    <glyph glyph-name="ograve" unicode="&#xf2;" horiz-adv-x="533" 
d="M270 -8q-70 0 -123 28.5t-83 79t-30 115.5q0 74 34 126t89 79t117 27q66 0 116.5 -28t79 -78.5t28.5 -115.5q0 -66 -30.5 -118.5t-82.5 -83.5t-115 -31zM280 56q25 0 42.5 16t27 47t9.5 74q0 86 -27.5 140t-73.5 54q-38 0 -60 -38.5t-22 -104.5q0 -53 13.5 -96t37 -67.5
t53.5 -24.5zM236 483l-158 171l121 23l99 -174z" />
    <glyph glyph-name="uni1ECF" unicode="&#x1ecf;" horiz-adv-x="533" 
d="M270 -8q-70 0 -123 28.5t-83 79t-30 115.5q0 74 34 126t89 79t117 27q66 0 116.5 -28t79 -78.5t28.5 -115.5q0 -66 -30.5 -118.5t-82.5 -83.5t-115 -31zM280 56q25 0 42.5 16t27 47t9.5 74q0 86 -27.5 140t-73.5 54q-38 0 -60 -38.5t-22 -104.5q0 -53 13.5 -96t37 -67.5
t53.5 -24.5zM268 671q50 0 79.5 -18t29.5 -49q0 -23 -13.5 -37t-30.5 -24.5t-30.5 -21.5t-13.5 -28h-44v17q0 25 11 42t22 31t11 27q0 19 -14.5 23.5t-41.5 -2.5l41 15l-40 -43q-9 -9 -17.5 -13.5t-21.5 -4.5q-14 0 -22.5 7.5t-8.5 19.5q0 24 28 41.5t76 17.5z" />
    <glyph glyph-name="ohorn" unicode="&#x1a1;" horiz-adv-x="533" 
d="M524 481q0 -23 -14.5 -41t-35.5 -30.5t-43.5 -19t-39.5 -6.5l17 23q42 -28 66 -75.5t24 -106.5q0 -66 -30.5 -118.5t-82.5 -83.5t-115 -31q-70 0 -123 28.5t-83 79t-30 115.5q0 55 19.5 98t52.5 73t74 45.5t84 15.5q32 0 50 -4t31 -7.5t26 -3.5q20 0 27.5 9t8.5 31l4 63
q51 8 82 -6.5t31 -47.5zM280 56q25 0 42.5 16t27 47t9.5 74q0 86 -27.5 140t-73.5 54q-38 0 -60 -38.5t-22 -104.5q0 -53 13.5 -96t37 -67.5t53.5 -24.5z" />
    <glyph glyph-name="uni1EDB" unicode="&#x1edb;" horiz-adv-x="533" 
d="M524 481q0 -23 -14.5 -41t-35.5 -30.5t-43.5 -19t-39.5 -6.5l17 23q42 -28 66 -75.5t24 -106.5q0 -66 -30.5 -118.5t-82.5 -83.5t-115 -31q-70 0 -123 28.5t-83 79t-30 115.5q0 55 19.5 98t52.5 73t74 45.5t84 15.5q32 0 50 -4t31 -7.5t26 -3.5q20 0 27.5 9t8.5 31l4 63
q51 8 82 -6.5t31 -47.5zM280 56q25 0 42.5 16t27 47t9.5 74q0 86 -27.5 140t-73.5 54q-38 0 -60 -38.5t-22 -104.5q0 -53 13.5 -96t37 -67.5t53.5 -24.5zM296 483l-58 20l99 174l117 -23z" />
    <glyph glyph-name="uni1EE3" unicode="&#x1ee3;" horiz-adv-x="533" 
d="M524 481q0 -23 -14.5 -41t-35.5 -30.5t-43.5 -19t-39.5 -6.5l17 23q42 -28 66 -75.5t24 -106.5q0 -66 -30.5 -118.5t-82.5 -83.5t-115 -31q-70 0 -123 28.5t-83 79t-30 115.5q0 55 19.5 98t52.5 73t74 45.5t84 15.5q32 0 50 -4t31 -7.5t26 -3.5q20 0 27.5 9t8.5 31l4 63
q51 8 82 -6.5t31 -47.5zM280 56q25 0 42.5 16t27 47t9.5 74q0 86 -27.5 140t-73.5 54q-38 0 -60 -38.5t-22 -104.5q0 -53 13.5 -96t37 -67.5t53.5 -24.5zM268 -211q-36 0 -56 22t-20 50q0 29 20 50.5t56 21.5t55 -21.5t19 -50.5q0 -28 -19 -50t-55 -22z" />
    <glyph glyph-name="uni1EDD" unicode="&#x1edd;" horiz-adv-x="533" 
d="M524 481q0 -23 -14.5 -41t-35.5 -30.5t-43.5 -19t-39.5 -6.5l17 23q42 -28 66 -75.5t24 -106.5q0 -66 -30.5 -118.5t-82.5 -83.5t-115 -31q-70 0 -123 28.5t-83 79t-30 115.5q0 55 19.5 98t52.5 73t74 45.5t84 15.5q32 0 50 -4t31 -7.5t26 -3.5q20 0 27.5 9t8.5 31l4 63
q51 8 82 -6.5t31 -47.5zM280 56q25 0 42.5 16t27 47t9.5 74q0 86 -27.5 140t-73.5 54q-38 0 -60 -38.5t-22 -104.5q0 -53 13.5 -96t37 -67.5t53.5 -24.5zM236 483l-158 171l121 23l99 -174z" />
    <glyph glyph-name="uni1EDF" unicode="&#x1edf;" horiz-adv-x="533" 
d="M524 481q0 -23 -14.5 -41t-35.5 -30.5t-43.5 -19t-39.5 -6.5l17 23q42 -28 66 -75.5t24 -106.5q0 -66 -30.5 -118.5t-82.5 -83.5t-115 -31q-70 0 -123 28.5t-83 79t-30 115.5q0 55 19.5 98t52.5 73t74 45.5t84 15.5q32 0 50 -4t31 -7.5t26 -3.5q20 0 27.5 9t8.5 31l4 63
q51 8 82 -6.5t31 -47.5zM280 56q25 0 42.5 16t27 47t9.5 74q0 86 -27.5 140t-73.5 54q-38 0 -60 -38.5t-22 -104.5q0 -53 13.5 -96t37 -67.5t53.5 -24.5zM268 671q50 0 79.5 -18t29.5 -49q0 -23 -13.5 -37t-30.5 -24.5t-30.5 -21.5t-13.5 -28h-44v17q0 25 11 42t22 31t11 27
q0 19 -14.5 23.5t-41.5 -2.5l41 15l-40 -43q-9 -9 -17.5 -13.5t-21.5 -4.5q-14 0 -22.5 7.5t-8.5 19.5q0 24 28 41.5t76 17.5z" />
    <glyph glyph-name="uni1EE1" unicode="&#x1ee1;" horiz-adv-x="533" 
d="M398 647l41 -25q-15 -53 -43.5 -83.5t-66.5 -30.5q-24 0 -50.5 12t-51 24.5t-43.5 12.5t-32 -12t-26 -35l-41 25q15 54 43.5 84t66.5 30q24 0 50 -12.5t50.5 -24.5t43.5 -12q18 0 32 12t27 35zM524 481q0 -23 -14.5 -41t-35.5 -30.5t-43.5 -19t-39.5 -6.5l17 23
q42 -28 66 -75.5t24 -106.5q0 -66 -30.5 -118.5t-82.5 -83.5t-115 -31q-70 0 -123 28.5t-83 79t-30 115.5q0 55 19.5 98t52.5 73t74 45.5t84 15.5q32 0 50 -4t31 -7.5t26 -3.5q20 0 27.5 9t8.5 31l4 63q51 8 82 -6.5t31 -47.5zM280 56q25 0 42.5 16t27 47t9.5 74
q0 86 -27.5 140t-73.5 54q-38 0 -60 -38.5t-22 -104.5q0 -53 13.5 -96t37 -67.5t53.5 -24.5z" />
    <glyph glyph-name="ohungarumlaut" unicode="&#x151;" horiz-adv-x="533" 
d="M270 -8q-70 0 -123 28.5t-83 79t-30 115.5q0 74 34 126t89 79t117 27q66 0 116.5 -28t79 -78.5t28.5 -115.5q0 -66 -30.5 -118.5t-82.5 -83.5t-115 -31zM280 56q25 0 42.5 16t27 47t9.5 74q0 86 -27.5 140t-73.5 54q-38 0 -60 -38.5t-22 -104.5q0 -53 13.5 -96t37 -67.5
t53.5 -24.5zM357 483l-52 18l61 176l90 -18zM229 483l-52 18l60 176l91 -18z" />
    <glyph glyph-name="uni020F" unicode="&#x20f;" horiz-adv-x="533" 
d="M270 -8q-70 0 -123 28.5t-83 79t-30 115.5q0 74 34 126t89 79t117 27q66 0 116.5 -28t79 -78.5t28.5 -115.5q0 -66 -30.5 -118.5t-82.5 -83.5t-115 -31zM280 56q25 0 42.5 16t27 47t9.5 74q0 86 -27.5 140t-73.5 54q-38 0 -60 -38.5t-22 -104.5q0 -53 13.5 -96t37 -67.5
t53.5 -24.5zM171 483l-60 20q3 51 23.5 88t55.5 57t79 20q66 0 108 -44.5t46 -120.5l-62 -20q-9 50 -34.5 76.5t-60.5 26.5q-36 0 -62 -26.5t-33 -76.5z" />
    <glyph glyph-name="omacron" unicode="&#x14d;" horiz-adv-x="533" 
d="M270 -8q-70 0 -123 28.5t-83 79t-30 115.5q0 74 34 126t89 79t117 27q66 0 116.5 -28t79 -78.5t28.5 -115.5q0 -66 -30.5 -118.5t-82.5 -83.5t-115 -31zM280 56q25 0 42.5 16t27 47t9.5 74q0 86 -27.5 140t-73.5 54q-38 0 -60 -38.5t-22 -104.5q0 -53 13.5 -96t37 -67.5
t53.5 -24.5zM112 614h310v-71h-310v71z" />
    <glyph glyph-name="uni1E53" unicode="&#x1e53;" horiz-adv-x="533" 
d="M270 -8q-70 0 -123 28.5t-83 79t-30 115.5q0 74 34 126t89 79t117 27q66 0 116.5 -28t79 -78.5t28.5 -115.5q0 -66 -30.5 -118.5t-82.5 -83.5t-115 -31zM280 56q25 0 42.5 16t27 47t9.5 74q0 86 -27.5 140t-73.5 54q-38 0 -60 -38.5t-22 -104.5q0 -53 13.5 -96t37 -67.5
t53.5 -24.5zM112 605h310v-71h-310v71zM296 635l-58 20l70 135l117 -23z" />
    <glyph glyph-name="uni1E51" unicode="&#x1e51;" horiz-adv-x="533" 
d="M270 -8q-70 0 -123 28.5t-83 79t-30 115.5q0 74 34 126t89 79t117 27q66 0 116.5 -28t79 -78.5t28.5 -115.5q0 -66 -30.5 -118.5t-82.5 -83.5t-115 -31zM280 56q25 0 42.5 16t27 47t9.5 74q0 86 -27.5 140t-73.5 54q-38 0 -60 -38.5t-22 -104.5q0 -53 13.5 -96t37 -67.5
t53.5 -24.5zM422 605v-71h-310v71h310zM238 635l-129 132l117 23l70 -135z" />
    </font>
</defs>
</svg>
