<?xml version="1.0" standalone="no"?>
<!DOCTYPE svg PUBLIC "-//W3C//DTD SVG 1.1//EN" "http://www.w3.org/Graphics/SVG/1.1/DTD/svg11.dtd" >
<svg xmlns="http://www.w3.org/2000/svg" xmlns:xlink="http://www.w3.org/1999/xlink" version="1.1">
<metadata>
Created by FontForge 20201107 at Thu Jun 25 18:25:35 2020
 By Unknown
Copyright 2020 The Epilogue Project Authors (https://github.com/Etcetera-Type-Co/Epilogue)
</metadata>
<defs>
<font id="Epilogue-Bold" horiz-adv-x="0" >
  <font-face 
    font-family="Epilogue"
    font-weight="700"
    font-stretch="normal"
    units-per-em="2000"
    panose-1="0 0 0 0 0 0 0 0 0 0"
    ascent="1600"
    descent="-400"
    x-height="1062"
    cap-height="1475"
    bbox="-495 -470 2515 2233"
    underline-thickness="50"
    underline-position="-125"
    unicode-range="U+000D-FB02"
  />
<missing-glyph horiz-adv-x="669" 
d="M80 73v1344h509v-1344h-509zM119 107h431v1276h-431v-1276zM230 1048l-30 26l110 98l-110 98l30 25l109 -97l109 97l30 -25l-110 -98l110 -98l-30 -26l-109 98zM230 612l-30 26l109 98l-109 98l30 26l109 -98l109 98l30 -26l-109 -98l109 -98l-30 -26l-109 98zM230 176
l-30 26l109 98l-109 98l30 26l109 -98l109 98l30 -26l-109 -98l109 -98l-30 -26l-109 98z" />
    <glyph glyph-name="f_f" unicode="ff" horiz-adv-x="1762" 
d="M250 0v822h-221v240h221v73q0 132 44 218t114.5 135t153 69t159.5 20q65 0 98 -7.5t44 -12.5v-241q-12 3 -42.5 8.5t-65.5 5.5q-116 0 -156 -59t-40 -150v-59h285v-240h-285v-822h-309zM1131 0v822h-221v240h221v73q0 132 44 218t114.5 135t153 69t159.5 20q65 0 98 -7.5
t44 -12.5v-241q-12 3 -42.5 8.5t-65.5 5.5q-116 0 -156 -59t-40 -150v-59h285v-240h-285v-822h-309z" />
    <glyph glyph-name="f_f_i" unicode="ffi" horiz-adv-x="2287" 
d="M250 0v822h-221v240h221v73q0 132 44 218t114.5 135t153 69t159.5 20q65 0 98 -7.5t44 -12.5v-241q-12 3 -42.5 8.5t-65.5 5.5q-116 0 -156 -59t-40 -150v-59h285v-240h-285v-822h-309zM1131 0v822h-221v240h221v73q0 132 44 218t114.5 135t153 69t159.5 20q65 0 98 -7.5
t44 -12.5v-241q-12 3 -42.5 8.5t-65.5 5.5q-116 0 -156 -59t-40 -150v-59h285v-240h-285v-822h-309zM2024 1235q-72 0 -125.5 38t-53.5 107q0 70 53.5 108t125.5 38t126 -38t54 -108t-54 -107.5t-126 -37.5zM1871 0v1062h307v-1062h-307z" />
    <glyph glyph-name="f_f_l" unicode="ffl" horiz-adv-x="2330" 
d="M250 0v822h-221v240h221v73q0 132 44 218t114.5 135t153 69t159.5 20q65 0 98 -7.5t44 -12.5v-241q-12 3 -42.5 8.5t-65.5 5.5q-116 0 -156 -59t-40 -150v-59h285v-240h-285v-822h-309zM1131 0v822h-221v240h221v73q0 132 44 218t114.5 135t153 69t159.5 20q65 0 98 -7.5
t44 -12.5v-241q-12 3 -42.5 8.5t-65.5 5.5q-116 0 -156 -59t-40 -150v-59h285v-240h-285v-822h-309zM2204 1563v-1563h-306v1563h306z" />
    <glyph glyph-name="fi" unicode="fi" horiz-adv-x="1406" 
d="M250 0v822h-221v240h221v73q0 132 44 218t114.5 135t153 69t159.5 20q65 0 98 -7.5t44 -12.5v-241q-12 3 -42.5 8.5t-65.5 5.5q-116 0 -156 -59t-40 -150v-59h285v-240h-285v-822h-309zM1143 1235q-72 0 -125.5 38t-53.5 107q0 70 53.5 108t125.5 38t126 -38t54 -108
t-54 -107.5t-126 -37.5zM990 0v1062h307v-1062h-307z" />
    <glyph glyph-name="fl" unicode="fl" horiz-adv-x="1449" 
d="M250 0v822h-221v240h221v73q0 132 44 218t114.5 135t153 69t159.5 20q65 0 98 -7.5t44 -12.5v-241q-12 3 -42.5 8.5t-65.5 5.5q-116 0 -156 -59t-40 -150v-59h285v-240h-285v-822h-309zM1323 1563v-1563h-306v1563h306z" />
    <glyph glyph-name=".notdef" horiz-adv-x="669" 
d="M80 73v1344h509v-1344h-509zM119 107h431v1276h-431v-1276zM230 1048l-30 26l110 98l-110 98l30 25l109 -97l109 97l30 -25l-110 -98l110 -98l-30 -26l-109 98zM230 612l-30 26l109 98l-109 98l30 26l109 -98l109 98l30 -26l-109 -98l109 -98l-30 -26l-109 98zM230 176
l-30 26l109 98l-109 98l30 26l109 -98l109 98l30 -26l-109 -98l109 -98l-30 -26l-109 98z" />
    <glyph glyph-name="A" unicode="A" horiz-adv-x="1335" 
d="M55 0l368 1477h491l366 -1477h-318l-78 342h-432l-79 -342h-318zM508 584h321l-160 699z" />
    <glyph glyph-name="Aacute" unicode="&#xc1;" horiz-adv-x="1335" 
d="M55 0l368 1477h491l366 -1477h-318l-78 342h-432l-79 -342h-318zM508 584h321l-160 699zM502 1558l273 207h248l-305 -207h-216z" />
    <glyph glyph-name="Abreve" unicode="&#x102;" horiz-adv-x="1335" 
d="M55 0l368 1477h491l366 -1477h-318l-78 342h-432l-79 -342h-318zM508 584h321l-160 699zM379 1747h182q0 -38 28.5 -65.5t79.5 -27.5q52 0 80 27.5t28 65.5h182q0 -95 -82.5 -153.5t-207.5 -58.5t-207.5 58.5t-82.5 153.5z" />
    <glyph glyph-name="uni1EAE" unicode="&#x1eae;" horiz-adv-x="1335" 
d="M55 0l368 1477h491l366 -1477h-318l-78 342h-432l-79 -342h-318zM508 584h321l-160 699zM379 1747h182q0 -38 28.5 -65.5t79.5 -27.5q52 0 80 27.5t28 65.5h182q0 -95 -82.5 -153.5t-207.5 -58.5t-207.5 58.5t-82.5 153.5zM502 1822l273 207h248l-305 -207h-216z" />
    <glyph glyph-name="uni1EB6" unicode="&#x1eb6;" horiz-adv-x="1335" 
d="M55 0l368 1477h491l366 -1477h-318l-78 342h-432l-79 -342h-318zM508 584h321l-160 699zM667 -412q-72 0 -125.5 38t-53.5 107q0 70 53.5 108t125.5 38t126 -38t54 -108t-54 -107.5t-126 -37.5zM379 1747h182q0 -38 28.5 -65.5t79.5 -27.5q52 0 80 27.5t28 65.5h182
q0 -95 -82.5 -153.5t-207.5 -58.5t-207.5 58.5t-82.5 153.5z" />
    <glyph glyph-name="uni1EB0" unicode="&#x1eb0;" horiz-adv-x="1335" 
d="M55 0l368 1477h491l366 -1477h-318l-78 342h-432l-79 -342h-318zM508 584h321l-160 699zM379 1747h182q0 -38 28.5 -65.5t79.5 -27.5q52 0 80 27.5t28 65.5h182q0 -95 -82.5 -153.5t-207.5 -58.5t-207.5 58.5t-82.5 153.5zM838 1822h-217l-304 207h248z" />
    <glyph glyph-name="uni1EB2" unicode="&#x1eb2;" horiz-adv-x="1335" 
d="M55 0l368 1477h491l366 -1477h-318l-78 342h-432l-79 -342h-318zM508 584h321l-160 699zM379 1747h182q0 -38 28.5 -65.5t79.5 -27.5q52 0 80 27.5t28 65.5h182q0 -95 -82.5 -153.5t-207.5 -58.5t-207.5 58.5t-82.5 153.5zM454 2070q112 0 206.5 -9t152 -37.5t57.5 -89.5
q0 -79 -82.5 -115.5t-202.5 -36.5l-32 82q32 2 71 7t67.5 17t28.5 34q0 32 -70 41.5t-196 9.5v97z" />
    <glyph glyph-name="uni1EB4" unicode="&#x1eb4;" horiz-adv-x="1335" 
d="M55 0l368 1477h491l366 -1477h-318l-78 342h-432l-79 -342h-318zM508 584h321l-160 699zM379 1747h182q0 -38 28.5 -65.5t79.5 -27.5q52 0 80 27.5t28 65.5h182q0 -95 -82.5 -153.5t-207.5 -58.5t-207.5 58.5t-82.5 153.5zM1008 2035q0 -51 -21.5 -103.5t-65 -87.5
t-112.5 -35q-53 0 -89 21t-59 40q-21 20 -42.5 34.5t-49.5 14.5q-34 0 -50 -25t-17 -64h-157q0 52 23 105t68.5 88.5t115.5 35.5q50 0 85.5 -21t58.5 -41q22 -20 45.5 -34.5t48.5 -14.5q31 0 45.5 24t15.5 63h157z" />
    <glyph glyph-name="uni01CD" unicode="&#x1cd;" horiz-adv-x="1335" 
d="M55 0l368 1477h491l366 -1477h-318l-78 342h-432l-79 -342h-318zM508 584h321l-160 699zM327 1763h199l142 -125l143 125h200l-240 -206h-203z" />
    <glyph glyph-name="Acircumflex" unicode="&#xc2;" horiz-adv-x="1335" 
d="M55 0l368 1477h491l366 -1477h-318l-78 342h-432l-79 -342h-318zM508 584h321l-160 699zM327 1557l241 206h203l240 -206h-200l-143 126l-142 -126h-199z" />
    <glyph glyph-name="uni1EA4" unicode="&#x1ea4;" horiz-adv-x="1335" 
d="M55 0l368 1477h491l366 -1477h-318l-78 342h-432l-79 -342h-318zM508 584h321l-160 699zM895 1714l223 207h202l-238 -207h-187zM327 1557l241 206h203l240 -206h-200l-143 125l-143 -125h-198z" />
    <glyph glyph-name="uni1EAC" unicode="&#x1eac;" horiz-adv-x="1335" 
d="M55 0l368 1477h491l366 -1477h-318l-78 342h-432l-79 -342h-318zM508 584h321l-160 699zM667 -412q-72 0 -125.5 38t-53.5 107q0 70 53.5 108t125.5 38t126 -38t54 -108t-54 -107.5t-126 -37.5zM327 1557l241 206h203l240 -206h-200l-143 126l-142 -126h-199z" />
    <glyph glyph-name="uni1EA6" unicode="&#x1ea6;" horiz-adv-x="1335" 
d="M55 0l368 1477h491l366 -1477h-318l-78 342h-432l-79 -342h-318zM508 584h321l-160 699zM1176 1714h-187l-238 207h202zM330 1557l241 206h203l240 -206h-200l-143 126l-142 -126h-199z" />
    <glyph glyph-name="uni1EA8" unicode="&#x1ea8;" horiz-adv-x="1335" 
d="M55 0l368 1477h491l366 -1477h-318l-78 342h-432l-79 -342h-318zM508 584h321l-160 699zM790 1996q112 0 206.5 -8.5t151.5 -37.5t57 -90q0 -79 -82 -115t-203 -36l-31 81q31 2 70.5 7.5t68 17.5t28.5 33q0 33 -70 42t-196 9v97zM328 1557l241 206h203l240 -206h-200
l-143 126l-142 -126h-199z" />
    <glyph glyph-name="uni1EAA" unicode="&#x1eaa;" horiz-adv-x="1335" 
d="M55 0l368 1477h491l366 -1477h-318l-78 342h-432l-79 -342h-318zM508 584h321l-160 699zM327 1557l241 206h203l240 -206h-200l-143 126l-142 -126h-199zM1008 2059q0 -51 -21.5 -103.5t-65 -87.5t-112.5 -35q-53 0 -89 21t-59 40q-21 20 -42.5 34.5t-49.5 14.5
q-34 0 -50 -25t-17 -64h-157q0 52 23 105t68.5 88.5t115.5 35.5q50 0 85.5 -21t58.5 -41q22 -20 45.5 -34.5t48.5 -14.5q31 0 45.5 24t15.5 63h157z" />
    <glyph glyph-name="uni0200" unicode="&#x200;" horiz-adv-x="1335" 
d="M55 0l368 1477h491l366 -1477h-318l-78 342h-432l-79 -342h-318zM508 584h321l-160 699zM923 1557h-168l-207 209h191zM591 1557h-168l-229 209h191z" />
    <glyph glyph-name="Adieresis" unicode="&#xc4;" horiz-adv-x="1335" 
d="M55 0l368 1477h491l366 -1477h-318l-78 342h-432l-79 -342h-318zM508 584h321l-160 699zM429 1542q-66 0 -115.5 35t-49.5 99t49.5 99t115.5 35q65 0 114.5 -35t49.5 -99t-49.5 -99t-114.5 -35zM911 1542q-66 0 -115 35t-49 99t49 99t115 35t115.5 -35t49.5 -99
t-49.5 -99t-115.5 -35z" />
    <glyph glyph-name="uni01DE" unicode="&#x1de;" horiz-adv-x="1335" 
d="M55 0l368 1477h491l366 -1477h-318l-78 342h-432l-79 -342h-318zM508 584h321l-160 699zM429 1542q-66 0 -115.5 35t-49.5 99t49.5 99t115.5 35q65 0 114.5 -35t49.5 -99t-49.5 -99t-114.5 -35zM911 1542q-66 0 -115 35t-49 99t49 99t115 35t115.5 -35t49.5 -99
t-49.5 -99t-115.5 -35zM357 1904v129h623v-129h-623z" />
    <glyph glyph-name="uni1EA0" unicode="&#x1ea0;" horiz-adv-x="1335" 
d="M55 0l368 1477h491l366 -1477h-318l-78 342h-432l-79 -342h-318zM508 584h321l-160 699zM667 -412q-72 0 -125.5 38t-53.5 107q0 70 53.5 108t125.5 38t126 -38t54 -108t-54 -107.5t-126 -37.5z" />
    <glyph glyph-name="Agrave" unicode="&#xc0;" horiz-adv-x="1335" 
d="M55 0l368 1477h491l366 -1477h-318l-78 342h-432l-79 -342h-318zM508 584h321l-160 699zM838 1558h-217l-304 207h248z" />
    <glyph glyph-name="uni1EA2" unicode="&#x1ea2;" horiz-adv-x="1335" 
d="M55 0l368 1477h491l366 -1477h-318l-78 342h-432l-79 -342h-318zM508 584h321l-160 699zM454 1806q112 0 206.5 -9t152 -37.5t57.5 -89.5q0 -79 -82.5 -115.5t-202.5 -36.5l-32 82q32 2 71 7t67.5 17t28.5 34q0 32 -70 41.5t-196 9.5v97z" />
    <glyph glyph-name="uni0202" unicode="&#x202;" horiz-adv-x="1335" 
d="M55 0l368 1477h491l366 -1477h-318l-78 342h-432l-79 -342h-318zM508 584h321l-160 699zM379 1552q0 96 82.5 152.5t207.5 56.5t207.5 -56.5t82.5 -152.5h-181q0 38 -28.5 64.5t-80.5 26.5q-51 0 -80 -26.5t-29 -64.5h-181z" />
    <glyph glyph-name="Amacron" unicode="&#x100;" horiz-adv-x="1335" 
d="M55 0l368 1477h491l366 -1477h-318l-78 342h-432l-79 -342h-318zM508 584h321l-160 699zM357 1609v129h623v-129h-623z" />
    <glyph glyph-name="Aogonek" unicode="&#x104;" horiz-adv-x="1335" 
d="M55 0l368 1477h491l366 -1477h-318l-78 342h-432l-79 -342h-318zM508 584h321l-160 699zM1280 -296v-148q-20 -3 -44 -4.5t-49 -1.5q-67 0 -126 16t-96 52t-37 97q0 60 36 116t83 100.5t81 68.5h152q-29 -25 -69.5 -68t-71.5 -89t-31 -80q0 -38 28 -52t68 -14
q19 0 39.5 2t36.5 5z" />
    <glyph glyph-name="Aring" unicode="&#xc5;" horiz-adv-x="1335" 
d="M55 0l368 1477h491l366 -1477h-318l-78 342h-432l-79 -342h-318zM508 584h321l-160 699zM669 1517q-63 0 -115 31t-83 83t-31 115t31 115t83 83t115 31t115 -31t83 -83t31 -115t-31 -115t-83 -83t-115 -31zM669 1651q40 0 67.5 27.5t27.5 67.5t-27.5 68t-67.5 28
t-67.5 -28t-27.5 -68t27.5 -67.5t67.5 -27.5z" />
    <glyph glyph-name="Aringacute" unicode="&#x1fa;" horiz-adv-x="1335" 
d="M55 0l368 1477h491l366 -1477h-318l-78 342h-432l-79 -342h-318zM508 584h321l-160 699zM669 1517q-63 0 -115 31t-83 83t-31 115t31 115t83 83t115 31t115 -31t83 -83t31 -115t-31 -115t-83 -83t-115 -31zM669 1651q40 0 67.5 27.5t27.5 67.5t-27.5 68t-67.5 28
t-67.5 -28t-27.5 -68t27.5 -67.5t67.5 -27.5zM502 2026l273 207h248l-305 -207h-216z" />
    <glyph glyph-name="Atilde" unicode="&#xc3;" horiz-adv-x="1335" 
d="M55 0l368 1477h491l366 -1477h-318l-78 342h-432l-79 -342h-318zM508 584h321l-160 699zM1008 1771q0 -51 -21.5 -103.5t-65 -87.5t-112.5 -35q-53 0 -89 21t-59 40q-21 20 -42.5 34.5t-49.5 14.5q-34 0 -50 -25t-17 -64h-157q0 52 23 105t68.5 88.5t115.5 35.5
q50 0 85.5 -21t58.5 -41q22 -20 45.5 -34.5t48.5 -14.5q31 0 45.5 24t15.5 63h157z" />
    <glyph glyph-name="AE" unicode="&#xc6;" horiz-adv-x="1988" 
d="M0 0l846 1475h1019v-240h-599v-375h488v-240h-488v-380h599v-240h-897v286h-475l-156 -286h-337zM618 517h350v641z" />
    <glyph glyph-name="AEacute" unicode="&#x1fc;" horiz-adv-x="1988" 
d="M0 0l846 1475h1019v-240h-599v-375h488v-240h-488v-380h599v-240h-897v286h-475l-156 -286h-337zM618 517h350v641zM1033 1558l273 207h248l-305 -207h-216z" />
    <glyph glyph-name="B" unicode="B" horiz-adv-x="1282" 
d="M705 1475q231 0 340.5 -96t109.5 -260q0 -109 -43 -185.5t-109 -118.5t-134 -46q71 -2 146 -36.5t126 -111t51 -203.5q0 -121 -48.5 -215.5t-156 -148.5t-285.5 -54h-580v1475h583zM626 1235h-207v-356h191q118 0 177 50.5t59 136.5q0 169 -220 169zM642 241
q115 0 174 52.5t59 142.5q0 101 -67 153t-178 52h-211v-400h223z" />
    <glyph glyph-name="C" unicode="C" horiz-adv-x="1411" 
d="M1329 539q0 -96 -36 -195t-110 -182.5t-187 -134.5t-266 -51q-205 0 -350 97.5t-221.5 269t-76.5 395.5q0 223 76.5 394.5t221.5 268t350 96.5q170 0 290.5 -62t193 -161t99.5 -209q16 -67 16 -129h-311q0 30 -5 58q-15 109 -88 181.5t-195 72.5q-144 0 -238 -124.5
t-94 -385.5q0 -262 94 -387.5t238 -125.5q92 0 156 44t98 115.5t34 154.5h311z" />
    <glyph glyph-name="Cacute" unicode="&#x106;" horiz-adv-x="1411" 
d="M1329 539q0 -96 -36 -195t-110 -182.5t-187 -134.5t-266 -51q-205 0 -350 97.5t-221.5 269t-76.5 395.5q0 223 76.5 394.5t221.5 268t350 96.5q170 0 290.5 -62t193 -161t99.5 -209q16 -67 16 -129h-311q0 30 -5 58q-15 109 -88 181.5t-195 72.5q-144 0 -238 -124.5
t-94 -385.5q0 -262 94 -387.5t238 -125.5q92 0 156 44t98 115.5t34 154.5h311zM555 1558l273 207h248l-305 -207h-216z" />
    <glyph glyph-name="Ccaron" unicode="&#x10c;" horiz-adv-x="1411" 
d="M1329 539q0 -96 -36 -195t-110 -182.5t-187 -134.5t-266 -51q-205 0 -350 97.5t-221.5 269t-76.5 395.5q0 223 76.5 394.5t221.5 268t350 96.5q170 0 290.5 -62t193 -161t99.5 -209q16 -67 16 -129h-311q0 30 -5 58q-15 109 -88 181.5t-195 72.5q-144 0 -238 -124.5
t-94 -385.5q0 -262 94 -387.5t238 -125.5q92 0 156 44t98 115.5t34 154.5h311zM380 1763h199l142 -125l143 125h200l-240 -206h-203z" />
    <glyph glyph-name="Ccedilla" unicode="&#xc7;" horiz-adv-x="1411" 
d="M835 -74q53 0 103 -34.5t50 -114.5q0 -67 -40 -109.5t-103.5 -63t-133.5 -20.5q-63 0 -126.5 16t-89.5 33l61 113q19 -11 66.5 -28.5t99.5 -17.5q56 0 93.5 21t37.5 62q0 32 -19.5 47t-47.5 15q-24 0 -48 -9t-36 -26l-117 33l63 138q-182 20 -308.5 124.5t-192 268.5
t-65.5 364q0 214 75.5 386t220 272.5t352.5 100.5q170 0 290.5 -62t193 -161t99.5 -209q16 -67 16 -129h-311q0 30 -5 58q-15 109 -88 181.5t-195 72.5q-144 0 -238 -124.5t-94 -385.5q0 -262 94 -387.5t238 -125.5q92 0 156 44t98 115.5t34 154.5h311q0 -92 -33.5 -187
t-101 -176.5t-171.5 -135t-244 -62.5l-35 -75q35 23 91 23z" />
    <glyph glyph-name="uni1E08" unicode="&#x1e08;" horiz-adv-x="1411" 
d="M835 -74q53 0 103 -34.5t50 -114.5q0 -67 -40 -109.5t-103.5 -63t-133.5 -20.5q-63 0 -126.5 16t-89.5 33l61 113q19 -11 66.5 -28.5t99.5 -17.5q56 0 93.5 21t37.5 62q0 32 -19.5 47t-47.5 15q-24 0 -48 -9t-36 -26l-117 33l63 138q-182 20 -308.5 124.5t-192 268.5
t-65.5 364q0 214 75.5 386t220 272.5t352.5 100.5q170 0 290.5 -62t193 -161t99.5 -209q16 -67 16 -129h-311q0 30 -5 58q-15 109 -88 181.5t-195 72.5q-144 0 -238 -124.5t-94 -385.5q0 -262 94 -387.5t238 -125.5q92 0 156 44t98 115.5t34 154.5h311q0 -92 -33.5 -187
t-101 -176.5t-171.5 -135t-244 -62.5l-35 -75q35 23 91 23zM555 1558l273 207h248l-305 -207h-216z" />
    <glyph glyph-name="Ccircumflex" unicode="&#x108;" horiz-adv-x="1411" 
d="M1329 539q0 -96 -36 -195t-110 -182.5t-187 -134.5t-266 -51q-205 0 -350 97.5t-221.5 269t-76.5 395.5q0 223 76.5 394.5t221.5 268t350 96.5q170 0 290.5 -62t193 -161t99.5 -209q16 -67 16 -129h-311q0 30 -5 58q-15 109 -88 181.5t-195 72.5q-144 0 -238 -124.5
t-94 -385.5q0 -262 94 -387.5t238 -125.5q92 0 156 44t98 115.5t34 154.5h311zM380 1557l241 206h203l240 -206h-200l-143 126l-142 -126h-199z" />
    <glyph glyph-name="Cdotaccent" unicode="&#x10a;" horiz-adv-x="1411" 
d="M1329 539q0 -96 -36 -195t-110 -182.5t-187 -134.5t-266 -51q-205 0 -350 97.5t-221.5 269t-76.5 395.5q0 223 76.5 394.5t221.5 268t350 96.5q170 0 290.5 -62t193 -161t99.5 -209q16 -67 16 -129h-311q0 30 -5 58q-15 109 -88 181.5t-195 72.5q-144 0 -238 -124.5
t-94 -385.5q0 -262 94 -387.5t238 -125.5q92 0 156 44t98 115.5t34 154.5h311zM725 1563q-72 0 -125.5 38t-53.5 107q0 70 53.5 107.5t125.5 37.5t125.5 -37.5t53.5 -107.5t-53.5 -107.5t-125.5 -37.5z" />
    <glyph glyph-name="D" unicode="D" horiz-adv-x="1342" 
d="M122 0v1475h477q197 0 345.5 -93t231.5 -259t83 -383q0 -218 -83 -384.5t-231.5 -261t-345.5 -94.5h-477zM559 1235h-125v-995h125q108 0 195.5 60.5t138.5 172.5t51 267q0 154 -51 265t-138.5 170.5t-195.5 59.5z" />
    <glyph glyph-name="uni01C4" unicode="&#x1c4;" horiz-adv-x="2418" 
d="M122 0v1475h477q197 0 345.5 -93t231.5 -259t83 -383q0 -218 -83 -384.5t-231.5 -261t-345.5 -94.5h-477zM559 1235h-125v-995h125q108 0 195.5 60.5t138.5 172.5t51 267q0 154 -51 265t-138.5 170.5t-195.5 59.5zM1684 241h636v-241h-983v208l646 1027h-601v240h948
v-205l-646 -1027v-2zM1496 1763h199l142 -125l143 125h200l-240 -206h-203z" />
    <glyph glyph-name="Eth" unicode="&#xd0;" horiz-adv-x="1342" 
d="M122 0v665h-112v141h112v669h477q197 0 345.5 -93t231.5 -259t83 -383q0 -218 -83 -384.5t-231.5 -261t-345.5 -94.5h-477zM739 665h-305v-425h125q108 0 195.5 60.5t138.5 172.5t51 267q0 154 -51 265t-138.5 170.5t-195.5 59.5h-125v-429h305v-141z" />
    <glyph glyph-name="Dcaron" unicode="&#x10e;" horiz-adv-x="1342" 
d="M122 0v1475h477q197 0 345.5 -93t231.5 -259t83 -383q0 -218 -83 -384.5t-231.5 -261t-345.5 -94.5h-477zM559 1235h-125v-995h125q108 0 195.5 60.5t138.5 172.5t51 267q0 154 -51 265t-138.5 170.5t-195.5 59.5zM294 1763h199l142 -125l143 125h200l-240 -206h-203z
" />
    <glyph glyph-name="Dcroat" unicode="&#x110;" horiz-adv-x="1342" 
d="M122 0v1475h477q197 0 345.5 -93t231.5 -259t83 -383q0 -218 -83 -384.5t-231.5 -261t-345.5 -94.5h-477zM559 1235h-125v-995h125q108 0 195.5 60.5t138.5 172.5t51 267q0 154 -51 265t-138.5 170.5t-195.5 59.5zM10 665v141h729v-141h-729z" />
    <glyph glyph-name="uni1E0C" unicode="&#x1e0c;" horiz-adv-x="1342" 
d="M122 0v1475h477q197 0 345.5 -93t231.5 -259t83 -383q0 -218 -83 -384.5t-231.5 -261t-345.5 -94.5h-477zM559 1235h-125v-995h125q108 0 195.5 60.5t138.5 172.5t51 267q0 154 -51 265t-138.5 170.5t-195.5 59.5zM636 -412q-72 0 -125.5 38t-53.5 107q0 70 53.5 108
t125.5 38t126 -38t54 -108t-54 -107.5t-126 -37.5z" />
    <glyph glyph-name="uni1E0E" unicode="&#x1e0e;" horiz-adv-x="1342" 
d="M122 0v1475h477q197 0 345.5 -93t231.5 -259t83 -383q0 -218 -83 -384.5t-231.5 -261t-345.5 -94.5h-477zM559 1235h-125v-995h125q108 0 195.5 60.5t138.5 172.5t51 267q0 154 -51 265t-138.5 170.5t-195.5 59.5zM310 -303v129h651v-129h-651z" />
    <glyph glyph-name="uni01C5" unicode="&#x1c5;" horiz-adv-x="2371" 
d="M122 0v1475h477q197 0 345.5 -93t231.5 -259t83 -383q0 -218 -83 -384.5t-231.5 -261t-345.5 -94.5h-477zM559 1235h-125v-995h125q108 0 195.5 60.5t138.5 172.5t51 267q0 154 -51 265t-138.5 170.5t-195.5 59.5zM2310 243v-243h-908v230l552 590h-532v242h876v-230
l-548 -589h560zM1521 1475h196l143 -167l143 167h197l-239 -272h-200z" />
    <glyph glyph-name="E" unicode="E" horiz-adv-x="1141" 
d="M1019 240v-240h-897v1475h897v-240h-585v-375h474v-240h-474v-380h585z" />
    <glyph glyph-name="Eacute" unicode="&#xc9;" horiz-adv-x="1141" 
d="M1019 240v-240h-897v1475h897v-240h-585v-375h474v-240h-474v-380h585zM417 1558l273 207h248l-305 -207h-216z" />
    <glyph glyph-name="Ebreve" unicode="&#x114;" horiz-adv-x="1141" 
d="M1019 240v-240h-897v1475h897v-240h-585v-375h474v-240h-474v-380h585zM294 1747h182q0 -38 28.5 -65.5t79.5 -27.5q52 0 80 27.5t28 65.5h182q0 -95 -82.5 -153.5t-207.5 -58.5t-207.5 58.5t-82.5 153.5z" />
    <glyph glyph-name="Ecaron" unicode="&#x11a;" horiz-adv-x="1141" 
d="M1019 240v-240h-897v1475h897v-240h-585v-375h474v-240h-474v-380h585zM242 1763h199l142 -125l143 125h200l-240 -206h-203z" />
    <glyph glyph-name="uni0228" unicode="&#x228;" horiz-adv-x="1141" 
d="M1019 240v-240h-897v1475h897v-240h-585v-375h474v-240h-474v-380h585zM699 -74q53 0 103 -34.5t50 -114.5q0 -67 -40 -109.5t-103.5 -63t-133.5 -20.5q-63 0 -126.5 16t-89.5 33l60 113q19 -11 66.5 -28.5t99.5 -17.5q56 0 93.5 21t37.5 62q0 32 -19 47t-47 15
q-24 0 -48.5 -9t-35.5 -26l-117 33l72 157h132l-45 -97q35 23 91 23z" />
    <glyph glyph-name="uni1E1C" unicode="&#x1e1c;" horiz-adv-x="1141" 
d="M1019 240v-240h-897v1475h897v-240h-585v-375h474v-240h-474v-380h585zM699 -74q53 0 103 -34.5t50 -114.5q0 -67 -40 -109.5t-103.5 -63t-133.5 -20.5q-63 0 -126.5 16t-89.5 33l60 113q19 -11 66.5 -28.5t99.5 -17.5q56 0 93.5 21t37.5 62q0 32 -19 47t-47 15
q-24 0 -48.5 -9t-35.5 -26l-117 33l72 157h132l-45 -97q35 23 91 23zM294 1747h182q0 -38 28.5 -65.5t79.5 -27.5q52 0 80 27.5t28 65.5h182q0 -95 -82.5 -153.5t-207.5 -58.5t-207.5 58.5t-82.5 153.5z" />
    <glyph glyph-name="Ecircumflex" unicode="&#xca;" horiz-adv-x="1141" 
d="M1019 240v-240h-897v1475h897v-240h-585v-375h474v-240h-474v-380h585zM242 1557l241 206h203l240 -206h-200l-143 126l-142 -126h-199z" />
    <glyph glyph-name="uni1EBE" unicode="&#x1ebe;" horiz-adv-x="1141" 
d="M1019 240v-240h-897v1475h897v-240h-585v-375h474v-240h-474v-380h585zM810 1714l223 207h202l-238 -207h-187zM242 1557l241 206h203l240 -206h-200l-143 125l-143 -125h-198z" />
    <glyph glyph-name="uni1EC6" unicode="&#x1ec6;" horiz-adv-x="1141" 
d="M1019 240v-240h-897v1475h897v-240h-585v-375h474v-240h-474v-380h585zM591 -412q-72 0 -125.5 38t-53.5 107q0 70 53.5 108t125.5 38t126 -38t54 -108t-54 -107.5t-126 -37.5zM242 1557l241 206h203l240 -206h-200l-143 126l-142 -126h-199z" />
    <glyph glyph-name="uni1EC0" unicode="&#x1ec0;" horiz-adv-x="1141" 
d="M1019 240v-240h-897v1475h897v-240h-585v-375h474v-240h-474v-380h585zM1091 1714h-187l-238 207h202zM245 1557l241 206h203l240 -206h-200l-143 126l-142 -126h-199z" />
    <glyph glyph-name="uni1EC2" unicode="&#x1ec2;" horiz-adv-x="1141" 
d="M1019 240v-240h-897v1475h897v-240h-585v-375h474v-240h-474v-380h585zM705 1996q112 0 206.5 -8.5t151.5 -37.5t57 -90q0 -79 -82 -115t-203 -36l-31 81q31 2 70.5 7.5t68 17.5t28.5 33q0 33 -70 42t-196 9v97zM243 1557l241 206h203l240 -206h-200l-143 126l-142 -126
h-199z" />
    <glyph glyph-name="uni1EC4" unicode="&#x1ec4;" horiz-adv-x="1141" 
d="M1019 240v-240h-897v1475h897v-240h-585v-375h474v-240h-474v-380h585zM242 1557l241 206h203l240 -206h-200l-143 126l-142 -126h-199zM923 2059q0 -51 -21.5 -103.5t-65 -87.5t-112.5 -35q-53 0 -89 21t-59 40q-21 20 -42.5 34.5t-49.5 14.5q-34 0 -50 -25t-17 -64
h-157q0 52 23 105t68.5 88.5t115.5 35.5q50 0 85.5 -21t58.5 -41q22 -20 45.5 -34.5t48.5 -14.5q31 0 45.5 24t15.5 63h157z" />
    <glyph glyph-name="uni0204" unicode="&#x204;" horiz-adv-x="1141" 
d="M1019 240v-240h-897v1475h897v-240h-585v-375h474v-240h-474v-380h585zM838 1557h-168l-207 209h191zM506 1557h-168l-229 209h191z" />
    <glyph glyph-name="Edieresis" unicode="&#xcb;" horiz-adv-x="1141" 
d="M1019 240v-240h-897v1475h897v-240h-585v-375h474v-240h-474v-380h585zM344 1542q-66 0 -115.5 35t-49.5 99t49.5 99t115.5 35q65 0 114.5 -35t49.5 -99t-49.5 -99t-114.5 -35zM826 1542q-66 0 -115 35t-49 99t49 99t115 35t115.5 -35t49.5 -99t-49.5 -99t-115.5 -35z
" />
    <glyph glyph-name="Edotaccent" unicode="&#x116;" horiz-adv-x="1141" 
d="M1019 240v-240h-897v1475h897v-240h-585v-375h474v-240h-474v-380h585zM587 1563q-72 0 -125.5 38t-53.5 107q0 70 53.5 107.5t125.5 37.5t125.5 -37.5t53.5 -107.5t-53.5 -107.5t-125.5 -37.5z" />
    <glyph glyph-name="uni1EB8" unicode="&#x1eb8;" horiz-adv-x="1141" 
d="M1019 240v-240h-897v1475h897v-240h-585v-375h474v-240h-474v-380h585zM591 -412q-72 0 -125.5 38t-53.5 107q0 70 53.5 108t125.5 38t126 -38t54 -108t-54 -107.5t-126 -37.5z" />
    <glyph glyph-name="Egrave" unicode="&#xc8;" horiz-adv-x="1141" 
d="M1019 240v-240h-897v1475h897v-240h-585v-375h474v-240h-474v-380h585zM753 1558h-217l-304 207h248z" />
    <glyph glyph-name="uni1EBA" unicode="&#x1eba;" horiz-adv-x="1141" 
d="M1019 240v-240h-897v1475h897v-240h-585v-375h474v-240h-474v-380h585zM369 1806q112 0 206.5 -9t152 -37.5t57.5 -89.5q0 -79 -82.5 -115.5t-202.5 -36.5l-32 82q32 2 71 7t67.5 17t28.5 34q0 32 -70 41.5t-196 9.5v97z" />
    <glyph glyph-name="uni0206" unicode="&#x206;" horiz-adv-x="1141" 
d="M1019 240v-240h-897v1475h897v-240h-585v-375h474v-240h-474v-380h585zM294 1552q0 96 82.5 152.5t207.5 56.5t207.5 -56.5t82.5 -152.5h-181q0 38 -28.5 64.5t-80.5 26.5q-51 0 -80 -26.5t-29 -64.5h-181z" />
    <glyph glyph-name="Emacron" unicode="&#x112;" horiz-adv-x="1141" 
d="M1019 240v-240h-897v1475h897v-240h-585v-375h474v-240h-474v-380h585zM272 1609v129h623v-129h-623z" />
    <glyph glyph-name="uni1E16" unicode="&#x1e16;" horiz-adv-x="1141" 
d="M1019 240v-240h-897v1475h897v-240h-585v-375h474v-240h-474v-380h585zM272 1609v129h623v-129h-623zM417 1821l273 207h248l-305 -207h-216z" />
    <glyph glyph-name="uni1E14" unicode="&#x1e14;" horiz-adv-x="1141" 
d="M1019 240v-240h-897v1475h897v-240h-585v-375h474v-240h-474v-380h585zM272 1609v129h623v-129h-623zM753 1821h-217l-304 207h248z" />
    <glyph glyph-name="Eogonek" unicode="&#x118;" horiz-adv-x="1141" 
d="M1019 240v-240h-897v1475h897v-240h-585v-375h474v-240h-474v-380h585zM1019 -296v-148q-20 -3 -44 -4.5t-49 -1.5q-67 0 -126 16t-96 52t-37 97q0 60 36 116t83 100.5t81 68.5h152q-29 -25 -69.5 -68t-71.5 -89t-31 -80q0 -38 28 -52t68 -14q19 0 39.5 2t36.5 5z" />
    <glyph glyph-name="uni1EBC" unicode="&#x1ebc;" horiz-adv-x="1141" 
d="M1019 240v-240h-897v1475h897v-240h-585v-375h474v-240h-474v-380h585zM923 1771q0 -51 -21.5 -103.5t-65 -87.5t-112.5 -35q-53 0 -89 21t-59 40q-21 20 -42.5 34.5t-49.5 14.5q-34 0 -50 -25t-17 -64h-157q0 52 23 105t68.5 88.5t115.5 35.5q50 0 85.5 -21t58.5 -41
q22 -20 45.5 -34.5t48.5 -14.5q31 0 45.5 24t15.5 63h157z" />
    <glyph glyph-name="uni01B7" unicode="&#x1b7;" horiz-adv-x="1249" 
d="M615 -24q-150 0 -250 40t-158.5 109.5t-83 159t-24.5 189.5v4h310v-4q0 -149 56.5 -203t153.5 -54q84 0 137 48t53 168t-64 167t-231 47h-109l358 588h-613v240h929v-222l-271 -424q150 0 231 -102t81 -268q0 -139 -53 -248t-164.5 -172t-287.5 -63z" />
    <glyph glyph-name="uni01EE" unicode="&#x1ee;" horiz-adv-x="1249" 
d="M615 -24q-150 0 -250 40t-158.5 109.5t-83 159t-24.5 189.5v4h310v-4q0 -149 56.5 -203t153.5 -54q84 0 137 48t53 168t-64 167t-231 47h-109l358 588h-613v240h929v-222l-271 -424q150 0 231 -102t81 -268q0 -139 -53 -248t-164.5 -172t-287.5 -63zM283 1763h199
l142 -125l143 125h200l-240 -206h-203z" />
    <glyph glyph-name="F" unicode="F" horiz-adv-x="1121" 
d="M939 600h-507v-600h-310v1475h906v-240h-596v-395h507v-240z" />
    <glyph glyph-name="G" unicode="G" horiz-adv-x="1436" 
d="M713 -24q-175 0 -318 87.5t-228 256.5t-85 414t89 415.5t239.5 259t336.5 88.5q154 0 262.5 -50t175.5 -128.5t98 -165t31 -158.5v-12h-302v12q0 62 -30 120t-89 95.5t-146 37.5q-88 0 -168.5 -50t-131 -162.5t-50.5 -301.5q0 -192 49 -303t127 -158.5t166 -47.5
q90 0 152 30.5t96.5 75.5t45.5 89v96h-292v224h567v-740h-163l-28 163q-10 -26 -53.5 -70.5t-128.5 -80.5t-222 -36z" />
    <glyph glyph-name="Gbreve" unicode="&#x11e;" horiz-adv-x="1436" 
d="M713 -24q-175 0 -318 87.5t-228 256.5t-85 414t89 415.5t239.5 259t336.5 88.5q154 0 262.5 -50t175.5 -128.5t98 -165t31 -158.5v-12h-302v12q0 62 -30 120t-89 95.5t-146 37.5q-88 0 -168.5 -50t-131 -162.5t-50.5 -301.5q0 -192 49 -303t127 -158.5t166 -47.5
q90 0 152 30.5t96.5 75.5t45.5 89v96h-292v224h567v-740h-163l-28 163q-10 -26 -53.5 -70.5t-128.5 -80.5t-222 -36zM449 1747h182q0 -38 28.5 -65.5t79.5 -27.5q52 0 80 27.5t28 65.5h182q0 -95 -82.5 -153.5t-207.5 -58.5t-207.5 58.5t-82.5 153.5z" />
    <glyph glyph-name="Gcaron" unicode="&#x1e6;" horiz-adv-x="1436" 
d="M713 -24q-175 0 -318 87.5t-228 256.5t-85 414t89 415.5t239.5 259t336.5 88.5q154 0 262.5 -50t175.5 -128.5t98 -165t31 -158.5v-12h-302v12q0 62 -30 120t-89 95.5t-146 37.5q-88 0 -168.5 -50t-131 -162.5t-50.5 -301.5q0 -192 49 -303t127 -158.5t166 -47.5
q90 0 152 30.5t96.5 75.5t45.5 89v96h-292v224h567v-740h-163l-28 163q-10 -26 -53.5 -70.5t-128.5 -80.5t-222 -36zM396 1763h199l142 -125l143 125h200l-240 -206h-203z" />
    <glyph glyph-name="Gcircumflex" unicode="&#x11c;" horiz-adv-x="1436" 
d="M713 -24q-175 0 -318 87.5t-228 256.5t-85 414t89 415.5t239.5 259t336.5 88.5q154 0 262.5 -50t175.5 -128.5t98 -165t31 -158.5v-12h-302v12q0 62 -30 120t-89 95.5t-146 37.5q-88 0 -168.5 -50t-131 -162.5t-50.5 -301.5q0 -192 49 -303t127 -158.5t166 -47.5
q90 0 152 30.5t96.5 75.5t45.5 89v96h-292v224h567v-740h-163l-28 163q-10 -26 -53.5 -70.5t-128.5 -80.5t-222 -36zM396 1557l241 206h203l240 -206h-200l-143 126l-142 -126h-199z" />
    <glyph glyph-name="uni0122" unicode="&#x122;" horiz-adv-x="1436" 
d="M713 -24q-175 0 -318 87.5t-228 256.5t-85 414t89 415.5t239.5 259t336.5 88.5q154 0 262.5 -50t175.5 -128.5t98 -165t31 -158.5v-12h-302v12q0 62 -30 120t-89 95.5t-146 37.5q-88 0 -168.5 -50t-131 -162.5t-50.5 -301.5q0 -192 49 -303t127 -158.5t166 -47.5
q90 0 152 30.5t96.5 75.5t45.5 89v96h-292v224h567v-740h-163l-28 163q-10 -26 -53.5 -70.5t-128.5 -80.5t-222 -36zM707 -268q-46 0 -73.5 25t-27.5 67q0 51 39 74t85 23q41 0 83 -27t42 -95q0 -75 -33 -126.5t-78.5 -82.5t-84.5 -45l-18 48q45 17 92.5 58t47.5 110
q-7 -14 -29 -21.5t-45 -7.5z" />
    <glyph glyph-name="Gdotaccent" unicode="&#x120;" horiz-adv-x="1436" 
d="M713 -24q-175 0 -318 87.5t-228 256.5t-85 414t89 415.5t239.5 259t336.5 88.5q154 0 262.5 -50t175.5 -128.5t98 -165t31 -158.5v-12h-302v12q0 62 -30 120t-89 95.5t-146 37.5q-88 0 -168.5 -50t-131 -162.5t-50.5 -301.5q0 -192 49 -303t127 -158.5t166 -47.5
q90 0 152 30.5t96.5 75.5t45.5 89v96h-292v224h567v-740h-163l-28 163q-10 -26 -53.5 -70.5t-128.5 -80.5t-222 -36zM741 1563q-72 0 -125.5 38t-53.5 107q0 70 53.5 107.5t125.5 37.5t125.5 -37.5t53.5 -107.5t-53.5 -107.5t-125.5 -37.5z" />
    <glyph glyph-name="uni1E20" unicode="&#x1e20;" horiz-adv-x="1436" 
d="M713 -24q-175 0 -318 87.5t-228 256.5t-85 414t89 415.5t239.5 259t336.5 88.5q154 0 262.5 -50t175.5 -128.5t98 -165t31 -158.5v-12h-302v12q0 62 -30 120t-89 95.5t-146 37.5q-88 0 -168.5 -50t-131 -162.5t-50.5 -301.5q0 -192 49 -303t127 -158.5t166 -47.5
q90 0 152 30.5t96.5 75.5t45.5 89v96h-292v224h567v-740h-163l-28 163q-10 -26 -53.5 -70.5t-128.5 -80.5t-222 -36zM426 1609v129h623v-129h-623z" />
    <glyph glyph-name="uni01E4" unicode="&#x1e4;" horiz-adv-x="1405" 
d="M696 -24q-178 0 -316.5 87.5t-218 256.5t-79.5 414t86 415.5t232.5 259t329.5 88.5q154 0 262.5 -51t175.5 -130.5t98 -167t31 -159.5v-12h-302v12q0 62 -30 121.5t-89 98.5t-146 39q-88 0 -165 -50t-124 -162.5t-47 -301.5q0 -198 45.5 -308.5t120 -155.5t162.5 -45
q93 0 155.5 32.5t97.5 75.5h-252v170h293v73h-292v200h567v-273h113v-170h-113v-333h-163l-28 163q-10 -26 -53.5 -70.5t-128.5 -80.5t-222 -36z" />
    <glyph glyph-name="H" unicode="H" horiz-adv-x="1401" 
d="M1278 1475v-1475h-311v614h-534v-614h-311v1475h311v-620h534v620h311z" />
    <glyph glyph-name="Hbar" unicode="&#x126;" horiz-adv-x="1401" 
d="M38 1083v159h84v233h311v-233h534v233h311v-233h83v-159h-83v-1083h-311v614h-534v-614h-311v1083h-84zM433 855h534v228h-534v-228z" />
    <glyph glyph-name="uni1E2A" unicode="&#x1e2a;" horiz-adv-x="1401" 
d="M1278 1475v-1475h-311v614h-534v-614h-311v1475h311v-620h534v620h311zM411 -120h182q0 -60 28.5 -93.5t79.5 -33.5q52 0 80.5 33.5t28.5 93.5h181q0 -123 -82.5 -184.5t-207.5 -61.5t-207.5 61.5t-82.5 184.5z" />
    <glyph glyph-name="Hcircumflex" unicode="&#x124;" horiz-adv-x="1401" 
d="M1278 1475v-1475h-311v614h-534v-614h-311v1475h311v-620h534v620h311zM359 1557l241 206h203l240 -206h-200l-143 126l-142 -126h-199z" />
    <glyph glyph-name="uni1E24" unicode="&#x1e24;" horiz-adv-x="1401" 
d="M1278 1475v-1475h-311v614h-534v-614h-311v1475h311v-620h534v620h311zM701 -412q-72 0 -125.5 38t-53.5 107q0 70 53.5 108t125.5 38t126 -38t54 -108t-54 -107.5t-126 -37.5z" />
    <glyph glyph-name="I" unicode="I" horiz-adv-x="550" 
d="M122 0v1475h306v-1475h-306z" />
    <glyph glyph-name="I.ss01" horiz-adv-x="1109" 
d="M95 0v240h304v995h-304v240h919v-240h-305v-995h305v-240h-919z" />
    <glyph glyph-name="Iacute" unicode="&#xcd;" horiz-adv-x="550" 
d="M122 0v1475h306v-1475h-306zM109 1558l273 207h248l-305 -207h-216z" />
    <glyph glyph-name="Iacute.ss01" horiz-adv-x="1109" 
d="M95 0v240h304v995h-304v240h919v-240h-305v-995h305v-240h-919zM387 1558l273 207h248l-305 -207h-216z" />
    <glyph glyph-name="Ibreve" unicode="&#x12c;" horiz-adv-x="550" 
d="M122 0v1475h306v-1475h-306zM-14 1747h182q0 -38 28.5 -65.5t79.5 -27.5q52 0 80 27.5t28 65.5h182q0 -95 -82.5 -153.5t-207.5 -58.5t-207.5 58.5t-82.5 153.5z" />
    <glyph glyph-name="Ibreve.ss01" horiz-adv-x="1109" 
d="M95 0v240h304v995h-304v240h919v-240h-305v-995h305v-240h-919zM265 1747h182q0 -38 28.5 -65.5t79.5 -27.5q52 0 80 27.5t28 65.5h182q0 -95 -82.5 -153.5t-207.5 -58.5t-207.5 58.5t-82.5 153.5z" />
    <glyph glyph-name="uni01CF" unicode="&#x1cf;" horiz-adv-x="550" 
d="M122 0v1475h306v-1475h-306zM-66 1763h199l142 -125l143 125h200l-240 -206h-203z" />
    <glyph glyph-name="uni01CF.ss01" horiz-adv-x="1109" 
d="M95 0v240h304v995h-304v240h919v-240h-305v-995h305v-240h-919zM212 1763h199l142 -125l143 125h200l-240 -206h-203z" />
    <glyph glyph-name="Icircumflex" unicode="&#xce;" horiz-adv-x="550" 
d="M122 0v1475h306v-1475h-306zM-66 1557l241 206h203l240 -206h-200l-143 126l-142 -126h-199z" />
    <glyph glyph-name="Icircumflex.ss01" horiz-adv-x="1109" 
d="M95 0v240h304v995h-304v240h919v-240h-305v-995h305v-240h-919zM212 1557l241 206h203l240 -206h-200l-143 126l-142 -126h-199z" />
    <glyph glyph-name="uni0208" unicode="&#x208;" horiz-adv-x="550" 
d="M122 0v1475h306v-1475h-306zM530 1557h-168l-207 209h191zM198 1557h-168l-229 209h191z" />
    <glyph glyph-name="uni0208.ss01" horiz-adv-x="1109" 
d="M95 0v240h304v995h-304v240h919v-240h-305v-995h305v-240h-919zM808 1557h-168l-207 209h191zM476 1557h-168l-229 209h191z" />
    <glyph glyph-name="Idieresis" unicode="&#xcf;" horiz-adv-x="550" 
d="M122 0v1475h306v-1475h-306zM91 1547q-66 0 -115 35t-49 99t49 98.5t115 34.5t115 -34.5t49 -98.5t-49 -99t-115 -35zM464 1547q-66 0 -115 35t-49 99t49 98.5t115 34.5t115.5 -34.5t49.5 -98.5t-49.5 -99t-115.5 -35z" />
    <glyph glyph-name="Idieresis.ss01" horiz-adv-x="1109" 
d="M95 0v240h304v995h-304v240h919v-240h-305v-995h305v-240h-919zM370 1547q-66 0 -115 35t-49 99t49 98.5t115 34.5t115 -34.5t49 -98.5t-49 -99t-115 -35zM743 1547q-66 0 -115 35t-49 99t49 98.5t115 34.5t115.5 -34.5t49.5 -98.5t-49.5 -99t-115.5 -35z" />
    <glyph glyph-name="uni1E2E" unicode="&#x1e2e;" horiz-adv-x="550" 
d="M122 0v1475h306v-1475h-306zM91 1547q-66 0 -115 35t-49 99t49 98.5t115 34.5t115 -34.5t49 -98.5t-49 -99t-115 -35zM464 1547q-66 0 -115 35t-49 99t49 98.5t115 34.5t115.5 -34.5t49.5 -98.5t-49.5 -99t-115.5 -35zM115 1876l273 207h248l-305 -207h-216z" />
    <glyph glyph-name="uni1E2E.ss01" horiz-adv-x="1109" 
d="M95 0v240h304v995h-304v240h919v-240h-305v-995h305v-240h-919zM370 1547q-66 0 -115 35t-49 99t49 98.5t115 34.5t115 -34.5t49 -98.5t-49 -99t-115 -35zM743 1547q-66 0 -115 35t-49 99t49 98.5t115 34.5t115.5 -34.5t49.5 -98.5t-49.5 -99t-115.5 -35zM393 1876
l273 207h248l-305 -207h-216z" />
    <glyph glyph-name="Idotaccent" unicode="&#x130;" horiz-adv-x="550" 
d="M122 0v1475h306v-1475h-306zM279 1563q-72 0 -125.5 38t-53.5 107q0 70 53.5 107.5t125.5 37.5t125.5 -37.5t53.5 -107.5t-53.5 -107.5t-125.5 -37.5z" />
    <glyph glyph-name="Idotaccent.ss01" horiz-adv-x="1109" 
d="M95 0v240h304v995h-304v240h919v-240h-305v-995h305v-240h-919zM557 1563q-72 0 -125.5 38t-53.5 107q0 70 53.5 107.5t125.5 37.5t125.5 -37.5t53.5 -107.5t-53.5 -107.5t-125.5 -37.5z" />
    <glyph glyph-name="uni1ECA" unicode="&#x1eca;" horiz-adv-x="550" 
d="M122 0v1475h306v-1475h-306zM275 -412q-72 0 -125.5 38t-53.5 107q0 70 53.5 108t125.5 38t126 -38t54 -108t-54 -107.5t-126 -37.5z" />
    <glyph glyph-name="uni1ECA.ss01" horiz-adv-x="1109" 
d="M95 0v240h304v995h-304v240h919v-240h-305v-995h305v-240h-919zM554 -412q-72 0 -125.5 38t-53.5 107q0 70 53.5 108t125.5 38t126 -38t54 -108t-54 -107.5t-126 -37.5z" />
    <glyph glyph-name="Igrave" unicode="&#xcc;" horiz-adv-x="550" 
d="M122 0v1475h306v-1475h-306zM445 1558h-217l-304 207h248z" />
    <glyph glyph-name="Igrave.ss01" horiz-adv-x="1109" 
d="M95 0v240h304v995h-304v240h919v-240h-305v-995h305v-240h-919zM723 1558h-217l-304 207h248z" />
    <glyph glyph-name="uni1EC8" unicode="&#x1ec8;" horiz-adv-x="550" 
d="M122 0v1475h306v-1475h-306zM61 1806q112 0 206.5 -9t152 -37.5t57.5 -89.5q0 -79 -82.5 -115.5t-202.5 -36.5l-32 82q32 2 71 7t67.5 17t28.5 34q0 32 -70 41.5t-196 9.5v97z" />
    <glyph glyph-name="uni1EC8.ss01" horiz-adv-x="1109" 
d="M95 0v240h304v995h-304v240h919v-240h-305v-995h305v-240h-919zM339 1806q112 0 206.5 -9t152 -37.5t57.5 -89.5q0 -79 -82.5 -115.5t-202.5 -36.5l-32 82q32 2 71 7t67.5 17t28.5 34q0 32 -70 41.5t-196 9.5v97z" />
    <glyph glyph-name="uni020A" unicode="&#x20a;" horiz-adv-x="550" 
d="M122 0v1475h306v-1475h-306zM-14 1552q0 96 82.5 152.5t207.5 56.5t207.5 -56.5t82.5 -152.5h-181q0 38 -28.5 64.5t-80.5 26.5q-51 0 -80 -26.5t-29 -64.5h-181z" />
    <glyph glyph-name="uni020A.ss01" horiz-adv-x="1109" 
d="M95 0v240h304v995h-304v240h919v-240h-305v-995h305v-240h-919zM265 1552q0 96 82.5 152.5t207.5 56.5t207.5 -56.5t82.5 -152.5h-181q0 38 -28.5 64.5t-80.5 26.5q-51 0 -80 -26.5t-29 -64.5h-181z" />
    <glyph glyph-name="Imacron" unicode="&#x12a;" horiz-adv-x="550" 
d="M122 0v1475h306v-1475h-306zM-36 1609v129h623v-129h-623z" />
    <glyph glyph-name="Imacron.ss01" horiz-adv-x="1109" 
d="M95 0v240h304v995h-304v240h919v-240h-305v-995h305v-240h-919zM331 1609v129h447v-129h-447z" />
    <glyph glyph-name="Iogonek" unicode="&#x12e;" horiz-adv-x="550" 
d="M122 0v1475h306v-1475h-306zM428 -296v-148q-20 -3 -44 -4.5t-49 -1.5q-67 0 -126 16t-96 52t-37 97q0 60 36 116t83 100.5t81 68.5h152q-29 -25 -69.5 -68t-71.5 -89t-31 -80q0 -38 28 -52t68 -14q19 0 39.5 2t36.5 5z" />
    <glyph glyph-name="Iogonek.ss01" horiz-adv-x="1109" 
d="M95 0v240h304v995h-304v240h919v-240h-305v-995h305v-240h-919zM1013 -296v-148q-20 -3 -44 -4.5t-49 -1.5q-67 0 -126 16t-96 52t-37 97q0 60 36 116t83 100.5t81 68.5h152q-29 -25 -69.5 -68t-71.5 -89t-31 -80q0 -38 28 -52t68 -14q19 0 39.5 2t36.5 5z" />
    <glyph glyph-name="Itilde" unicode="&#x128;" horiz-adv-x="550" 
d="M122 0v1475h306v-1475h-306zM615 1771q0 -51 -21.5 -103.5t-65 -87.5t-112.5 -35q-53 0 -89 21t-59 40q-21 20 -42.5 34.5t-49.5 14.5q-34 0 -50 -25t-17 -64h-157q0 52 23 105t68.5 88.5t115.5 35.5q50 0 85.5 -21t58.5 -41q22 -20 45.5 -34.5t48.5 -14.5q31 0 45.5 24
t15.5 63h157z" />
    <glyph glyph-name="Itilde.ss01" horiz-adv-x="1109" 
d="M95 0v240h304v995h-304v240h919v-240h-305v-995h305v-240h-919zM894 1771q0 -51 -21.5 -103.5t-65 -87.5t-112.5 -35q-53 0 -89 21t-59 40q-21 20 -42.5 34.5t-49.5 14.5q-34 0 -50 -25t-17 -64h-157q0 52 23 105t68.5 88.5t115.5 35.5q50 0 85.5 -21t58.5 -41
q22 -20 45.5 -34.5t48.5 -14.5q31 0 45.5 24t15.5 63h157z" />
    <glyph glyph-name="J" unicode="J" horiz-adv-x="1166" 
d="M552 -24q-181 0 -289.5 63.5t-157 177t-48.5 263.5v69h308v-41q0 -73 15.5 -138t56 -105t115.5 -40t114.5 40.5t53.5 110t14 153.5v946h310v-990q0 -139 -43 -254.5t-150 -185t-299 -69.5z" />
    <glyph glyph-name="Jcircumflex" unicode="&#x134;" horiz-adv-x="1166" 
d="M552 -24q-181 0 -289.5 63.5t-157 177t-48.5 263.5v69h308v-41q0 -73 15.5 -138t56 -105t115.5 -40t114.5 40.5t53.5 110t14 153.5v946h310v-990q0 -139 -43 -254.5t-150 -185t-299 -69.5zM544 1557l241 206h203l240 -206h-200l-143 126l-142 -126h-199z" />
    <glyph glyph-name="K" unicode="K" horiz-adv-x="1321" 
d="M932 0l-356 601l-143 -194v-407h-311v1475h311v-655l481 655h328l-483 -645l513 -830h-340z" />
    <glyph glyph-name="uni01E8" unicode="&#x1e8;" horiz-adv-x="1321" 
d="M932 0l-356 601l-143 -194v-407h-311v1475h311v-655l481 655h328l-483 -645l513 -830h-340zM328 1763h199l142 -125l143 125h200l-240 -206h-203z" />
    <glyph glyph-name="uni0136" unicode="&#x136;" horiz-adv-x="1321" 
d="M932 0l-356 601l-143 -194v-407h-311v1475h311v-655l481 655h328l-483 -645l513 -830h-340zM641 -268q-46 0 -73.5 25t-27.5 67q0 51 39 74t85 23q41 0 83 -27t42 -95q0 -75 -33 -126.5t-78.5 -82.5t-84.5 -45l-18 48q45 17 92.5 58t47.5 110q-7 -14 -29 -21.5t-45 -7.5z
" />
    <glyph glyph-name="L" unicode="L" horiz-adv-x="1055" 
d="M122 0v1475h311v-1222h549v-253h-860z" />
    <glyph glyph-name="uni01C7" unicode="&#x1c7;" horiz-adv-x="2202" 
d="M122 0v1475h311v-1222h549v-253h-860zM1587 -24q-181 0 -289.5 63.5t-157 177t-48.5 263.5v69h308v-41q0 -73 15.5 -138t56 -105t115.5 -40t114.5 40.5t53.5 110t14 153.5v946h310v-990q0 -139 -43 -254.5t-150 -185t-299 -69.5z" />
    <glyph glyph-name="Lacute" unicode="&#x139;" horiz-adv-x="1055" 
d="M122 0v1475h311v-1222h549v-253h-860zM108 1558l273 207h248l-305 -207h-216z" />
    <glyph glyph-name="Lcaron" unicode="&#x13d;" horiz-adv-x="1055" 
d="M122 0v1475h311v-1222h549v-253h-860zM914 1475q0 -88 -11 -174t-24 -152t-20 -93h-144q8 29 16 93.5t13.5 150t5.5 175.5h164z" />
    <glyph glyph-name="uni013B" unicode="&#x13b;" horiz-adv-x="1055" 
d="M122 0v1475h311v-1222h549v-253h-860zM544 -268q-46 0 -73.5 25t-27.5 67q0 51 39 74t85 23q41 0 83 -27t42 -95q0 -75 -33 -126.5t-78.5 -82.5t-84.5 -45l-18 48q45 17 92.5 58t47.5 110q-7 -14 -29 -21.5t-45 -7.5z" />
    <glyph glyph-name="Ldot" unicode="&#x13f;" horiz-adv-x="1055" 
d="M122 0v1475h311v-1222h549v-253h-860zM806 648q-69 0 -117 48t-48 116t48 116t117 48q68 0 116 -48t48 -116t-48 -116t-116 -48z" />
    <glyph glyph-name="uni1E36" unicode="&#x1e36;" horiz-adv-x="1055" 
d="M122 0v1475h311v-1222h549v-253h-860zM568 -412q-72 0 -125.5 38t-53.5 107q0 70 53.5 108t125.5 38t126 -38t54 -108t-54 -107.5t-126 -37.5z" />
    <glyph glyph-name="uni01C8" unicode="&#x1c8;" horiz-adv-x="1596" 
d="M122 0v1475h311v-1222h549v-253h-860zM1332 1235q-72 0 -125.5 38t-53.5 107q0 70 53.5 108t125.5 38t125.5 -38t53.5 -108q0 -69 -53.5 -107t-125.5 -38zM1022 -457q-29 0 -56.5 1.5t-45.5 3.5v229q18 -3 45.5 -5.5t56.5 -2.5q66 0 98.5 23t43 57t10.5 66v1147h309
v-1154q0 -66 -16 -130.5t-63.5 -117.5t-139 -85t-242.5 -32z" />
    <glyph glyph-name="uni1E3A" unicode="&#x1e3a;" horiz-adv-x="1055" 
d="M122 0v1475h311v-1222h549v-253h-860zM243 -303v129h651v-129h-651z" />
    <glyph glyph-name="Lslash" unicode="&#x141;" horiz-adv-x="1166" 
d="M233 0v457l-146 -79l-103 213l249 135v749h310v-582l219 118l103 -213l-322 -173v-372h549v-253h-859z" />
    <glyph glyph-name="M" unicode="M" horiz-adv-x="1834" 
d="M1174 1475h525v-1475h-294v1261l-282 -1261h-406l-287 1263v-1263h-295v1475h525l256 -1265z" />
    <glyph glyph-name="uni1E42" unicode="&#x1e42;" horiz-adv-x="1834" 
d="M1174 1475h525v-1475h-294v1261l-282 -1261h-406l-287 1263v-1263h-295v1475h525l256 -1265zM918 -412q-72 0 -125.5 38t-53.5 107q0 70 53.5 108t125.5 38t126 -38t54 -108t-54 -107.5t-126 -37.5z" />
    <glyph glyph-name="N" unicode="N" horiz-adv-x="1471" 
d="M425 0h-303v1475h482l442 -1220v1220h302v-1475h-485l-438 1206v-1206z" />
    <glyph glyph-name="uni01CA" unicode="&#x1ca;" horiz-adv-x="2637" 
d="M425 0h-303v1475h482l442 -1220v1220h302v-1475h-485l-438 1206v-1206zM2023 -24q-181 0 -289.5 63.5t-157 177t-48.5 263.5v69h308v-41q0 -73 15.5 -138t56 -105t115.5 -40t114.5 40.5t53.5 110t14 153.5v946h310v-990q0 -139 -43 -254.5t-150 -185t-299 -69.5z" />
    <glyph glyph-name="Nacute" unicode="&#x143;" horiz-adv-x="1471" 
d="M425 0h-303v1475h482l442 -1220v1220h302v-1475h-485l-438 1206v-1206zM585 1558l273 207h248l-305 -207h-216z" />
    <glyph glyph-name="Ncaron" unicode="&#x147;" horiz-adv-x="1471" 
d="M425 0h-303v1475h482l442 -1220v1220h302v-1475h-485l-438 1206v-1206zM411 1763h199l142 -125l143 125h200l-240 -206h-203z" />
    <glyph glyph-name="uni0145" unicode="&#x145;" horiz-adv-x="1471" 
d="M425 0h-303v1475h482l442 -1220v1220h302v-1475h-485l-438 1206v-1206zM728 -268q-46 0 -73.5 25t-27.5 67q0 51 39 74t85 23q41 0 83 -27t42 -95q0 -75 -33 -126.5t-78.5 -82.5t-84.5 -45l-18 48q45 17 92.5 58t47.5 110q-7 -14 -29 -21.5t-45 -7.5z" />
    <glyph glyph-name="uni1E44" unicode="&#x1e44;" horiz-adv-x="1471" 
d="M425 0h-303v1475h482l442 -1220v1220h302v-1475h-485l-438 1206v-1206zM756 1563q-72 0 -125.5 38t-53.5 107q0 70 53.5 107.5t125.5 37.5t125.5 -37.5t53.5 -107.5t-53.5 -107.5t-125.5 -37.5z" />
    <glyph glyph-name="uni1E46" unicode="&#x1e46;" horiz-adv-x="1471" 
d="M425 0h-303v1475h482l442 -1220v1220h302v-1475h-485l-438 1206v-1206zM752 -412q-72 0 -125.5 38t-53.5 107q0 70 53.5 108t125.5 38t126 -38t54 -108t-54 -107.5t-126 -37.5z" />
    <glyph glyph-name="Eng" unicode="&#x14a;" horiz-adv-x="1471" 
d="M799 -456q-33 0 -66 4t-45 6v225q14 -5 49 -9t64 -4q110 0 175.5 49.5t65.5 139.5v45h-183l-434 1205v-1205h-303v1475h490l434 -1209v1209h302v-1513q0 -224 -129 -321t-420 -97z" />
    <glyph glyph-name="uni019D" unicode="&#x19d;" horiz-adv-x="1471" 
d="M-69 -465v222q97 3 144 57.5t47 150.5v1510h494l430 -1223v1223h302v-1475h-497l-426 1207v-1242q0 -77 -14.5 -152t-63 -136.5t-147.5 -100t-269 -41.5z" />
    <glyph glyph-name="uni01CB" unicode="&#x1cb;" horiz-adv-x="1973" 
d="M425 0h-303v1475h482l442 -1220v1220h302v-1475h-485l-438 1206v-1206zM1710 1235q-72 0 -125.5 38t-53.5 107q0 70 53.5 108t125.5 38t125.5 -38t53.5 -108q0 -69 -53.5 -107t-125.5 -38zM1400 -457q-29 0 -56.5 1.5t-45.5 3.5v229q18 -3 45.5 -5.5t56.5 -2.5
q66 0 98.5 23t43 57t10.5 66v1147h309v-1154q0 -66 -16 -130.5t-63.5 -117.5t-139 -85t-242.5 -32z" />
    <glyph glyph-name="uni1E48" unicode="&#x1e48;" horiz-adv-x="1471" 
d="M425 0h-303v1475h482l442 -1220v1220h302v-1475h-485l-438 1206v-1206zM427 -303v129h651v-129h-651z" />
    <glyph glyph-name="Ntilde" unicode="&#xd1;" horiz-adv-x="1471" 
d="M425 0h-303v1475h482l442 -1220v1220h302v-1475h-485l-438 1206v-1206zM1092 1771q0 -51 -21.5 -103.5t-65 -87.5t-112.5 -35q-53 0 -89 21t-59 40q-21 20 -42.5 34.5t-49.5 14.5q-34 0 -50 -25t-17 -64h-157q0 52 23 105t68.5 88.5t115.5 35.5q50 0 85.5 -21t58.5 -41
q22 -20 45.5 -34.5t48.5 -14.5q31 0 45.5 24t15.5 63h157z" />
    <glyph glyph-name="O" unicode="O" horiz-adv-x="1492" 
d="M746 -24q-183 0 -333.5 88.5t-240.5 258.5t-90 416t89.5 415t239.5 256t335 87t335 -87t239 -256t89 -415t-90 -416t-240.5 -258.5t-332.5 -88.5zM746 225q93 0 172.5 51t127.5 164t48 299t-48.5 298t-127.5 161.5t-172 49.5t-172.5 -49.5t-127.5 -161.5t-48 -298
t48 -299t127.5 -164t172.5 -51z" />
    <glyph glyph-name="Oacute" unicode="&#xd3;" horiz-adv-x="1492" 
d="M746 -24q-183 0 -333.5 88.5t-240.5 258.5t-90 416t89.5 415t239.5 256t335 87t335 -87t239 -256t89 -415t-90 -416t-240.5 -258.5t-332.5 -88.5zM746 225q93 0 172.5 51t127.5 164t48 299t-48.5 298t-127.5 161.5t-172 49.5t-172.5 -49.5t-127.5 -161.5t-48 -298
t48 -299t127.5 -164t172.5 -51zM578 1558l273 207h248l-305 -207h-216z" />
    <glyph glyph-name="Obreve" unicode="&#x14e;" horiz-adv-x="1492" 
d="M746 -24q-183 0 -333.5 88.5t-240.5 258.5t-90 416t89.5 415t239.5 256t335 87t335 -87t239 -256t89 -415t-90 -416t-240.5 -258.5t-332.5 -88.5zM746 225q93 0 172.5 51t127.5 164t48 299t-48.5 298t-127.5 161.5t-172 49.5t-172.5 -49.5t-127.5 -161.5t-48 -298
t48 -299t127.5 -164t172.5 -51zM456 1747h182q0 -38 28.5 -65.5t79.5 -27.5q52 0 80 27.5t28 65.5h182q0 -95 -82.5 -153.5t-207.5 -58.5t-207.5 58.5t-82.5 153.5z" />
    <glyph glyph-name="uni01D1" unicode="&#x1d1;" horiz-adv-x="1492" 
d="M746 -24q-183 0 -333.5 88.5t-240.5 258.5t-90 416t89.5 415t239.5 256t335 87t335 -87t239 -256t89 -415t-90 -416t-240.5 -258.5t-332.5 -88.5zM746 225q93 0 172.5 51t127.5 164t48 299t-48.5 298t-127.5 161.5t-172 49.5t-172.5 -49.5t-127.5 -161.5t-48 -298
t48 -299t127.5 -164t172.5 -51zM403 1763h199l142 -125l143 125h200l-240 -206h-203z" />
    <glyph glyph-name="Ocircumflex" unicode="&#xd4;" horiz-adv-x="1492" 
d="M746 -24q-183 0 -333.5 88.5t-240.5 258.5t-90 416t89.5 415t239.5 256t335 87t335 -87t239 -256t89 -415t-90 -416t-240.5 -258.5t-332.5 -88.5zM746 225q93 0 172.5 51t127.5 164t48 299t-48.5 298t-127.5 161.5t-172 49.5t-172.5 -49.5t-127.5 -161.5t-48 -298
t48 -299t127.5 -164t172.5 -51zM403 1557l241 206h203l240 -206h-200l-143 126l-142 -126h-199z" />
    <glyph glyph-name="uni1ED0" unicode="&#x1ed0;" horiz-adv-x="1492" 
d="M746 -24q-183 0 -333.5 88.5t-240.5 258.5t-90 416t89.5 415t239.5 256t335 87t335 -87t239 -256t89 -415t-90 -416t-240.5 -258.5t-332.5 -88.5zM746 225q93 0 172.5 51t127.5 164t48 299t-48.5 298t-127.5 161.5t-172 49.5t-172.5 -49.5t-127.5 -161.5t-48 -298
t48 -299t127.5 -164t172.5 -51zM971 1714l223 207h202l-238 -207h-187zM403 1557l241 206h203l240 -206h-200l-143 125l-143 -125h-198z" />
    <glyph glyph-name="uni1ED8" unicode="&#x1ed8;" horiz-adv-x="1492" 
d="M746 -24q-183 0 -333.5 88.5t-240.5 258.5t-90 416t89.5 415t239.5 256t335 87t335 -87t239 -256t89 -415t-90 -416t-240.5 -258.5t-332.5 -88.5zM746 225q93 0 172.5 51t127.5 164t48 299t-48.5 298t-127.5 161.5t-172 49.5t-172.5 -49.5t-127.5 -161.5t-48 -298
t48 -299t127.5 -164t172.5 -51zM745 -412q-72 0 -125.5 38t-53.5 107q0 70 53.5 108t125.5 38t126 -38t54 -108t-54 -107.5t-126 -37.5zM403 1557l241 206h203l240 -206h-200l-143 126l-142 -126h-199z" />
    <glyph glyph-name="uni1ED2" unicode="&#x1ed2;" horiz-adv-x="1492" 
d="M746 -24q-183 0 -333.5 88.5t-240.5 258.5t-90 416t89.5 415t239.5 256t335 87t335 -87t239 -256t89 -415t-90 -416t-240.5 -258.5t-332.5 -88.5zM746 225q93 0 172.5 51t127.5 164t48 299t-48.5 298t-127.5 161.5t-172 49.5t-172.5 -49.5t-127.5 -161.5t-48 -298
t48 -299t127.5 -164t172.5 -51zM1252 1714h-187l-238 207h202zM406 1557l241 206h203l240 -206h-200l-143 126l-142 -126h-199z" />
    <glyph glyph-name="uni1ED4" unicode="&#x1ed4;" horiz-adv-x="1492" 
d="M746 -24q-183 0 -333.5 88.5t-240.5 258.5t-90 416t89.5 415t239.5 256t335 87t335 -87t239 -256t89 -415t-90 -416t-240.5 -258.5t-332.5 -88.5zM746 225q93 0 172.5 51t127.5 164t48 299t-48.5 298t-127.5 161.5t-172 49.5t-172.5 -49.5t-127.5 -161.5t-48 -298
t48 -299t127.5 -164t172.5 -51zM866 1996q112 0 206.5 -8.5t151.5 -37.5t57 -90q0 -79 -82 -115t-203 -36l-31 81q31 2 70.5 7.5t68 17.5t28.5 33q0 33 -70 42t-196 9v97zM404 1557l241 206h203l240 -206h-200l-143 126l-142 -126h-199z" />
    <glyph glyph-name="uni1ED6" unicode="&#x1ed6;" horiz-adv-x="1492" 
d="M746 -24q-183 0 -333.5 88.5t-240.5 258.5t-90 416t89.5 415t239.5 256t335 87t335 -87t239 -256t89 -415t-90 -416t-240.5 -258.5t-332.5 -88.5zM746 225q93 0 172.5 51t127.5 164t48 299t-48.5 298t-127.5 161.5t-172 49.5t-172.5 -49.5t-127.5 -161.5t-48 -298
t48 -299t127.5 -164t172.5 -51zM403 1557l241 206h203l240 -206h-200l-143 126l-142 -126h-199zM1085 2059q0 -51 -21.5 -103.5t-65 -87.5t-112.5 -35q-53 0 -89 21t-59 40q-21 20 -42.5 34.5t-49.5 14.5q-34 0 -50 -25t-17 -64h-157q0 52 23 105t68.5 88.5t115.5 35.5
q50 0 85.5 -21t58.5 -41q22 -20 45.5 -34.5t48.5 -14.5q31 0 45.5 24t15.5 63h157z" />
    <glyph glyph-name="uni020C" unicode="&#x20c;" horiz-adv-x="1492" 
d="M746 -24q-183 0 -333.5 88.5t-240.5 258.5t-90 416t89.5 415t239.5 256t335 87t335 -87t239 -256t89 -415t-90 -416t-240.5 -258.5t-332.5 -88.5zM746 225q93 0 172.5 51t127.5 164t48 299t-48.5 298t-127.5 161.5t-172 49.5t-172.5 -49.5t-127.5 -161.5t-48 -298
t48 -299t127.5 -164t172.5 -51zM999 1557h-168l-207 209h191zM667 1557h-168l-229 209h191z" />
    <glyph glyph-name="Odieresis" unicode="&#xd6;" horiz-adv-x="1492" 
d="M746 -24q-183 0 -333.5 88.5t-240.5 258.5t-90 416t89.5 415t239.5 256t335 87t335 -87t239 -256t89 -415t-90 -416t-240.5 -258.5t-332.5 -88.5zM746 225q93 0 172.5 51t127.5 164t48 299t-48.5 298t-127.5 161.5t-172 49.5t-172.5 -49.5t-127.5 -161.5t-48 -298
t48 -299t127.5 -164t172.5 -51zM505 1542q-66 0 -115.5 35t-49.5 99t49.5 99t115.5 35q65 0 114.5 -35t49.5 -99t-49.5 -99t-114.5 -35zM987 1542q-66 0 -115 35t-49 99t49 99t115 35t115.5 -35t49.5 -99t-49.5 -99t-115.5 -35z" />
    <glyph glyph-name="uni022A" unicode="&#x22a;" horiz-adv-x="1492" 
d="M746 -24q-183 0 -333.5 88.5t-240.5 258.5t-90 416t89.5 415t239.5 256t335 87t335 -87t239 -256t89 -415t-90 -416t-240.5 -258.5t-332.5 -88.5zM746 225q93 0 172.5 51t127.5 164t48 299t-48.5 298t-127.5 161.5t-172 49.5t-172.5 -49.5t-127.5 -161.5t-48 -298
t48 -299t127.5 -164t172.5 -51zM505 1542q-66 0 -115.5 35t-49.5 99t49.5 99t115.5 35q65 0 114.5 -35t49.5 -99t-49.5 -99t-114.5 -35zM987 1542q-66 0 -115 35t-49 99t49 99t115 35t115.5 -35t49.5 -99t-49.5 -99t-115.5 -35zM433 1904v129h623v-129h-623z" />
    <glyph glyph-name="uni0230" unicode="&#x230;" horiz-adv-x="1492" 
d="M746 -24q-183 0 -333.5 88.5t-240.5 258.5t-90 416t89.5 415t239.5 256t335 87t335 -87t239 -256t89 -415t-90 -416t-240.5 -258.5t-332.5 -88.5zM746 225q93 0 172.5 51t127.5 164t48 299t-48.5 298t-127.5 161.5t-172 49.5t-172.5 -49.5t-127.5 -161.5t-48 -298
t48 -299t127.5 -164t172.5 -51zM748 1563q-72 0 -125.5 38t-53.5 107q0 70 53.5 107.5t125.5 37.5t125.5 -37.5t53.5 -107.5t-53.5 -107.5t-125.5 -37.5zM436 1987v129h623v-129h-623z" />
    <glyph glyph-name="uni1ECC" unicode="&#x1ecc;" horiz-adv-x="1492" 
d="M746 -24q-183 0 -333.5 88.5t-240.5 258.5t-90 416t89.5 415t239.5 256t335 87t335 -87t239 -256t89 -415t-90 -416t-240.5 -258.5t-332.5 -88.5zM746 225q93 0 172.5 51t127.5 164t48 299t-48.5 298t-127.5 161.5t-172 49.5t-172.5 -49.5t-127.5 -161.5t-48 -298
t48 -299t127.5 -164t172.5 -51zM745 -412q-72 0 -125.5 38t-53.5 107q0 70 53.5 108t125.5 38t126 -38t54 -108t-54 -107.5t-126 -37.5z" />
    <glyph glyph-name="Ograve" unicode="&#xd2;" horiz-adv-x="1492" 
d="M746 -24q-183 0 -333.5 88.5t-240.5 258.5t-90 416t89.5 415t239.5 256t335 87t335 -87t239 -256t89 -415t-90 -416t-240.5 -258.5t-332.5 -88.5zM746 225q93 0 172.5 51t127.5 164t48 299t-48.5 298t-127.5 161.5t-172 49.5t-172.5 -49.5t-127.5 -161.5t-48 -298
t48 -299t127.5 -164t172.5 -51zM914 1558h-217l-304 207h248z" />
    <glyph glyph-name="uni1ECE" unicode="&#x1ece;" horiz-adv-x="1492" 
d="M746 -24q-183 0 -333.5 88.5t-240.5 258.5t-90 416t89.5 415t239.5 256t335 87t335 -87t239 -256t89 -415t-90 -416t-240.5 -258.5t-332.5 -88.5zM746 225q93 0 172.5 51t127.5 164t48 299t-48.5 298t-127.5 161.5t-172 49.5t-172.5 -49.5t-127.5 -161.5t-48 -298
t48 -299t127.5 -164t172.5 -51zM530 1806q112 0 206.5 -9t152 -37.5t57.5 -89.5q0 -79 -82.5 -115.5t-202.5 -36.5l-32 82q32 2 71 7t67.5 17t28.5 34q0 32 -70 41.5t-196 9.5v97z" />
    <glyph glyph-name="Ohorn" unicode="&#x1a0;" horiz-adv-x="1504" 
d="M746 -24q-183 0 -333.5 88.5t-240.5 258.5t-90 416t89.5 415t239.5 256t335 87q220 0 384 -118q138 12 138 258h191q0 -158 -53 -252.5t-148 -131.5q71 -94 111 -223t40 -291q0 -246 -90 -416t-240.5 -258.5t-332.5 -88.5zM746 225q93 0 172.5 51t127.5 164t48 299
t-48.5 298t-127.5 161.5t-172 49.5t-172.5 -49.5t-127.5 -161.5t-48 -298t48 -299t127.5 -164t172.5 -51z" />
    <glyph glyph-name="uni1EDA" unicode="&#x1eda;" horiz-adv-x="1504" 
d="M746 -24q-183 0 -333.5 88.5t-240.5 258.5t-90 416t89.5 415t239.5 256t335 87q220 0 384 -118q138 12 138 258h191q0 -158 -53 -252.5t-148 -131.5q71 -94 111 -223t40 -291q0 -246 -90 -416t-240.5 -258.5t-332.5 -88.5zM746 225q93 0 172.5 51t127.5 164t48 299
t-48.5 298t-127.5 161.5t-172 49.5t-172.5 -49.5t-127.5 -161.5t-48 -298t48 -299t127.5 -164t172.5 -51zM578 1558l273 207h248l-305 -207h-216z" />
    <glyph glyph-name="uni1EE2" unicode="&#x1ee2;" horiz-adv-x="1504" 
d="M746 -24q-183 0 -333.5 88.5t-240.5 258.5t-90 416t89.5 415t239.5 256t335 87q220 0 384 -118q138 12 138 258h191q0 -158 -53 -252.5t-148 -131.5q71 -94 111 -223t40 -291q0 -246 -90 -416t-240.5 -258.5t-332.5 -88.5zM746 225q93 0 172.5 51t127.5 164t48 299
t-48.5 298t-127.5 161.5t-172 49.5t-172.5 -49.5t-127.5 -161.5t-48 -298t48 -299t127.5 -164t172.5 -51zM746 -412q-72 0 -125.5 38t-53.5 107q0 70 53.5 108t125.5 38t126 -38t54 -108t-54 -107.5t-126 -37.5z" />
    <glyph glyph-name="uni1EDC" unicode="&#x1edc;" horiz-adv-x="1504" 
d="M746 -24q-183 0 -333.5 88.5t-240.5 258.5t-90 416t89.5 415t239.5 256t335 87q220 0 384 -118q138 12 138 258h191q0 -158 -53 -252.5t-148 -131.5q71 -94 111 -223t40 -291q0 -246 -90 -416t-240.5 -258.5t-332.5 -88.5zM746 225q93 0 172.5 51t127.5 164t48 299
t-48.5 298t-127.5 161.5t-172 49.5t-172.5 -49.5t-127.5 -161.5t-48 -298t48 -299t127.5 -164t172.5 -51zM915 1558h-217l-304 207h248z" />
    <glyph glyph-name="uni1EDE" unicode="&#x1ede;" horiz-adv-x="1504" 
d="M746 -24q-183 0 -333.5 88.5t-240.5 258.5t-90 416t89.5 415t239.5 256t335 87q220 0 384 -118q138 12 138 258h191q0 -158 -53 -252.5t-148 -131.5q71 -94 111 -223t40 -291q0 -246 -90 -416t-240.5 -258.5t-332.5 -88.5zM746 225q93 0 172.5 51t127.5 164t48 299
t-48.5 298t-127.5 161.5t-172 49.5t-172.5 -49.5t-127.5 -161.5t-48 -298t48 -299t127.5 -164t172.5 -51zM531 1806q112 0 206.5 -9t152 -37.5t57.5 -89.5q0 -79 -82.5 -115.5t-202.5 -36.5l-32 82q32 2 71 7t67.5 17t28.5 34q0 32 -70 41.5t-196 9.5v97z" />
    <glyph glyph-name="uni1EE0" unicode="&#x1ee0;" horiz-adv-x="1504" 
d="M746 -24q-183 0 -333.5 88.5t-240.5 258.5t-90 416t89.5 415t239.5 256t335 87q220 0 384 -118q138 12 138 258h191q0 -158 -53 -252.5t-148 -131.5q71 -94 111 -223t40 -291q0 -246 -90 -416t-240.5 -258.5t-332.5 -88.5zM746 225q93 0 172.5 51t127.5 164t48 299
t-48.5 298t-127.5 161.5t-172 49.5t-172.5 -49.5t-127.5 -161.5t-48 -298t48 -299t127.5 -164t172.5 -51zM1085 1771q0 -51 -21.5 -103.5t-65 -87.5t-112.5 -35q-53 0 -89 21t-59 40q-21 20 -42.5 34.5t-49.5 14.5q-34 0 -50 -25t-17 -64h-157q0 52 23 105t68.5 88.5
t115.5 35.5q50 0 85.5 -21t58.5 -41q22 -20 45.5 -34.5t48.5 -14.5q31 0 45.5 24t15.5 63h157z" />
    <glyph glyph-name="Ohungarumlaut" unicode="&#x150;" horiz-adv-x="1492" 
d="M746 -24q-183 0 -333.5 88.5t-240.5 258.5t-90 416t89.5 415t239.5 256t335 87t335 -87t239 -256t89 -415t-90 -416t-240.5 -258.5t-332.5 -88.5zM746 225q93 0 172.5 51t127.5 164t48 299t-48.5 298t-127.5 161.5t-172 49.5t-172.5 -49.5t-127.5 -161.5t-48 -298
t48 -299t127.5 -164t172.5 -51zM480 1558l246 207h197l-266 -207h-177zM824 1558l246 207h197l-266 -207h-177z" />
    <glyph glyph-name="uni020E" unicode="&#x20e;" horiz-adv-x="1492" 
d="M746 -24q-183 0 -333.5 88.5t-240.5 258.5t-90 416t89.5 415t239.5 256t335 87t335 -87t239 -256t89 -415t-90 -416t-240.5 -258.5t-332.5 -88.5zM746 225q93 0 172.5 51t127.5 164t48 299t-48.5 298t-127.5 161.5t-172 49.5t-172.5 -49.5t-127.5 -161.5t-48 -298
t48 -299t127.5 -164t172.5 -51zM456 1552q0 96 82.5 152.5t207.5 56.5t207.5 -56.5t82.5 -152.5h-181q0 38 -28.5 64.5t-80.5 26.5q-51 0 -80 -26.5t-29 -64.5h-181z" />
    <glyph glyph-name="Omacron" unicode="&#x14c;" horiz-adv-x="1492" 
d="M746 -24q-183 0 -333.5 88.5t-240.5 258.5t-90 416t89.5 415t239.5 256t335 87t335 -87t239 -256t89 -415t-90 -416t-240.5 -258.5t-332.5 -88.5zM746 225q93 0 172.5 51t127.5 164t48 299t-48.5 298t-127.5 161.5t-172 49.5t-172.5 -49.5t-127.5 -161.5t-48 -298
t48 -299t127.5 -164t172.5 -51zM433 1609v129h623v-129h-623z" />
    <glyph glyph-name="uni1E52" unicode="&#x1e52;" horiz-adv-x="1492" 
d="M746 -24q-183 0 -333.5 88.5t-240.5 258.5t-90 416t89.5 415t239.5 256t335 87t335 -87t239 -256t89 -415t-90 -416t-240.5 -258.5t-332.5 -88.5zM746 225q93 0 172.5 51t127.5 164t48 299t-48.5 298t-127.5 161.5t-172 49.5t-172.5 -49.5t-127.5 -161.5t-48 -298
t48 -299t127.5 -164t172.5 -51zM433 1609v129h623v-129h-623zM578 1821l273 207h248l-305 -207h-216z" />
    <glyph glyph-name="uni1E50" unicode="&#x1e50;" horiz-adv-x="1492" 
d="M746 -24q-183 0 -333.5 88.5t-240.5 258.5t-90 416t89.5 415t239.5 256t335 87t335 -87t239 -256t89 -415t-90 -416t-240.5 -258.5t-332.5 -88.5zM746 225q93 0 172.5 51t127.5 164t48 299t-48.5 298t-127.5 161.5t-172 49.5t-172.5 -49.5t-127.5 -161.5t-48 -298
t48 -299t127.5 -164t172.5 -51zM433 1609v129h623v-129h-623zM914 1821h-217l-304 207h248z" />
    <glyph glyph-name="uni01EA" unicode="&#x1ea;" horiz-adv-x="1492" 
d="M746 -24q-183 0 -333.5 88.5t-240.5 258.5t-90 416t89.5 415t239.5 256t335 87t335 -87t239 -256t89 -415q0 -193 -56.5 -339.5t-155.5 -243.5t-227 -142q-30 -29 -62 -67t-54.5 -75t-22.5 -64q0 -38 28.5 -52t68.5 -14q19 0 39 2t37 5v-149q-20 -2 -44.5 -3.5
t-49.5 -1.5q-66 0 -125 15.5t-96 52t-37 96.5q0 61 37 118t82 100q-13 -1 -25 -1zM746 225q93 0 172.5 51t127.5 164t48 299t-48.5 298t-127.5 161.5t-172 49.5t-172.5 -49.5t-127.5 -161.5t-48 -298t48 -299t127.5 -164t172.5 -51z" />
    <glyph glyph-name="Oslash" unicode="&#xd8;" horiz-adv-x="1492" 
d="M746 -24q-170 0 -309 74l-95 -157l-159 91l106 177q-95 96 -151 241.5t-56 336.5q0 246 89.5 415t239.5 256t335 87q169 0 307 -71l95 157l161 -91l-106 -175q95 -96 150.5 -241.5t55.5 -336.5q0 -246 -90 -416t-240.5 -258.5t-332.5 -88.5zM398 739q0 -98 14 -175
t39 -135l466 771q-39 25 -82 36.5t-89 11.5q-93 0 -172.5 -49.5t-127.5 -161.5t-48 -298zM746 225q93 0 172.5 51t127.5 164t48 299q0 98 -14.5 174.5t-39.5 134.5l-467 -772q75 -51 173 -51z" />
    <glyph glyph-name="Oslashacute" unicode="&#x1fe;" horiz-adv-x="1492" 
d="M746 -24q-170 0 -309 74l-95 -157l-159 91l106 177q-95 96 -151 241.5t-56 336.5q0 246 89.5 415t239.5 256t335 87q169 0 307 -71l95 157l161 -91l-106 -175q95 -96 150.5 -241.5t55.5 -336.5q0 -246 -90 -416t-240.5 -258.5t-332.5 -88.5zM398 739q0 -98 14 -175
t39 -135l466 771q-39 25 -82 36.5t-89 11.5q-93 0 -172.5 -49.5t-127.5 -161.5t-48 -298zM746 225q93 0 172.5 51t127.5 164t48 299q0 98 -14.5 174.5t-39.5 134.5l-467 -772q75 -51 173 -51zM566 1558l273 207h248l-305 -207h-216z" />
    <glyph glyph-name="Otilde" unicode="&#xd5;" horiz-adv-x="1492" 
d="M746 -24q-183 0 -333.5 88.5t-240.5 258.5t-90 416t89.5 415t239.5 256t335 87t335 -87t239 -256t89 -415t-90 -416t-240.5 -258.5t-332.5 -88.5zM746 225q93 0 172.5 51t127.5 164t48 299t-48.5 298t-127.5 161.5t-172 49.5t-172.5 -49.5t-127.5 -161.5t-48 -298
t48 -299t127.5 -164t172.5 -51zM1085 1771q0 -51 -21.5 -103.5t-65 -87.5t-112.5 -35q-53 0 -89 21t-59 40q-21 20 -42.5 34.5t-49.5 14.5q-34 0 -50 -25t-17 -64h-157q0 52 23 105t68.5 88.5t115.5 35.5q50 0 85.5 -21t58.5 -41q22 -20 45.5 -34.5t48.5 -14.5q31 0 45.5 24
t15.5 63h157z" />
    <glyph glyph-name="uni1E4C" unicode="&#x1e4c;" horiz-adv-x="1492" 
d="M746 -24q-183 0 -333.5 88.5t-240.5 258.5t-90 416t89.5 415t239.5 256t335 87t335 -87t239 -256t89 -415t-90 -416t-240.5 -258.5t-332.5 -88.5zM746 225q93 0 172.5 51t127.5 164t48 299t-48.5 298t-127.5 161.5t-172 49.5t-172.5 -49.5t-127.5 -161.5t-48 -298
t48 -299t127.5 -164t172.5 -51zM1075.05 1763.82q0 -49.6992 -20.9512 -100.859q-20.9512 -51.1611 -63.3418 -85.2686q-42.3896 -34.1064 -109.63 -34.1064q-51.6475 0 -86.7295 20.4639q-35.0811 20.4648 -57.4941 38.9795q-20.4648 19.4902 -41.416 33.6201
t-48.2373 14.1299q-33.1328 0 -48.7246 -24.3623t-16.5654 -62.3672h-152.995q0 50.6738 22.4131 102.321t66.7529 86.2422q44.3389 34.5947 112.553 34.5947q48.7246 0 83.3193 -20.4648q34.5938 -20.4639 57.0068 -39.9541q21.4395 -19.4893 44.3398 -33.6191
t47.2627 -14.1299q30.209 0 44.3389 23.3867q14.1299 23.3887 15.1045 61.3936h152.994zM585.597 1868.59l260.137 197.247h236.314l-290.629 -197.247h-205.822z" />
    <glyph glyph-name="uni1E4E" unicode="&#x1e4e;" horiz-adv-x="1492" 
d="M746 -24q-183 0 -333.5 88.5t-240.5 258.5t-90 416t89.5 415t239.5 256t335 87t335 -87t239 -256t89 -415t-90 -416t-240.5 -258.5t-332.5 -88.5zM746 225q93 0 172.5 51t127.5 164t48 299t-48.5 298t-127.5 161.5t-172 49.5t-172.5 -49.5t-127.5 -161.5t-48 -298
t48 -299t127.5 -164t172.5 -51zM1085 1771q0 -51 -21.5 -103.5t-65 -87.5t-112.5 -35q-53 0 -89 21t-59 40q-21 20 -42.5 34.5t-49.5 14.5q-34 0 -50 -25t-17 -64h-157q0 52 23 105t68.5 88.5t115.5 35.5q50 0 85.5 -21t58.5 -41q22 -20 45.5 -34.5t48.5 -14.5q31 0 45.5 24
t15.5 63h157zM505 1863q-66 0 -115.5 35t-49.5 99t49.5 99t115.5 35q65 0 114.5 -35t49.5 -99t-49.5 -99t-114.5 -35zM987 1863q-66 0 -115 35t-49 99t49 99t115 35t115.5 -35t49.5 -99t-49.5 -99t-115.5 -35z" />
    <glyph glyph-name="uni022C" unicode="&#x22c;" horiz-adv-x="1492" 
d="M746 -24q-183 0 -333.5 88.5t-240.5 258.5t-90 416t89.5 415t239.5 256t335 87t335 -87t239 -256t89 -415t-90 -416t-240.5 -258.5t-332.5 -88.5zM746 225q93 0 172.5 51t127.5 164t48 299t-48.5 298t-127.5 161.5t-172 49.5t-172.5 -49.5t-127.5 -161.5t-48 -298
t48 -299t127.5 -164t172.5 -51zM1085 1771q0 -51 -21.5 -103.5t-65 -87.5t-112.5 -35q-53 0 -89 21t-59 40q-21 20 -42.5 34.5t-49.5 14.5q-34 0 -50 -25t-17 -64h-157q0 52 23 105t68.5 88.5t115.5 35.5q50 0 85.5 -21t58.5 -41q22 -20 45.5 -34.5t48.5 -14.5q31 0 45.5 24
t15.5 63h157zM433 1930v129h623v-129h-623z" />
    <glyph glyph-name="OE" unicode="&#x152;" horiz-adv-x="2091" 
d="M730 -24q-183 0 -329.5 88.5t-232.5 258.5t-86 416t85 415t231.5 256t331.5 87q110 0 201 -35.5t141 -88.5v102h896v-240h-599v-375h504v-240h-504v-380h599v-240h-896v109q-51 -55 -141.5 -94t-200.5 -39zM730 225q93 0 170.5 51t123.5 164t46 299t-46.5 298
t-123.5 161.5t-170 49.5t-168.5 -49.5t-119.5 -161.5t-44 -298t44 -299t119.5 -164t168.5 -51z" />
    <glyph glyph-name="P" unicode="P" horiz-adv-x="1237" 
d="M433 0h-311v1475h505q169 0 289 -65.5t184 -177t64 -251.5q0 -139 -64.5 -254.5t-185 -185t-287.5 -69.5h-194v-472zM594 1235h-161v-523h161q117 0 187.5 70.5t70.5 198.5q0 129 -69.5 191.5t-188.5 62.5z" />
    <glyph glyph-name="Thorn" unicode="&#xde;" horiz-adv-x="1192" 
d="M122 0v1473h310v-322h193q217 0 351 -106.5t134 -316.5q0 -140 -62 -233.5t-171 -140.5t-252 -47h-193v-307h-310zM594 910h-162v-363h162q91 0 149.5 46t58.5 136q0 92 -59 136.5t-149 44.5z" />
    <glyph glyph-name="Q" unicode="Q" horiz-adv-x="1492" 
d="M1132 -157l-88 -207q-15 1 -61.5 9t-108 28.5t-120.5 59.5t-100.5 102t-46.5 155q-150 30 -268.5 125.5t-187.5 252.5t-69 371q0 246 89.5 415t239.5 256t335 87t335 -87t239 -256t89 -415q0 -217 -70.5 -375t-192 -253t-273.5 -123q10 -41 45 -68t79 -43t82 -24t53 -10z
M746 225q93 0 172.5 51t127.5 164t48 299t-48.5 298t-127.5 161.5t-172 49.5t-172.5 -49.5t-127.5 -161.5t-48 -298t48 -299t127.5 -164t172.5 -51z" />
    <glyph glyph-name="R" unicode="R" horiz-adv-x="1275" 
d="M122 0v1475h598q232 0 346.5 -105.5t114.5 -303.5q0 -114 -43.5 -194.5t-107 -124.5t-122.5 -49q60 -4 115 -30.5t90 -83.5t35 -153v-281q0 -49 7.5 -90.5t22.5 -59.5h-311q-29 44 -29 150v245q0 87 -45 134.5t-144 47.5h-223v-577h-304zM647 1236h-221v-419h227
q90 0 149.5 60t59.5 161q0 93 -56.5 145.5t-158.5 52.5z" />
    <glyph glyph-name="R.ss01" horiz-adv-x="1269" 
d="M722 1475q233 0 344 -112t111 -310q0 -176 -70.5 -276.5t-184.5 -144.5l247 -632h-318l-206 591h-219v-591h-304v1475h600zM670 824q82 0 134.5 55.5t52.5 161.5q0 94 -54 148t-156 54h-221v-419h244z" />
    <glyph glyph-name="Racute" unicode="&#x154;" horiz-adv-x="1275" 
d="M122 0v1475h598q232 0 346.5 -105.5t114.5 -303.5q0 -114 -43.5 -194.5t-107 -124.5t-122.5 -49q60 -4 115 -30.5t90 -83.5t35 -153v-281q0 -49 7.5 -90.5t22.5 -59.5h-311q-29 44 -29 150v245q0 87 -45 134.5t-144 47.5h-223v-577h-304zM647 1236h-221v-419h227
q90 0 149.5 60t59.5 161q0 93 -56.5 145.5t-158.5 52.5zM437 1558l273 207h248l-305 -207h-216z" />
    <glyph glyph-name="Racute.ss01" horiz-adv-x="1269" 
d="M722 1475q233 0 344 -112t111 -310q0 -176 -70.5 -276.5t-184.5 -144.5l247 -632h-318l-206 591h-219v-591h-304v1475h600zM670 824q82 0 134.5 55.5t52.5 161.5q0 94 -54 148t-156 54h-221v-419h244zM449 1558l273 207h248l-305 -207h-216z" />
    <glyph glyph-name="Rcaron" unicode="&#x158;" horiz-adv-x="1275" 
d="M122 0v1475h598q232 0 346.5 -105.5t114.5 -303.5q0 -114 -43.5 -194.5t-107 -124.5t-122.5 -49q60 -4 115 -30.5t90 -83.5t35 -153v-281q0 -49 7.5 -90.5t22.5 -59.5h-311q-29 44 -29 150v245q0 87 -45 134.5t-144 47.5h-223v-577h-304zM647 1236h-221v-419h227
q90 0 149.5 60t59.5 161q0 93 -56.5 145.5t-158.5 52.5zM262 1763h199l142 -125l143 125h200l-240 -206h-203z" />
    <glyph glyph-name="Rcaron.ss01" horiz-adv-x="1269" 
d="M722 1475q233 0 344 -112t111 -310q0 -176 -70.5 -276.5t-184.5 -144.5l247 -632h-318l-206 591h-219v-591h-304v1475h600zM670 824q82 0 134.5 55.5t52.5 161.5q0 94 -54 148t-156 54h-221v-419h244zM274 1763h199l142 -125l143 125h200l-240 -206h-203z" />
    <glyph glyph-name="uni0156" unicode="&#x156;" horiz-adv-x="1275" 
d="M122 0v1475h598q232 0 346.5 -105.5t114.5 -303.5q0 -114 -43.5 -194.5t-107 -124.5t-122.5 -49q60 -4 115 -30.5t90 -83.5t35 -153v-281q0 -49 7.5 -90.5t22.5 -59.5h-311q-29 44 -29 150v245q0 87 -45 134.5t-144 47.5h-223v-577h-304zM647 1236h-221v-419h227
q90 0 149.5 60t59.5 161q0 93 -56.5 145.5t-158.5 52.5zM630 -268q-46 0 -73.5 25t-27.5 67q0 51 39 74t85 23q41 0 83 -27t42 -95q0 -75 -33 -126.5t-78.5 -82.5t-84.5 -45l-18 48q45 17 92.5 58t47.5 110q-7 -14 -29 -21.5t-45 -7.5z" />
    <glyph glyph-name="uni0156.ss01" horiz-adv-x="1269" 
d="M722 1475q233 0 344 -112t111 -310q0 -176 -70.5 -276.5t-184.5 -144.5l247 -632h-318l-206 591h-219v-591h-304v1475h600zM670 824q82 0 134.5 55.5t52.5 161.5q0 94 -54 148t-156 54h-221v-419h244zM592 -268q-46 0 -73.5 25t-27.5 67q0 51 39 74t85 23q41 0 83 -27
t42 -95q0 -75 -33 -126.5t-78.5 -82.5t-84.5 -45l-18 48q45 17 92.5 58t47.5 110q-7 -14 -29 -21.5t-45 -7.5z" />
    <glyph glyph-name="uni0210" unicode="&#x210;" horiz-adv-x="1275" 
d="M122 0v1475h598q232 0 346.5 -105.5t114.5 -303.5q0 -114 -43.5 -194.5t-107 -124.5t-122.5 -49q60 -4 115 -30.5t90 -83.5t35 -153v-281q0 -49 7.5 -90.5t22.5 -59.5h-311q-29 44 -29 150v245q0 87 -45 134.5t-144 47.5h-223v-577h-304zM647 1236h-221v-419h227
q90 0 149.5 60t59.5 161q0 93 -56.5 145.5t-158.5 52.5zM858 1557h-168l-207 209h191zM526 1557h-168l-229 209h191z" />
    <glyph glyph-name="uni0210.ss01" horiz-adv-x="1269" 
d="M722 1475q233 0 344 -112t111 -310q0 -176 -70.5 -276.5t-184.5 -144.5l247 -632h-318l-206 591h-219v-591h-304v1475h600zM670 824q82 0 134.5 55.5t52.5 161.5q0 94 -54 148t-156 54h-221v-419h244zM870 1557h-168l-207 209h191zM538 1557h-168l-229 209h191z" />
    <glyph glyph-name="uni1E5A" unicode="&#x1e5a;" horiz-adv-x="1275" 
d="M122 0v1475h598q232 0 346.5 -105.5t114.5 -303.5q0 -114 -43.5 -194.5t-107 -124.5t-122.5 -49q60 -4 115 -30.5t90 -83.5t35 -153v-281q0 -49 7.5 -90.5t22.5 -59.5h-311q-29 44 -29 150v245q0 87 -45 134.5t-144 47.5h-223v-577h-304zM647 1236h-221v-419h227
q90 0 149.5 60t59.5 161q0 93 -56.5 145.5t-158.5 52.5zM654 -412q-72 0 -125.5 38t-53.5 107q0 70 53.5 108t125.5 38t126 -38t54 -108t-54 -107.5t-126 -37.5z" />
    <glyph glyph-name="uni1E5A.ss01" horiz-adv-x="1269" 
d="M722 1475q233 0 344 -112t111 -310q0 -176 -70.5 -276.5t-184.5 -144.5l247 -632h-318l-206 591h-219v-591h-304v1475h600zM670 824q82 0 134.5 55.5t52.5 161.5q0 94 -54 148t-156 54h-221v-419h244zM616 -412q-72 0 -125.5 38t-53.5 107q0 70 53.5 108t125.5 38
t126 -38t54 -108t-54 -107.5t-126 -37.5z" />
    <glyph glyph-name="uni0212" unicode="&#x212;" horiz-adv-x="1275" 
d="M122 0v1475h598q232 0 346.5 -105.5t114.5 -303.5q0 -114 -43.5 -194.5t-107 -124.5t-122.5 -49q60 -4 115 -30.5t90 -83.5t35 -153v-281q0 -49 7.5 -90.5t22.5 -59.5h-311q-29 44 -29 150v245q0 87 -45 134.5t-144 47.5h-223v-577h-304zM647 1236h-221v-419h227
q90 0 149.5 60t59.5 161q0 93 -56.5 145.5t-158.5 52.5zM315 1552q0 96 82.5 152.5t207.5 56.5t207.5 -56.5t82.5 -152.5h-181q0 38 -28.5 64.5t-80.5 26.5q-51 0 -80 -26.5t-29 -64.5h-181z" />
    <glyph glyph-name="uni0212.ss01" horiz-adv-x="1269" 
d="M722 1475q233 0 344 -112t111 -310q0 -176 -70.5 -276.5t-184.5 -144.5l247 -632h-318l-206 591h-219v-591h-304v1475h600zM670 824q82 0 134.5 55.5t52.5 161.5q0 94 -54 148t-156 54h-221v-419h244zM326 1552q0 96 82.5 152.5t207.5 56.5t207.5 -56.5t82.5 -152.5h-181
q0 38 -28.5 64.5t-80.5 26.5q-51 0 -80 -26.5t-29 -64.5h-181z" />
    <glyph glyph-name="uni1E5E" unicode="&#x1e5e;" horiz-adv-x="1275" 
d="M122 0v1475h598q232 0 346.5 -105.5t114.5 -303.5q0 -114 -43.5 -194.5t-107 -124.5t-122.5 -49q60 -4 115 -30.5t90 -83.5t35 -153v-281q0 -49 7.5 -90.5t22.5 -59.5h-311q-29 44 -29 150v245q0 87 -45 134.5t-144 47.5h-223v-577h-304zM647 1236h-221v-419h227
q90 0 149.5 60t59.5 161q0 93 -56.5 145.5t-158.5 52.5zM329 -303v129h651v-129h-651z" />
    <glyph glyph-name="uni1E5E.ss01" horiz-adv-x="1269" 
d="M722 1475q233 0 344 -112t111 -310q0 -176 -70.5 -276.5t-184.5 -144.5l247 -632h-318l-206 591h-219v-591h-304v1475h600zM670 824q82 0 134.5 55.5t52.5 161.5q0 94 -54 148t-156 54h-221v-419h244zM291 -303v129h651v-129h-651z" />
    <glyph glyph-name="S" unicode="S" horiz-adv-x="1247" 
d="M622 -24q-160 0 -281.5 51t-190 152.5t-68.5 252.5v59h311v-53q0 -213 230 -213q115 0 177 37t62 120q0 59 -46 104t-126.5 80.5t-181.5 66.5q-111 35 -206 92t-152.5 145t-57.5 217q0 130 69 221.5t188 140t269 48.5q157 0 277.5 -48.5t189 -145t68.5 -240.5v-60h-310
v46q0 97 -53.5 149t-167.5 52q-110 0 -170.5 -40t-60.5 -123q0 -60 43.5 -102t119.5 -75t173 -66q132 -46 230.5 -101.5t152.5 -139t54 -212.5q0 -133 -68.5 -225.5t-190.5 -141t-283 -48.5z" />
    <glyph glyph-name="Sacute" unicode="&#x15a;" horiz-adv-x="1247" 
d="M622 -24q-160 0 -281.5 51t-190 152.5t-68.5 252.5v59h311v-53q0 -213 230 -213q115 0 177 37t62 120q0 59 -46 104t-126.5 80.5t-181.5 66.5q-111 35 -206 92t-152.5 145t-57.5 217q0 130 69 221.5t188 140t269 48.5q157 0 277.5 -48.5t189 -145t68.5 -240.5v-60h-310
v46q0 97 -53.5 149t-167.5 52q-110 0 -170.5 -40t-60.5 -123q0 -60 43.5 -102t119.5 -75t173 -66q132 -46 230.5 -101.5t152.5 -139t54 -212.5q0 -133 -68.5 -225.5t-190.5 -141t-283 -48.5zM456 1558l273 207h248l-305 -207h-216z" />
    <glyph glyph-name="uni1E64" unicode="&#x1e64;" horiz-adv-x="1247" 
d="M622 -24q-160 0 -281.5 51t-190 152.5t-68.5 252.5v59h311v-53q0 -213 230 -213q115 0 177 37t62 120q0 59 -46 104t-126.5 80.5t-181.5 66.5q-111 35 -206 92t-152.5 145t-57.5 217q0 130 69 221.5t188 140t269 48.5q157 0 277.5 -48.5t189 -145t68.5 -240.5v-60h-310
v46q0 97 -53.5 149t-167.5 52q-110 0 -170.5 -40t-60.5 -123q0 -60 43.5 -102t119.5 -75t173 -66q132 -46 230.5 -101.5t152.5 -139t54 -212.5q0 -133 -68.5 -225.5t-190.5 -141t-283 -48.5zM482.156 1545.37l231.01 175.161h209.855l-258.088 -175.161h-182.777z
M626.351 1800.48q-66.7705 0 -116.385 35.2402q-49.6143 35.2393 -49.6143 99.2285q0 64.915 49.6143 99.6914t116.385 34.7764t116.385 -34.7764t49.6143 -99.6914q0 -64.916 -49.6143 -99.6924t-116.385 -34.7764z" />
    <glyph glyph-name="Scaron" unicode="&#x160;" horiz-adv-x="1247" 
d="M622 -24q-160 0 -281.5 51t-190 152.5t-68.5 252.5v59h311v-53q0 -213 230 -213q115 0 177 37t62 120q0 59 -46 104t-126.5 80.5t-181.5 66.5q-111 35 -206 92t-152.5 145t-57.5 217q0 130 69 221.5t188 140t269 48.5q157 0 277.5 -48.5t189 -145t68.5 -240.5v-60h-310
v46q0 97 -53.5 149t-167.5 52q-110 0 -170.5 -40t-60.5 -123q0 -60 43.5 -102t119.5 -75t173 -66q132 -46 230.5 -101.5t152.5 -139t54 -212.5q0 -133 -68.5 -225.5t-190.5 -141t-283 -48.5zM281 1763h199l142 -125l143 125h200l-240 -206h-203z" />
    <glyph glyph-name="uni1E66" unicode="&#x1e66;" horiz-adv-x="1247" 
d="M622 -24q-160 0 -281.5 51t-190 152.5t-68.5 252.5v59h311v-53q0 -213 230 -213q115 0 177 37t62 120q0 59 -46 104t-126.5 80.5t-181.5 66.5q-111 35 -206 92t-152.5 145t-57.5 217q0 130 69 221.5t188 140t269 48.5q157 0 277.5 -48.5t189 -145t68.5 -240.5v-60h-310
v46q0 97 -53.5 149t-167.5 52q-110 0 -170.5 -40t-60.5 -123q0 -60 43.5 -102t119.5 -75t173 -66q132 -46 230.5 -101.5t152.5 -139t54 -212.5q0 -133 -68.5 -225.5t-190.5 -141t-283 -48.5zM281 1763h199l142 -125l143 125h200l-240 -206h-203zM626 1851q-72 0 -125.5 38
t-53.5 107q0 70 53.5 107.5t125.5 37.5t125.5 -37.5t53.5 -107.5t-53.5 -107.5t-125.5 -37.5z" />
    <glyph glyph-name="Scedilla" unicode="&#x15e;" horiz-adv-x="1247" 
d="M731 -74q53 0 103 -34.5t50 -114.5q0 -67 -40 -109.5t-103.5 -63t-133.5 -20.5q-63 0 -126.5 16t-89.5 33l60 113q19 -11 66.5 -28.5t99.5 -17.5q56 0 93.5 21t37.5 62q0 32 -19 47t-47 15q-24 0 -48.5 -9t-35.5 -26l-117 33l62 137q-207 17 -334 130.5t-127 321.5v59
h311v-53q0 -213 230 -213q115 0 177 37t62 120q0 59 -46 104t-126.5 80.5t-181.5 66.5q-111 35 -206 92t-152.5 145t-57.5 217q0 130 69 221.5t188 140t269 48.5q157 0 277.5 -48.5t189 -145.5t68.5 -240v-60h-310v46q0 97 -53.5 149t-167.5 52q-110 0 -170.5 -40
t-60.5 -123q0 -60 43.5 -102t119.5 -75t173 -66q132 -46 230.5 -101.5t152.5 -139t54 -212.5q0 -188 -134.5 -295t-354.5 -118l-35 -75q35 23 91 23z" />
    <glyph glyph-name="Scircumflex" unicode="&#x15c;" horiz-adv-x="1247" 
d="M622 -24q-160 0 -281.5 51t-190 152.5t-68.5 252.5v59h311v-53q0 -213 230 -213q115 0 177 37t62 120q0 59 -46 104t-126.5 80.5t-181.5 66.5q-111 35 -206 92t-152.5 145t-57.5 217q0 130 69 221.5t188 140t269 48.5q157 0 277.5 -48.5t189 -145t68.5 -240.5v-60h-310
v46q0 97 -53.5 149t-167.5 52q-110 0 -170.5 -40t-60.5 -123q0 -60 43.5 -102t119.5 -75t173 -66q132 -46 230.5 -101.5t152.5 -139t54 -212.5q0 -133 -68.5 -225.5t-190.5 -141t-283 -48.5zM281 1557l241 206h203l240 -206h-200l-143 126l-142 -126h-199z" />
    <glyph glyph-name="uni0218" unicode="&#x218;" horiz-adv-x="1247" 
d="M622 -24q-160 0 -281.5 51t-190 152.5t-68.5 252.5v59h311v-53q0 -213 230 -213q115 0 177 37t62 120q0 59 -46 104t-126.5 80.5t-181.5 66.5q-111 35 -206 92t-152.5 145t-57.5 217q0 130 69 221.5t188 140t269 48.5q157 0 277.5 -48.5t189 -145t68.5 -240.5v-60h-310
v46q0 97 -53.5 149t-167.5 52q-110 0 -170.5 -40t-60.5 -123q0 -60 43.5 -102t119.5 -75t173 -66q132 -46 230.5 -101.5t152.5 -139t54 -212.5q0 -133 -68.5 -225.5t-190.5 -141t-283 -48.5zM599 -268q-46 0 -73.5 25t-27.5 67q0 51 39 74t85 23q41 0 83 -27t42 -95
q0 -75 -33 -126.5t-78.5 -82.5t-84.5 -45l-18 48q45 17 92.5 58t47.5 110q-7 -14 -29 -21.5t-45 -7.5z" />
    <glyph glyph-name="uni1E60" unicode="&#x1e60;" horiz-adv-x="1247" 
d="M622 -24q-160 0 -281.5 51t-190 152.5t-68.5 252.5v59h311v-53q0 -213 230 -213q115 0 177 37t62 120q0 59 -46 104t-126.5 80.5t-181.5 66.5q-111 35 -206 92t-152.5 145t-57.5 217q0 130 69 221.5t188 140t269 48.5q157 0 277.5 -48.5t189 -145t68.5 -240.5v-60h-310
v46q0 97 -53.5 149t-167.5 52q-110 0 -170.5 -40t-60.5 -123q0 -60 43.5 -102t119.5 -75t173 -66q132 -46 230.5 -101.5t152.5 -139t54 -212.5q0 -133 -68.5 -225.5t-190.5 -141t-283 -48.5zM626 1563q-72 0 -125.5 38t-53.5 107q0 70 53.5 107.5t125.5 37.5t125.5 -37.5
t53.5 -107.5t-53.5 -107.5t-125.5 -37.5z" />
    <glyph glyph-name="uni1E62" unicode="&#x1e62;" horiz-adv-x="1247" 
d="M622 -24q-160 0 -281.5 51t-190 152.5t-68.5 252.5v59h311v-53q0 -213 230 -213q115 0 177 37t62 120q0 59 -46 104t-126.5 80.5t-181.5 66.5q-111 35 -206 92t-152.5 145t-57.5 217q0 130 69 221.5t188 140t269 48.5q157 0 277.5 -48.5t189 -145t68.5 -240.5v-60h-310
v46q0 97 -53.5 149t-167.5 52q-110 0 -170.5 -40t-60.5 -123q0 -60 43.5 -102t119.5 -75t173 -66q132 -46 230.5 -101.5t152.5 -139t54 -212.5q0 -133 -68.5 -225.5t-190.5 -141t-283 -48.5zM623 -412q-72 0 -125.5 38t-53.5 107q0 70 53.5 108t125.5 38t126 -38t54 -108
t-54 -107.5t-126 -37.5z" />
    <glyph glyph-name="uni1E68" unicode="&#x1e68;" horiz-adv-x="1247" 
d="M622 -24q-160 0 -281.5 51t-190 152.5t-68.5 252.5v59h311v-53q0 -213 230 -213q115 0 177 37t62 120q0 59 -46 104t-126.5 80.5t-181.5 66.5q-111 35 -206 92t-152.5 145t-57.5 217q0 130 69 221.5t188 140t269 48.5q157 0 277.5 -48.5t189 -145t68.5 -240.5v-60h-310
v46q0 97 -53.5 149t-167.5 52q-110 0 -170.5 -40t-60.5 -123q0 -60 43.5 -102t119.5 -75t173 -66q132 -46 230.5 -101.5t152.5 -139t54 -212.5q0 -133 -68.5 -225.5t-190.5 -141t-283 -48.5zM623 -412q-72 0 -125.5 38t-53.5 107q0 70 53.5 108t125.5 38t126 -38t54 -108
t-54 -107.5t-126 -37.5zM626 1563q-72 0 -125.5 38t-53.5 107q0 70 53.5 107.5t125.5 37.5t125.5 -37.5t53.5 -107.5t-53.5 -107.5t-125.5 -37.5z" />
    <glyph glyph-name="uni1E9E" unicode="&#x1e9e;" horiz-adv-x="1357" 
d="M122 0v1105q0 128 55 210t149 121t212 39h633v-254l-330 -330q30 8 73 8q92 0 174.5 -43.5t134.5 -141t52 -257.5q0 -170 -71.5 -273t-192.5 -150t-271 -47q-74 0 -126.5 11t-74.5 20l3 243q18 -8 78.5 -21t125.5 -13q89 0 152.5 58.5t63.5 183.5q0 127 -58 181t-143 54
q-33 0 -57 -9.5t-35 -15.5l-162 196l338 360h-267q-76 0 -110.5 -43.5t-34.5 -120.5v-1071h-311z" />
    <glyph glyph-name="uni018F" unicode="&#x18f;" horiz-adv-x="1326" 
d="M650 -11q-169 0 -297 80t-199.5 242t-71.5 409q0 97 3 114h843q-8 156 -43.5 246.5t-93 128.5t-132.5 38q-83 0 -141.5 -36t-89.5 -91.5t-35 -113.5h-298q4 130 76.5 239t198.5 174t289 65q162 0 294.5 -75t211 -239t78.5 -431q0 -245 -76.5 -412.5t-210.5 -252.5
t-306 -85zM650 226q117 0 187.5 92t87.5 288h-535q6 -193 74.5 -286.5t185.5 -93.5z" />
    <glyph glyph-name="T" unicode="T" horiz-adv-x="1168" 
d="M1101 1235h-363v-1235h-309v1235h-362v240h1034v-240z" />
    <glyph glyph-name="Tbar" unicode="&#x166;" horiz-adv-x="1168" 
d="M220 668v140h209v427h-362v240h1034v-240h-363v-427h211v-140h-211v-668h-309v668h-209z" />
    <glyph glyph-name="Tcaron" unicode="&#x164;" horiz-adv-x="1168" 
d="M1101 1235h-363v-1235h-309v1235h-362v240h1034v-240zM242 1763h199l142 -125l143 125h200l-240 -206h-203z" />
    <glyph glyph-name="uni0162" unicode="&#x162;" horiz-adv-x="1168" 
d="M1101 1235h-363v-1235h-309v1235h-362v240h1034v-240zM693 -74q53 0 103 -34.5t50 -114.5q0 -67 -40 -109.5t-103.5 -63t-133.5 -20.5q-63 0 -126.5 16t-89.5 33l60 113q19 -11 66.5 -28.5t99.5 -17.5q56 0 93.5 21t37.5 62q0 32 -19 47t-47 15q-24 0 -48.5 -9t-35.5 -26
l-117 33l72 157h132l-45 -97q35 23 91 23z" />
    <glyph glyph-name="uni021A" unicode="&#x21a;" horiz-adv-x="1168" 
d="M1101 1235h-363v-1235h-309v1235h-362v240h1034v-240zM561 -268q-46 0 -73.5 25t-27.5 67q0 51 39 74t85 23q41 0 83 -27t42 -95q0 -75 -33 -126.5t-78.5 -82.5t-84.5 -45l-18 48q45 17 92.5 58t47.5 110q-7 -14 -29 -21.5t-45 -7.5z" />
    <glyph glyph-name="uni1E6C" unicode="&#x1e6c;" horiz-adv-x="1168" 
d="M1101 1235h-363v-1235h-309v1235h-362v240h1034v-240zM585 -412q-72 0 -125.5 38t-53.5 107q0 70 53.5 108t125.5 38t126 -38t54 -108t-54 -107.5t-126 -37.5z" />
    <glyph glyph-name="uni1E6E" unicode="&#x1e6e;" horiz-adv-x="1168" 
d="M1101 1235h-363v-1235h-309v1235h-362v240h1034v-240zM259 -303v129h651v-129h-651z" />
    <glyph glyph-name="U" unicode="U" horiz-adv-x="1351" 
d="M1228 533q0 -280 -148 -418.5t-405 -138.5t-405 138.5t-148 418.5v942h311v-947q0 -156 57 -229.5t185 -73.5q127 0 185 73.5t58 229.5v947h310v-942z" />
    <glyph glyph-name="Uacute" unicode="&#xda;" horiz-adv-x="1351" 
d="M1228 533q0 -280 -148 -418.5t-405 -138.5t-405 138.5t-148 418.5v942h311v-947q0 -156 57 -229.5t185 -73.5q127 0 185 73.5t58 229.5v947h310v-942zM508 1558l273 207h248l-305 -207h-216z" />
    <glyph glyph-name="Ubreve" unicode="&#x16c;" horiz-adv-x="1351" 
d="M1228 533q0 -280 -148 -418.5t-405 -138.5t-405 138.5t-148 418.5v942h311v-947q0 -156 57 -229.5t185 -73.5q127 0 185 73.5t58 229.5v947h310v-942zM385 1747h182q0 -38 28.5 -65.5t79.5 -27.5q52 0 80 27.5t28 65.5h182q0 -95 -82.5 -153.5t-207.5 -58.5t-207.5 58.5
t-82.5 153.5z" />
    <glyph glyph-name="uni01D3" unicode="&#x1d3;" horiz-adv-x="1351" 
d="M1228 533q0 -280 -148 -418.5t-405 -138.5t-405 138.5t-148 418.5v942h311v-947q0 -156 57 -229.5t185 -73.5q127 0 185 73.5t58 229.5v947h310v-942zM335 1888h196l143 -167l143 167h197l-239 -272h-200z" />
    <glyph glyph-name="Ucircumflex" unicode="&#xdb;" horiz-adv-x="1351" 
d="M1228 533q0 -280 -148 -418.5t-405 -138.5t-405 138.5t-148 418.5v942h311v-947q0 -156 57 -229.5t185 -73.5q127 0 185 73.5t58 229.5v947h310v-942zM333 1557l241 206h203l240 -206h-200l-143 126l-142 -126h-199z" />
    <glyph glyph-name="uni0214" unicode="&#x214;" horiz-adv-x="1351" 
d="M1228 533q0 -280 -148 -418.5t-405 -138.5t-405 138.5t-148 418.5v942h311v-947q0 -156 57 -229.5t185 -73.5q127 0 185 73.5t58 229.5v947h310v-942zM929 1557h-168l-207 209h191zM597 1557h-168l-229 209h191z" />
    <glyph glyph-name="Udieresis" unicode="&#xdc;" horiz-adv-x="1351" 
d="M1228 533q0 -280 -148 -418.5t-405 -138.5t-405 138.5t-148 418.5v942h311v-947q0 -156 57 -229.5t185 -73.5q127 0 185 73.5t58 229.5v947h310v-942zM435 1542q-66 0 -115.5 35t-49.5 99t49.5 99t115.5 35q65 0 114.5 -35t49.5 -99t-49.5 -99t-114.5 -35zM917 1542
q-66 0 -115 35t-49 99t49 99t115 35t115.5 -35t49.5 -99t-49.5 -99t-115.5 -35z" />
    <glyph glyph-name="uni01D7" unicode="&#x1d7;" horiz-adv-x="1351" 
d="M1228 533q0 -280 -148 -418.5t-405 -138.5t-405 138.5t-148 418.5v942h311v-947q0 -156 57 -229.5t185 -73.5q127 0 185 73.5t58 229.5v947h310v-942zM435 1542q-66 0 -115.5 35t-49.5 99t49.5 99t115.5 35q65 0 114.5 -35t49.5 -99t-49.5 -99t-114.5 -35zM917 1542
q-66 0 -115 35t-49 99t49 99t115 35t115.5 -35t49.5 -99t-49.5 -99t-115.5 -35zM508 1853l273 207h248l-305 -207h-216z" />
    <glyph glyph-name="uni01D9" unicode="&#x1d9;" horiz-adv-x="1351" 
d="M1228 533q0 -280 -148 -418.5t-405 -138.5t-405 138.5t-148 418.5v942h311v-947q0 -156 57 -229.5t185 -73.5q127 0 185 73.5t58 229.5v947h310v-942zM435 1542q-66 0 -115.5 35t-49.5 99t49.5 99t115.5 35q65 0 114.5 -35t49.5 -99t-49.5 -99t-114.5 -35zM917 1542
q-66 0 -115 35t-49 99t49 99t115 35t115.5 -35t49.5 -99t-49.5 -99t-115.5 -35zM333 2058h199l142 -125l143 125h200l-240 -206h-203z" />
    <glyph glyph-name="uni01DB" unicode="&#x1db;" horiz-adv-x="1351" 
d="M1228 533q0 -280 -148 -418.5t-405 -138.5t-405 138.5t-148 418.5v942h311v-947q0 -156 57 -229.5t185 -73.5q127 0 185 73.5t58 229.5v947h310v-942zM435 1542q-66 0 -115.5 35t-49.5 99t49.5 99t115.5 35q65 0 114.5 -35t49.5 -99t-49.5 -99t-114.5 -35zM917 1542
q-66 0 -115 35t-49 99t49 99t115 35t115.5 -35t49.5 -99t-49.5 -99t-115.5 -35zM844 1853h-217l-304 207h248z" />
    <glyph glyph-name="uni01D5" unicode="&#x1d5;" horiz-adv-x="1351" 
d="M1228 533q0 -280 -148 -418.5t-405 -138.5t-405 138.5t-148 418.5v942h311v-947q0 -156 57 -229.5t185 -73.5q127 0 185 73.5t58 229.5v947h310v-942zM435 1542q-66 0 -115.5 35t-49.5 99t49.5 99t115.5 35q65 0 114.5 -35t49.5 -99t-49.5 -99t-114.5 -35zM917 1542
q-66 0 -115 35t-49 99t49 99t115 35t115.5 -35t49.5 -99t-49.5 -99t-115.5 -35zM363 1904v129h623v-129h-623z" />
    <glyph glyph-name="uni1EE4" unicode="&#x1ee4;" horiz-adv-x="1351" 
d="M1228 533q0 -280 -148 -418.5t-405 -138.5t-405 138.5t-148 418.5v942h311v-947q0 -156 57 -229.5t185 -73.5q127 0 185 73.5t58 229.5v947h310v-942zM674 -412q-72 0 -125.5 38t-53.5 107q0 70 53.5 108t125.5 38t126 -38t54 -108t-54 -107.5t-126 -37.5z" />
    <glyph glyph-name="Ugrave" unicode="&#xd9;" horiz-adv-x="1351" 
d="M1228 533q0 -280 -148 -418.5t-405 -138.5t-405 138.5t-148 418.5v942h311v-947q0 -156 57 -229.5t185 -73.5q127 0 185 73.5t58 229.5v947h310v-942zM844 1558h-217l-304 207h248z" />
    <glyph glyph-name="uni1EE6" unicode="&#x1ee6;" horiz-adv-x="1351" 
d="M1228 533q0 -280 -148 -418.5t-405 -138.5t-405 138.5t-148 418.5v942h311v-947q0 -156 57 -229.5t185 -73.5q127 0 185 73.5t58 229.5v947h310v-942zM460 1806q112 0 206.5 -9t152 -37.5t57.5 -89.5q0 -79 -82.5 -115.5t-202.5 -36.5l-32 82q32 2 71 7t67.5 17t28.5 34
q0 32 -70 41.5t-196 9.5v97z" />
    <glyph glyph-name="Uhorn" unicode="&#x1af;" horiz-adv-x="1434" 
d="M1228 533q0 -280 -148 -418.5t-405 -138.5t-405 138.5t-148 418.5v942h311v-947q0 -156 57 -229.5t185 -73.5q127 0 185 73.5t58 229.5v947h183q80 0 117 65.5t37 193.5h191q0 -165 -57.5 -261t-160.5 -129v-811z" />
    <glyph glyph-name="uni1EE8" unicode="&#x1ee8;" horiz-adv-x="1446" 
d="M1228 533q0 -280 -148 -418.5t-405 -138.5t-405 138.5t-148 418.5v942h311v-947q0 -156 57 -229.5t185 -73.5q127 0 185 73.5t58 229.5v947h183q80 0 117 65.5t37 193.5h191q0 -165 -57.5 -261t-160.5 -129v-811zM508 1558l273 207h248l-305 -207h-216z" />
    <glyph glyph-name="uni1EF0" unicode="&#x1ef0;" horiz-adv-x="1446" 
d="M643 -429q-72 0 -125.5 38t-53.5 107q0 70 53.5 108t125.5 38t126 -38t54 -108t-54 -107.5t-126 -37.5zM1228 533q0 -280 -148 -418.5t-405 -138.5t-405 138.5t-148 418.5v942h311v-947q0 -156 57 -229.5t185 -73.5q127 0 185 73.5t58 229.5v947h183q80 0 117 65.5
t37 193.5h191q0 -165 -57.5 -261t-160.5 -129v-811z" />
    <glyph glyph-name="uni1EEA" unicode="&#x1eea;" horiz-adv-x="1446" 
d="M851 1558h-217l-304 207h248zM1228 533q0 -280 -148 -418.5t-405 -138.5t-405 138.5t-148 418.5v942h311v-947q0 -156 57 -229.5t185 -73.5q127 0 185 73.5t58 229.5v947h183q80 0 117 65.5t37 193.5h191q0 -165 -57.5 -261t-160.5 -129v-811z" />
    <glyph glyph-name="uni1EEC" unicode="&#x1eec;" horiz-adv-x="1446" 
d="M1228 533q0 -280 -148 -418.5t-405 -138.5t-405 138.5t-148 418.5v942h311v-947q0 -156 57 -229.5t185 -73.5q127 0 185 73.5t58 229.5v947h183q80 0 117 65.5t37 193.5h191q0 -165 -57.5 -261t-160.5 -129v-811zM460 1806q112 0 206.5 -9t152 -37.5t57.5 -89.5
q0 -79 -82.5 -115.5t-202.5 -36.5l-32 82q32 2 71 7t67.5 17t28.5 34q0 32 -70 41.5t-196 9.5v97z" />
    <glyph glyph-name="uni1EEE" unicode="&#x1eee;" horiz-adv-x="1446" 
d="M1024 1771q0 -51 -21.5 -103.5t-65 -87.5t-112.5 -35q-53 0 -89 21t-59 40q-21 20 -42.5 34.5t-49.5 14.5q-34 0 -50 -25t-17 -64h-157q0 52 23 105t68.5 88.5t115.5 35.5q50 0 85.5 -21t58.5 -41q22 -20 45.5 -34.5t48.5 -14.5q31 0 45.5 24t15.5 63h157zM1228 533
q0 -280 -148 -418.5t-405 -138.5t-405 138.5t-148 418.5v942h311v-947q0 -156 57 -229.5t185 -73.5q127 0 185 73.5t58 229.5v947h183q80 0 117 65.5t37 193.5h191q0 -165 -57.5 -261t-160.5 -129v-811z" />
    <glyph glyph-name="Uhungarumlaut" unicode="&#x170;" horiz-adv-x="1351" 
d="M1228 533q0 -280 -148 -418.5t-405 -138.5t-405 138.5t-148 418.5v942h311v-947q0 -156 57 -229.5t185 -73.5q127 0 185 73.5t58 229.5v947h310v-942zM410 1558l246 207h197l-266 -207h-177zM754 1558l246 207h197l-266 -207h-177z" />
    <glyph glyph-name="uni0216" unicode="&#x216;" horiz-adv-x="1351" 
d="M1228 533q0 -280 -148 -418.5t-405 -138.5t-405 138.5t-148 418.5v942h311v-947q0 -156 57 -229.5t185 -73.5q127 0 185 73.5t58 229.5v947h310v-942zM385 1552q0 96 82.5 152.5t207.5 56.5t207.5 -56.5t82.5 -152.5h-181q0 38 -28.5 64.5t-80.5 26.5q-51 0 -80 -26.5
t-29 -64.5h-181z" />
    <glyph glyph-name="Umacron" unicode="&#x16a;" horiz-adv-x="1351" 
d="M1228 533q0 -280 -148 -418.5t-405 -138.5t-405 138.5t-148 418.5v942h311v-947q0 -156 57 -229.5t185 -73.5q127 0 185 73.5t58 229.5v947h310v-942zM363 1609v129h623v-129h-623z" />
    <glyph glyph-name="uni1E7A" unicode="&#x1e7a;" horiz-adv-x="1351" 
d="M1228 533q0 -280 -148 -418.5t-405 -138.5t-405 138.5t-148 418.5v942h311v-947q0 -156 57 -229.5t185 -73.5q127 0 185 73.5t58 229.5v947h310v-942zM363 1609v129h623v-129h-623zM435 1805q-66 0 -115.5 35t-49.5 99t49.5 99t115.5 35q65 0 114.5 -35t49.5 -99
t-49.5 -99t-114.5 -35zM917 1805q-66 0 -115 35t-49 99t49 99t115 35t115.5 -35t49.5 -99t-49.5 -99t-115.5 -35z" />
    <glyph glyph-name="Uogonek" unicode="&#x172;" horiz-adv-x="1351" 
d="M941 -270v-148q-20 -3 -44.5 -4.5t-49.5 -1.5q-66 0 -125 16t-96 52t-37 97q0 68 45 130.5t95 106.5q-27 -2 -54 -2q-257 0 -405 138.5t-148 418.5v942h311v-947q0 -156 57 -229.5t185 -73.5q127 0 185 73.5t58 229.5v947h310v-942q0 -200 -76.5 -327t-214.5 -184
q-30 -26 -69.5 -68.5t-69.5 -87t-30 -77.5q0 -38 28.5 -52t68.5 -14q19 0 39 2t37 5z" />
    <glyph glyph-name="Uring" unicode="&#x16e;" horiz-adv-x="1351" 
d="M1228 533q0 -280 -148 -418.5t-405 -138.5t-405 138.5t-148 418.5v942h311v-947q0 -156 57 -229.5t185 -73.5q127 0 185 73.5t58 229.5v947h310v-942zM675 1517q-63 0 -115 31t-83 83t-31 115t31 115t83 83t115 31t115 -31t83 -83t31 -115t-31 -115t-83 -83t-115 -31z
M675 1651q40 0 67.5 27.5t27.5 67.5t-27.5 68t-67.5 28t-67.5 -28t-27.5 -68t27.5 -67.5t67.5 -27.5z" />
    <glyph glyph-name="Utilde" unicode="&#x168;" horiz-adv-x="1351" 
d="M1228 533q0 -280 -148 -418.5t-405 -138.5t-405 138.5t-148 418.5v942h311v-947q0 -156 57 -229.5t185 -73.5q127 0 185 73.5t58 229.5v947h310v-942zM1014 1771q0 -51 -21.5 -103.5t-65 -87.5t-112.5 -35q-53 0 -89 21t-59 40q-21 20 -42.5 34.5t-49.5 14.5
q-34 0 -50 -25t-17 -64h-157q0 52 23 105t68.5 88.5t115.5 35.5q50 0 85.5 -21t58.5 -41q22 -20 45.5 -34.5t48.5 -14.5q31 0 45.5 24t15.5 63h157z" />
    <glyph glyph-name="uni1E78" unicode="&#x1e78;" horiz-adv-x="1351" 
d="M1228 533q0 -280 -148 -418.5t-405 -138.5t-405 138.5t-148 418.5v942h311v-947q0 -156 57 -229.5t185 -73.5q127 0 185 73.5t58 229.5v947h310v-942zM1014 1771q0 -51 -21.5 -103.5t-65 -87.5t-112.5 -35q-53 0 -89 21t-59 40q-21 20 -42.5 34.5t-49.5 14.5
q-34 0 -50 -25t-17 -64h-157q0 52 23 105t68.5 88.5t115.5 35.5q50 0 85.5 -21t58.5 -41q22 -20 45.5 -34.5t48.5 -14.5q31 0 45.5 24t15.5 63h157zM508 1879l273 207h248l-305 -207h-216z" />
    <glyph glyph-name="V" unicode="V" horiz-adv-x="1301" 
d="M420 -3l-365 1478h343l253 -1252l251 1252h344l-362 -1478h-464z" />
    <glyph glyph-name="W" unicode="W" horiz-adv-x="1888" 
d="M286 0l-216 1475h319l140 -1252l222 1252h387l222 -1252l139 1252h319l-216 -1475h-476l-181 1158l-183 -1158h-476z" />
    <glyph glyph-name="Wacute" unicode="&#x1e82;" horiz-adv-x="1888" 
d="M286 0l-216 1475h319l140 -1252l222 1252h387l222 -1252l139 1252h319l-216 -1475h-476l-181 1158l-183 -1158h-476zM780 1558l273 207h248l-305 -207h-216z" />
    <glyph glyph-name="Wcircumflex" unicode="&#x174;" horiz-adv-x="1888" 
d="M286 0l-216 1475h319l140 -1252l222 1252h387l222 -1252l139 1252h319l-216 -1475h-476l-181 1158l-183 -1158h-476zM605 1557l241 206h203l240 -206h-200l-143 126l-142 -126h-199z" />
    <glyph glyph-name="Wdieresis" unicode="&#x1e84;" horiz-adv-x="1888" 
d="M286 0l-216 1475h319l140 -1252l222 1252h387l222 -1252l139 1252h319l-216 -1475h-476l-181 1158l-183 -1158h-476zM707 1542q-66 0 -115.5 35t-49.5 99t49.5 99t115.5 35q65 0 114.5 -35t49.5 -99t-49.5 -99t-114.5 -35zM1189 1542q-66 0 -115 35t-49 99t49 99t115 35
t115.5 -35t49.5 -99t-49.5 -99t-115.5 -35z" />
    <glyph glyph-name="Wgrave" unicode="&#x1e80;" horiz-adv-x="1888" 
d="M286 0l-216 1475h319l140 -1252l222 1252h387l222 -1252l139 1252h319l-216 -1475h-476l-181 1158l-183 -1158h-476zM1116 1558h-217l-304 207h248z" />
    <glyph glyph-name="X" unicode="X" horiz-adv-x="1326" 
d="M931 0l-269 520l-269 -520h-349l420 730l-408 745h349l257 -537l255 537h349l-404 -744l419 -731h-350z" />
    <glyph glyph-name="Y" unicode="Y" horiz-adv-x="1273" 
d="M1218 1475l-428 -967v-508h-309v508l-426 967h328l253 -652l253 652h329z" />
    <glyph glyph-name="Yacute" unicode="&#xdd;" horiz-adv-x="1273" 
d="M1218 1475l-428 -967v-508h-309v508l-426 967h328l253 -652l253 652h329zM470 1558l273 207h248l-305 -207h-216z" />
    <glyph glyph-name="Ycircumflex" unicode="&#x176;" horiz-adv-x="1273" 
d="M1218 1475l-428 -967v-508h-309v508l-426 967h328l253 -652l253 652h329zM295 1557l241 206h203l240 -206h-200l-143 126l-142 -126h-199z" />
    <glyph glyph-name="Ydieresis" unicode="&#x178;" horiz-adv-x="1273" 
d="M1218 1475l-428 -967v-508h-309v508l-426 967h328l253 -652l253 652h329zM397 1542q-66 0 -115.5 35t-49.5 99t49.5 99t115.5 35q65 0 114.5 -35t49.5 -99t-49.5 -99t-114.5 -35zM879 1542q-66 0 -115 35t-49 99t49 99t115 35t115.5 -35t49.5 -99t-49.5 -99t-115.5 -35z
" />
    <glyph glyph-name="uni1EF4" unicode="&#x1ef4;" horiz-adv-x="1273" 
d="M1218 1475l-428 -967v-508h-309v508l-426 967h328l253 -652l253 652h329zM637 -412q-72 0 -125.5 38t-53.5 107q0 70 53.5 108t125.5 38t126 -38t54 -108t-54 -107.5t-126 -37.5z" />
    <glyph glyph-name="Ygrave" unicode="&#x1ef2;" horiz-adv-x="1273" 
d="M1218 1475l-428 -967v-508h-309v508l-426 967h328l253 -652l253 652h329zM806 1558h-217l-304 207h248z" />
    <glyph glyph-name="uni1EF6" unicode="&#x1ef6;" horiz-adv-x="1273" 
d="M1218 1475l-428 -967v-508h-309v508l-426 967h328l253 -652l253 652h329zM422 1806q112 0 206.5 -9t152 -37.5t57.5 -89.5q0 -79 -82.5 -115.5t-202.5 -36.5l-32 82q32 2 71 7t67.5 17t28.5 34q0 32 -70 41.5t-196 9.5v97z" />
    <glyph glyph-name="uni0232" unicode="&#x232;" horiz-adv-x="1273" 
d="M1218 1475l-428 -967v-508h-309v508l-426 967h328l253 -652l253 652h329zM325 1609v129h623v-129h-623z" />
    <glyph glyph-name="uni1EF8" unicode="&#x1ef8;" horiz-adv-x="1273" 
d="M1218 1475l-428 -967v-508h-309v508l-426 967h328l253 -652l253 652h329zM976 1771q0 -51 -21.5 -103.5t-65 -87.5t-112.5 -35q-53 0 -89 21t-59 40q-21 20 -42.5 34.5t-49.5 14.5q-34 0 -50 -25t-17 -64h-157q0 52 23 105t68.5 88.5t115.5 35.5q50 0 85.5 -21t58.5 -41
q22 -20 45.5 -34.5t48.5 -14.5q31 0 45.5 24t15.5 63h157z" />
    <glyph glyph-name="Z" unicode="Z" horiz-adv-x="1168" 
d="M435 241h636v-241h-983v208l646 1027h-601v240h948v-205l-646 -1027v-2z" />
    <glyph glyph-name="Zacute" unicode="&#x179;" horiz-adv-x="1168" 
d="M435 241h636v-241h-983v208l646 1027h-601v240h948v-205l-646 -1027v-2zM421 1558l273 207h248l-305 -207h-216z" />
    <glyph glyph-name="Zcaron" unicode="&#x17d;" horiz-adv-x="1168" 
d="M435 241h636v-241h-983v208l646 1027h-601v240h948v-205l-646 -1027v-2zM246 1763h199l142 -125l143 125h200l-240 -206h-203z" />
    <glyph glyph-name="Zdotaccent" unicode="&#x17b;" horiz-adv-x="1168" 
d="M435 241h636v-241h-983v208l646 1027h-601v240h948v-205l-646 -1027v-2zM591 1563q-72 0 -125.5 38t-53.5 107q0 70 53.5 107.5t125.5 37.5t125.5 -37.5t53.5 -107.5t-53.5 -107.5t-125.5 -37.5z" />
    <glyph glyph-name="uni1E92" unicode="&#x1e92;" horiz-adv-x="1168" 
d="M435 241h636v-241h-983v208l646 1027h-601v240h948v-205l-646 -1027v-2zM588 -409q-72 0 -125.5 38t-53.5 107q0 70 53.5 108t125.5 38t126 -38t54 -108t-54 -107.5t-126 -37.5z" />
    <glyph glyph-name="a" unicode="a" horiz-adv-x="1256" 
d="M481 -22q-175 0 -287 82t-112 232q0 113 62 184t164.5 108.5t222.5 49.5q174 16 241 30.5t67 49.5v2q0 59 -56.5 93t-157.5 34q-220 0 -220 -156h-305q0 127 69.5 215.5t188.5 134t269 45.5q140 0 259 -42.5t191.5 -128t72.5 -215.5v-459q0 -41 2.5 -79t11.5 -68
q10 -35 25 -58t25 -32h-305q-7 8 -21.5 29.5t-24.5 50.5q-6 17 -10 33q-60 -64 -158 -99.5t-214 -35.5zM564 210q72 0 136 26.5t104 83.5t40 149v9q-57 -15 -121 -24.5t-127 -16.5q-102 -10 -152.5 -34.5t-50.5 -82.5q0 -110 171 -110z" />
    <glyph glyph-name="a.ss01" horiz-adv-x="1335" 
d="M581 -24q-132 0 -248.5 62t-188.5 187t-72 313q0 179 73.5 300t190.5 182.5t245 61.5q96 0 182.5 -37t150.5 -106v123h310v-1062h-310v114q-64 -68 -150.5 -103t-182.5 -35zM666 238q64 0 120.5 28t92 83t35.5 138v90q0 83 -36 137t-92.5 80t-119.5 26q-68 0 -129 -28
t-99.5 -90.5t-38.5 -166.5t38.5 -169.5t99.5 -96.5t129 -31z" />
    <glyph glyph-name="aacute" unicode="&#xe1;" horiz-adv-x="1256" 
d="M481 -22q-175 0 -287 82t-112 232q0 113 62 184t164.5 108.5t222.5 49.5q174 16 241 30.5t67 49.5v2q0 59 -56.5 93t-157.5 34q-220 0 -220 -156h-305q0 127 69.5 215.5t188.5 134t269 45.5q140 0 259 -42.5t191.5 -128t72.5 -215.5v-459q0 -41 2.5 -79t11.5 -68
q10 -35 25 -58t25 -32h-305q-7 8 -21.5 29.5t-24.5 50.5q-6 17 -10 33q-60 -64 -158 -99.5t-214 -35.5zM564 210q72 0 136 26.5t104 83.5t40 149v9q-57 -15 -121 -24.5t-127 -16.5q-102 -10 -152.5 -34.5t-50.5 -82.5q0 -110 171 -110zM477 1203l238 272h237l-271 -272h-204
z" />
    <glyph glyph-name="aacute.ss01" horiz-adv-x="1335" 
d="M581 -24q-132 0 -248.5 62t-188.5 187t-72 313q0 179 73.5 300t190.5 182.5t245 61.5q96 0 182.5 -37t150.5 -106v123h310v-1062h-310v114q-64 -68 -150.5 -103t-182.5 -35zM666 238q64 0 120.5 28t92 83t35.5 138v90q0 83 -36 137t-92.5 80t-119.5 26q-68 0 -129 -28
t-99.5 -90.5t-38.5 -166.5t38.5 -169.5t99.5 -96.5t129 -31zM499 1203l238 272h237l-271 -272h-204z" />
    <glyph glyph-name="abreve" unicode="&#x103;" horiz-adv-x="1256" 
d="M481 -22q-175 0 -287 82t-112 232q0 113 62 184t164.5 108.5t222.5 49.5q174 16 241 30.5t67 49.5v2q0 59 -56.5 93t-157.5 34q-220 0 -220 -156h-305q0 127 69.5 215.5t188.5 134t269 45.5q140 0 259 -42.5t191.5 -128t72.5 -215.5v-459q0 -41 2.5 -79t11.5 -68
q10 -35 25 -58t25 -32h-305q-7 8 -21.5 29.5t-24.5 50.5q-6 17 -10 33q-60 -64 -158 -99.5t-214 -35.5zM564 210q72 0 136 26.5t104 83.5t40 149v9q-57 -15 -121 -24.5t-127 -16.5q-102 -10 -152.5 -34.5t-50.5 -82.5q0 -110 171 -110zM353 1495h181q0 -60 29 -100t80 -40
q52 0 80.5 40t28.5 100h181q0 -123 -82.5 -191t-207.5 -68t-207.5 68t-82.5 191z" />
    <glyph glyph-name="abreve.ss01" horiz-adv-x="1335" 
d="M581 -24q-132 0 -248.5 62t-188.5 187t-72 313q0 179 73.5 300t190.5 182.5t245 61.5q96 0 182.5 -37t150.5 -106v123h310v-1062h-310v114q-64 -68 -150.5 -103t-182.5 -35zM666 238q64 0 120.5 28t92 83t35.5 138v90q0 83 -36 137t-92.5 80t-119.5 26q-68 0 -129 -28
t-99.5 -90.5t-38.5 -166.5t38.5 -169.5t99.5 -96.5t129 -31zM374 1495h181q0 -60 29 -100t80 -40q52 0 80.5 40t28.5 100h181q0 -123 -82.5 -191t-207.5 -68t-207.5 68t-82.5 191z" />
    <glyph glyph-name="uni1EAF" unicode="&#x1eaf;" horiz-adv-x="1256" 
d="M481 -22q-175 0 -287 82t-112 232q0 113 62 184t164.5 108.5t222.5 49.5q174 16 241 30.5t67 49.5v2q0 59 -56.5 93t-157.5 34q-220 0 -220 -156h-305q0 127 69.5 215.5t188.5 134t269 45.5q140 0 259 -42.5t191.5 -128t72.5 -215.5v-459q0 -41 2.5 -79t11.5 -68
q10 -35 25 -58t25 -32h-305q-7 8 -21.5 29.5t-24.5 50.5q-6 17 -10 33q-60 -64 -158 -99.5t-214 -35.5zM564 210q72 0 136 26.5t104 83.5t40 149v9q-57 -15 -121 -24.5t-127 -16.5q-102 -10 -152.5 -34.5t-50.5 -82.5q0 -110 171 -110zM526 1527l273 207h247l-304 -207h-216
zM353 1495h181q0 -60 29 -100t80 -40q52 0 80.5 40t28.5 100h181q0 -123 -82.5 -191t-207.5 -68t-207.5 68t-82.5 191z" />
    <glyph glyph-name="uni1EAF.ss01" horiz-adv-x="1335" 
d="M581 -24q-132 0 -248.5 62t-188.5 187t-72 313q0 179 73.5 300t190.5 182.5t245 61.5q96 0 182.5 -37t150.5 -106v123h310v-1062h-310v114q-64 -68 -150.5 -103t-182.5 -35zM666 238q64 0 120.5 28t92 83t35.5 138v90q0 83 -36 137t-92.5 80t-119.5 26q-68 0 -129 -28
t-99.5 -90.5t-38.5 -166.5t38.5 -169.5t99.5 -96.5t129 -31zM547 1527l273 207h247l-304 -207h-216zM374 1495h181q0 -60 29 -100t80 -40q52 0 80.5 40t28.5 100h181q0 -123 -82.5 -191t-207.5 -68t-207.5 68t-82.5 191z" />
    <glyph glyph-name="uni1EB7" unicode="&#x1eb7;" horiz-adv-x="1256" 
d="M481 -22q-175 0 -287 82t-112 232q0 113 62 184t164.5 108.5t222.5 49.5q174 16 241 30.5t67 49.5v2q0 59 -56.5 93t-157.5 34q-220 0 -220 -156h-305q0 127 69.5 215.5t188.5 134t269 45.5q140 0 259 -42.5t191.5 -128t72.5 -215.5v-459q0 -41 2.5 -79t11.5 -68
q10 -35 25 -58t25 -32h-305q-7 8 -21.5 29.5t-24.5 50.5q-6 17 -10 33q-60 -64 -158 -99.5t-214 -35.5zM564 210q72 0 136 26.5t104 83.5t40 149v9q-57 -15 -121 -24.5t-127 -16.5q-102 -10 -152.5 -34.5t-50.5 -82.5q0 -110 171 -110zM610 -411q-72 0 -125.5 38.5
t-53.5 107.5q0 70 53.5 107.5t125.5 37.5t126 -37.5t54 -107.5t-54 -108t-126 -38zM353 1495h181q0 -60 29 -100t80 -40q52 0 80.5 40t28.5 100h181q0 -123 -82.5 -191t-207.5 -68t-207.5 68t-82.5 191z" />
    <glyph glyph-name="uni1EB7.ss01" horiz-adv-x="1335" 
d="M581 -24q-132 0 -248.5 62t-188.5 187t-72 313q0 179 73.5 300t190.5 182.5t245 61.5q96 0 182.5 -37t150.5 -106v123h310v-1062h-310v114q-64 -68 -150.5 -103t-182.5 -35zM666 238q64 0 120.5 28t92 83t35.5 138v90q0 83 -36 137t-92.5 80t-119.5 26q-68 0 -129 -28
t-99.5 -90.5t-38.5 -166.5t38.5 -169.5t99.5 -96.5t129 -31zM670 -411q-72 0 -125.5 38.5t-53.5 107.5q0 70 53.5 107.5t125.5 37.5t126 -37.5t54 -107.5t-54 -108t-126 -38zM374 1495h181q0 -60 29 -100t80 -40q52 0 80.5 40t28.5 100h181q0 -123 -82.5 -191t-207.5 -68
t-207.5 68t-82.5 191z" />
    <glyph glyph-name="uni1EB1" unicode="&#x1eb1;" horiz-adv-x="1256" 
d="M481 -22q-175 0 -287 82t-112 232q0 113 62 184t164.5 108.5t222.5 49.5q174 16 241 30.5t67 49.5v2q0 59 -56.5 93t-157.5 34q-220 0 -220 -156h-305q0 127 69.5 215.5t188.5 134t269 45.5q140 0 259 -42.5t191.5 -128t72.5 -215.5v-459q0 -41 2.5 -79t11.5 -68
q10 -35 25 -58t25 -32h-305q-7 8 -21.5 29.5t-24.5 50.5q-6 17 -10 33q-60 -64 -158 -99.5t-214 -35.5zM564 210q72 0 136 26.5t104 83.5t40 149v9q-57 -15 -121 -24.5t-127 -16.5q-102 -10 -152.5 -34.5t-50.5 -82.5q0 -110 171 -110zM768 1527h-216l-304 207h247z
M352 1495h181q0 -60 28.5 -100t80.5 -40t80 40t28 100h182q0 -123 -82.5 -191t-207.5 -68t-207.5 68t-82.5 191z" />
    <glyph glyph-name="uni1EB1.ss01" horiz-adv-x="1335" 
d="M581 -24q-132 0 -248.5 62t-188.5 187t-72 313q0 179 73.5 300t190.5 182.5t245 61.5q96 0 182.5 -37t150.5 -106v123h310v-1062h-310v114q-64 -68 -150.5 -103t-182.5 -35zM666 238q64 0 120.5 28t92 83t35.5 138v90q0 83 -36 137t-92.5 80t-119.5 26q-68 0 -129 -28
t-99.5 -90.5t-38.5 -166.5t38.5 -169.5t99.5 -96.5t129 -31zM789 1527h-216l-304 207h247zM373 1495h181q0 -60 28.5 -100t80.5 -40t80 40t28 100h182q0 -123 -82.5 -191t-207.5 -68t-207.5 68t-82.5 191z" />
    <glyph glyph-name="uni1EB3" unicode="&#x1eb3;" horiz-adv-x="1256" 
d="M481 -22q-175 0 -287 82t-112 232q0 113 62 184t164.5 108.5t222.5 49.5q174 16 241 30.5t67 49.5v2q0 59 -56.5 93t-157.5 34q-220 0 -220 -156h-305q0 127 69.5 215.5t188.5 134t269 45.5q140 0 259 -42.5t191.5 -128t72.5 -215.5v-459q0 -41 2.5 -79t11.5 -68
q10 -35 25 -58t25 -32h-305q-7 8 -21.5 29.5t-24.5 50.5q-6 17 -10 33q-60 -64 -158 -99.5t-214 -35.5zM564 210q72 0 136 26.5t104 83.5t40 149v9q-57 -15 -121 -24.5t-127 -16.5q-102 -10 -152.5 -34.5t-50.5 -82.5q0 -110 171 -110zM485 1848q112 0 206.5 -9t152 -37.5
t57.5 -89.5q0 -79 -82.5 -115.5t-203.5 -36.5l-31 82q31 2 70.5 7t68 17t28.5 34q0 32 -70 41.5t-196 9.5v97zM353 1495h181q0 -60 29 -100t80 -40q52 0 80.5 40t28.5 100h181q0 -123 -82.5 -191t-207.5 -68t-207.5 68t-82.5 191z" />
    <glyph glyph-name="uni1EB3.ss01" horiz-adv-x="1335" 
d="M581 -24q-132 0 -248.5 62t-188.5 187t-72 313q0 179 73.5 300t190.5 182.5t245 61.5q96 0 182.5 -37t150.5 -106v123h310v-1062h-310v114q-64 -68 -150.5 -103t-182.5 -35zM666 238q64 0 120.5 28t92 83t35.5 138v90q0 83 -36 137t-92.5 80t-119.5 26q-68 0 -129 -28
t-99.5 -90.5t-38.5 -166.5t38.5 -169.5t99.5 -96.5t129 -31zM506 1848q112 0 206.5 -9t152 -37.5t57.5 -89.5q0 -79 -82.5 -115.5t-203.5 -36.5l-31 82q31 2 70.5 7t68 17t28.5 34q0 32 -70 41.5t-196 9.5v97zM374 1495h181q0 -60 29 -100t80 -40q52 0 80.5 40t28.5 100h181
q0 -123 -82.5 -191t-207.5 -68t-207.5 68t-82.5 191z" />
    <glyph glyph-name="uni1EB5" unicode="&#x1eb5;" horiz-adv-x="1256" 
d="M481 -22q-175 0 -287 82t-112 232q0 113 62 184t164.5 108.5t222.5 49.5q174 16 241 30.5t67 49.5v2q0 59 -56.5 93t-157.5 34q-220 0 -220 -156h-305q0 127 69.5 215.5t188.5 134t269 45.5q140 0 259 -42.5t191.5 -128t72.5 -215.5v-459q0 -41 2.5 -79t11.5 -68
q10 -35 25 -58t25 -32h-305q-7 8 -21.5 29.5t-24.5 50.5q-6 17 -10 33q-60 -64 -158 -99.5t-214 -35.5zM564 210q72 0 136 26.5t104 83.5t40 149v9q-57 -15 -121 -24.5t-127 -16.5q-102 -10 -152.5 -34.5t-50.5 -82.5q0 -110 171 -110zM982 1791q-1 -51 -22 -103.5
t-65 -87.5t-112 -35q-56 0 -91 20.5t-57 40.5q-21 20 -41.5 34.5t-48.5 14.5q-34 0 -51 -25t-18 -64h-158q1 52 23.5 105t68.5 88.5t116 35.5q49 0 85 -21t58 -41q23 -20 46 -34.5t49 -14.5q31 0 45.5 24t15.5 63h157zM353 1495h181q0 -60 28.5 -100t80.5 -40t80 40t28 100
h182q0 -123 -82.5 -191t-207.5 -68t-207.5 68t-82.5 191z" />
    <glyph glyph-name="uni1EB5.ss01" horiz-adv-x="1335" 
d="M581 -24q-132 0 -248.5 62t-188.5 187t-72 313q0 179 73.5 300t190.5 182.5t245 61.5q96 0 182.5 -37t150.5 -106v123h310v-1062h-310v114q-64 -68 -150.5 -103t-182.5 -35zM666 238q64 0 120.5 28t92 83t35.5 138v90q0 83 -36 137t-92.5 80t-119.5 26q-68 0 -129 -28
t-99.5 -90.5t-38.5 -166.5t38.5 -169.5t99.5 -96.5t129 -31zM1004 1791q-1 -51 -22 -103.5t-65 -87.5t-112 -35q-56 0 -91 20.5t-57 40.5q-21 20 -41.5 34.5t-48.5 14.5q-34 0 -51 -25t-18 -64h-158q1 52 23.5 105t68.5 88.5t116 35.5q49 0 85 -21t58 -41q23 -20 46 -34.5
t49 -14.5q31 0 45.5 24t15.5 63h157zM375 1495h181q0 -60 28.5 -100t80.5 -40t80 40t28 100h182q0 -123 -82.5 -191t-207.5 -68t-207.5 68t-82.5 191z" />
    <glyph glyph-name="uni01CE" unicode="&#x1ce;" horiz-adv-x="1256" 
d="M481 -22q-175 0 -287 82t-112 232q0 113 62 184t164.5 108.5t222.5 49.5q174 16 241 30.5t67 49.5v2q0 59 -56.5 93t-157.5 34q-220 0 -220 -156h-305q0 127 69.5 215.5t188.5 134t269 45.5q140 0 259 -42.5t191.5 -128t72.5 -215.5v-459q0 -41 2.5 -79t11.5 -68
q10 -35 25 -58t25 -32h-305q-7 8 -21.5 29.5t-24.5 50.5q-6 17 -10 33q-60 -64 -158 -99.5t-214 -35.5zM564 210q72 0 136 26.5t104 83.5t40 149v9q-57 -15 -121 -24.5t-127 -16.5q-102 -10 -152.5 -34.5t-50.5 -82.5q0 -110 171 -110zM303 1475h196l143 -167l143 167h197
l-239 -272h-200z" />
    <glyph glyph-name="uni01CE.ss01" horiz-adv-x="1335" 
d="M581 -24q-132 0 -248.5 62t-188.5 187t-72 313q0 179 73.5 300t190.5 182.5t245 61.5q96 0 182.5 -37t150.5 -106v123h310v-1062h-310v114q-64 -68 -150.5 -103t-182.5 -35zM666 238q64 0 120.5 28t92 83t35.5 138v90q0 83 -36 137t-92.5 80t-119.5 26q-68 0 -129 -28
t-99.5 -90.5t-38.5 -166.5t38.5 -169.5t99.5 -96.5t129 -31zM324 1475h196l143 -167l143 167h197l-239 -272h-200z" />
    <glyph glyph-name="acircumflex" unicode="&#xe2;" horiz-adv-x="1256" 
d="M481 -22q-175 0 -287 82t-112 232q0 113 62 184t164.5 108.5t222.5 49.5q174 16 241 30.5t67 49.5v2q0 59 -56.5 93t-157.5 34q-220 0 -220 -156h-305q0 127 69.5 215.5t188.5 134t269 45.5q140 0 259 -42.5t191.5 -128t72.5 -215.5v-459q0 -41 2.5 -79t11.5 -68
q10 -35 25 -58t25 -32h-305q-7 8 -21.5 29.5t-24.5 50.5q-6 17 -10 33q-60 -64 -158 -99.5t-214 -35.5zM564 210q72 0 136 26.5t104 83.5t40 149v9q-57 -15 -121 -24.5t-127 -16.5q-102 -10 -152.5 -34.5t-50.5 -82.5q0 -110 171 -110zM303 1203l240 272h200l239 -272h-197
l-143 167l-143 -167h-196z" />
    <glyph glyph-name="acircumflex.ss01" horiz-adv-x="1335" 
d="M581 -24q-132 0 -248.5 62t-188.5 187t-72 313q0 179 73.5 300t190.5 182.5t245 61.5q96 0 182.5 -37t150.5 -106v123h310v-1062h-310v114q-64 -68 -150.5 -103t-182.5 -35zM666 238q64 0 120.5 28t92 83t35.5 138v90q0 83 -36 137t-92.5 80t-119.5 26q-68 0 -129 -28
t-99.5 -90.5t-38.5 -166.5t38.5 -169.5t99.5 -96.5t129 -31zM324 1203l240 272h200l239 -272h-197l-143 167l-143 -167h-196z" />
    <glyph glyph-name="uni1EA5" unicode="&#x1ea5;" horiz-adv-x="1256" 
d="M481 -22q-175 0 -287 82t-112 232q0 113 62 184t164.5 108.5t222.5 49.5q174 16 241 30.5t67 49.5v2q0 59 -56.5 93t-157.5 34q-220 0 -220 -156h-305q0 127 69.5 215.5t188.5 134t269 45.5q140 0 259 -42.5t191.5 -128t72.5 -215.5v-459q0 -41 2.5 -79t11.5 -68
q10 -35 25 -58t25 -32h-305q-7 8 -21.5 29.5t-24.5 50.5q-6 17 -10 33q-60 -64 -158 -99.5t-214 -35.5zM564 210q72 0 136 26.5t104 83.5t40 149v9q-57 -15 -121 -24.5t-127 -16.5q-102 -10 -152.5 -34.5t-50.5 -82.5q0 -110 171 -110zM810 1433l194 271h203l-216 -271h-181
zM303 1203l240 272h200l239 -272h-197l-143 167l-143 -167h-196z" />
    <glyph glyph-name="uni1EA5.ss01" horiz-adv-x="1335" 
d="M581 -24q-132 0 -248.5 62t-188.5 187t-72 313q0 179 73.5 300t190.5 182.5t245 61.5q96 0 182.5 -37t150.5 -106v123h310v-1062h-310v114q-64 -68 -150.5 -103t-182.5 -35zM666 238q64 0 120.5 28t92 83t35.5 138v90q0 83 -36 137t-92.5 80t-119.5 26q-68 0 -129 -28
t-99.5 -90.5t-38.5 -166.5t38.5 -169.5t99.5 -96.5t129 -31zM831 1433l194 271h203l-216 -271h-181zM324 1203l240 272h200l239 -272h-197l-143 167l-143 -167h-196z" />
    <glyph glyph-name="uni1EAD" unicode="&#x1ead;" horiz-adv-x="1256" 
d="M481 -22q-175 0 -287 82t-112 232q0 113 62 184t164.5 108.5t222.5 49.5q174 16 241 30.5t67 49.5v2q0 59 -56.5 93t-157.5 34q-220 0 -220 -156h-305q0 127 69.5 215.5t188.5 134t269 45.5q140 0 259 -42.5t191.5 -128t72.5 -215.5v-459q0 -41 2.5 -79t11.5 -68
q10 -35 25 -58t25 -32h-305q-7 8 -21.5 29.5t-24.5 50.5q-6 17 -10 33q-60 -64 -158 -99.5t-214 -35.5zM564 210q72 0 136 26.5t104 83.5t40 149v9q-57 -15 -121 -24.5t-127 -16.5q-102 -10 -152.5 -34.5t-50.5 -82.5q0 -110 171 -110zM610 -411q-72 0 -125.5 38.5
t-53.5 107.5q0 70 53.5 107.5t125.5 37.5t126 -37.5t54 -107.5t-54 -108t-126 -38zM303 1203l240 272h200l239 -272h-197l-143 167l-143 -167h-196z" />
    <glyph glyph-name="uni1EAD.ss01" horiz-adv-x="1335" 
d="M581 -24q-132 0 -248.5 62t-188.5 187t-72 313q0 179 73.5 300t190.5 182.5t245 61.5q96 0 182.5 -37t150.5 -106v123h310v-1062h-310v114q-64 -68 -150.5 -103t-182.5 -35zM666 238q64 0 120.5 28t92 83t35.5 138v90q0 83 -36 137t-92.5 80t-119.5 26q-68 0 -129 -28
t-99.5 -90.5t-38.5 -166.5t38.5 -169.5t99.5 -96.5t129 -31zM670 -411q-72 0 -125.5 38.5t-53.5 107.5q0 70 53.5 107.5t125.5 37.5t126 -37.5t54 -107.5t-54 -108t-126 -38zM324 1203l240 272h200l239 -272h-197l-143 167l-143 -167h-196z" />
    <glyph glyph-name="uni1EA7" unicode="&#x1ea7;" horiz-adv-x="1256" 
d="M481 -22q-175 0 -287 82t-112 232q0 113 62 184t164.5 108.5t222.5 49.5q174 16 241 30.5t67 49.5v2q0 59 -56.5 93t-157.5 34q-220 0 -220 -156h-305q0 127 69.5 215.5t188.5 134t269 45.5q140 0 259 -42.5t191.5 -128t72.5 -215.5v-459q0 -41 2.5 -79t11.5 -68
q10 -35 25 -58t25 -32h-305q-7 8 -21.5 29.5t-24.5 50.5q-6 17 -10 33q-60 -64 -158 -99.5t-214 -35.5zM564 210q72 0 136 26.5t104 83.5t40 149v9q-57 -15 -121 -24.5t-127 -16.5q-102 -10 -152.5 -34.5t-50.5 -82.5q0 -110 171 -110zM1070 1433h-180l-217 271h203z
M305 1203l240 272h200l239 -272h-197l-143 167l-143 -167h-196z" />
    <glyph glyph-name="uni1EA7.ss01" horiz-adv-x="1335" 
d="M581 -24q-132 0 -248.5 62t-188.5 187t-72 313q0 179 73.5 300t190.5 182.5t245 61.5q96 0 182.5 -37t150.5 -106v123h310v-1062h-310v114q-64 -68 -150.5 -103t-182.5 -35zM666 238q64 0 120.5 28t92 83t35.5 138v90q0 83 -36 137t-92.5 80t-119.5 26q-68 0 -129 -28
t-99.5 -90.5t-38.5 -166.5t38.5 -169.5t99.5 -96.5t129 -31zM1091 1433h-180l-217 271h203zM326 1203l240 272h200l239 -272h-197l-143 167l-143 -167h-196z" />
    <glyph glyph-name="uni1EA9" unicode="&#x1ea9;" horiz-adv-x="1256" 
d="M481 -22q-175 0 -287 82t-112 232q0 113 62 184t164.5 108.5t222.5 49.5q174 16 241 30.5t67 49.5v2q0 59 -56.5 93t-157.5 34q-220 0 -220 -156h-305q0 127 69.5 215.5t188.5 134t269 45.5q140 0 259 -42.5t191.5 -128t72.5 -215.5v-459q0 -41 2.5 -79t11.5 -68
q10 -35 25 -58t25 -32h-305q-7 8 -21.5 29.5t-24.5 50.5q-6 17 -10 33q-60 -64 -158 -99.5t-214 -35.5zM564 210q72 0 136 26.5t104 83.5t40 149v9q-57 -15 -121 -24.5t-127 -16.5q-102 -10 -152.5 -34.5t-50.5 -82.5q0 -110 171 -110zM882 1428l-28 72q29 1 64 6t60.5 15.5
t25.5 29.5q0 30 -62.5 38t-175.5 8v86q99 0 183.5 -7.5t135.5 -33.5t51 -80q0 -70 -73 -102t-181 -32zM303 1203l240 272h200l239 -272h-197l-143 167l-143 -167h-196z" />
    <glyph glyph-name="uni1EA9.ss01" horiz-adv-x="1335" 
d="M581 -24q-132 0 -248.5 62t-188.5 187t-72 313q0 179 73.5 300t190.5 182.5t245 61.5q96 0 182.5 -37t150.5 -106v123h310v-1062h-310v114q-64 -68 -150.5 -103t-182.5 -35zM666 238q64 0 120.5 28t92 83t35.5 138v90q0 83 -36 137t-92.5 80t-119.5 26q-68 0 -129 -28
t-99.5 -90.5t-38.5 -166.5t38.5 -169.5t99.5 -96.5t129 -31zM903 1428l-28 72q29 1 64 6t60.5 15.5t25.5 29.5q0 30 -62.5 38t-175.5 8v86q99 0 183.5 -7.5t135.5 -33.5t51 -80q0 -70 -73 -102t-181 -32zM324 1203l240 272h200l239 -272h-197l-143 167l-143 -167h-196z" />
    <glyph glyph-name="uni1EAB" unicode="&#x1eab;" horiz-adv-x="1256" 
d="M481 -22q-175 0 -287 82t-112 232q0 113 62 184t164.5 108.5t222.5 49.5q174 16 241 30.5t67 49.5v2q0 59 -56.5 93t-157.5 34q-220 0 -220 -156h-305q0 127 69.5 215.5t188.5 134t269 45.5q140 0 259 -42.5t191.5 -128t72.5 -215.5v-459q0 -41 2.5 -79t11.5 -68
q10 -35 25 -58t25 -32h-305q-7 8 -21.5 29.5t-24.5 50.5q-6 17 -10 33q-60 -64 -158 -99.5t-214 -35.5zM564 210q72 0 136 26.5t104 83.5t40 149v9q-57 -15 -121 -24.5t-127 -16.5q-102 -10 -152.5 -34.5t-50.5 -82.5q0 -110 171 -110zM779 1552q-56 0 -91 20t-57 41
q-21 20 -41.5 35t-48.5 15q-34 0 -51 -25t-18 -65h-158q1 53 23.5 105.5t68.5 88t116 35.5q49 0 85 -20.5t58 -40.5q23 -20 46 -34.5t48 -14.5q32 0 46.5 23.5t15.5 63.5h157q-1 -51 -22 -103.5t-65 -88t-112 -35.5zM303 1203l240 272h200l239 -272h-197l-143 167l-143 -167
h-196z" />
    <glyph glyph-name="uni1EAB.ss01" horiz-adv-x="1335" 
d="M581 -24q-132 0 -248.5 62t-188.5 187t-72 313q0 179 73.5 300t190.5 182.5t245 61.5q96 0 182.5 -37t150.5 -106v123h310v-1062h-310v114q-64 -68 -150.5 -103t-182.5 -35zM666 238q64 0 120.5 28t92 83t35.5 138v90q0 83 -36 137t-92.5 80t-119.5 26q-68 0 -129 -28
t-99.5 -90.5t-38.5 -166.5t38.5 -169.5t99.5 -96.5t129 -31zM800 1552q-56 0 -91 20t-57 41q-21 20 -41.5 35t-48.5 15q-34 0 -51 -25t-18 -65h-158q1 53 23.5 105.5t68.5 88t116 35.5q49 0 85 -20.5t58 -40.5q23 -20 46 -34.5t48 -14.5q32 0 46.5 23.5t15.5 63.5h157
q-1 -51 -22 -103.5t-65 -88t-112 -35.5zM324 1203l240 272h200l239 -272h-197l-143 167l-143 -167h-196z" />
    <glyph glyph-name="uni0201" unicode="&#x201;" horiz-adv-x="1256" 
d="M481 -22q-175 0 -287 82t-112 232q0 113 62 184t164.5 108.5t222.5 49.5q174 16 241 30.5t67 49.5v2q0 59 -56.5 93t-157.5 34q-220 0 -220 -156h-305q0 127 69.5 215.5t188.5 134t269 45.5q140 0 259 -42.5t191.5 -128t72.5 -215.5v-459q0 -41 2.5 -79t11.5 -68
q10 -35 25 -58t25 -32h-305q-7 8 -21.5 29.5t-24.5 50.5q-6 17 -10 33q-60 -64 -158 -99.5t-214 -35.5zM564 210q72 0 136 26.5t104 83.5t40 149v9q-57 -15 -121 -24.5t-127 -16.5q-102 -10 -152.5 -34.5t-50.5 -82.5q0 -110 171 -110zM902 1203h-165l-177 272h191z
M570 1203h-165l-200 272h192z" />
    <glyph glyph-name="uni0201.ss01" horiz-adv-x="1335" 
d="M581 -24q-132 0 -248.5 62t-188.5 187t-72 313q0 179 73.5 300t190.5 182.5t245 61.5q96 0 182.5 -37t150.5 -106v123h310v-1062h-310v114q-64 -68 -150.5 -103t-182.5 -35zM666 238q64 0 120.5 28t92 83t35.5 138v90q0 83 -36 137t-92.5 80t-119.5 26q-68 0 -129 -28
t-99.5 -90.5t-38.5 -166.5t38.5 -169.5t99.5 -96.5t129 -31zM923 1203h-165l-177 272h191zM591 1203h-165l-200 272h192z" />
    <glyph glyph-name="adieresis" unicode="&#xe4;" horiz-adv-x="1256" 
d="M481 -22q-175 0 -287 82t-112 232q0 113 62 184t164.5 108.5t222.5 49.5q174 16 241 30.5t67 49.5v2q0 59 -56.5 93t-157.5 34q-220 0 -220 -156h-305q0 127 69.5 215.5t188.5 134t269 45.5q140 0 259 -42.5t191.5 -128t72.5 -215.5v-459q0 -41 2.5 -79t11.5 -68
q10 -35 25 -58t25 -32h-305q-7 8 -21.5 29.5t-24.5 50.5q-6 17 -10 33q-60 -64 -158 -99.5t-214 -35.5zM564 210q72 0 136 26.5t104 83.5t40 149v9q-57 -15 -121 -24.5t-127 -16.5q-102 -10 -152.5 -34.5t-50.5 -82.5q0 -110 171 -110zM401 1228q-66 0 -115.5 35t-49.5 99
t49.5 99t115.5 35q65 0 114.5 -35t49.5 -99t-49.5 -99t-114.5 -35zM883 1228q-66 0 -115 35t-49 99t49 99t115 35t115.5 -35t49.5 -99t-49.5 -99t-115.5 -35z" />
    <glyph glyph-name="adieresis.ss01" horiz-adv-x="1335" 
d="M581 -24q-132 0 -248.5 62t-188.5 187t-72 313q0 179 73.5 300t190.5 182.5t245 61.5q96 0 182.5 -37t150.5 -106v123h310v-1062h-310v114q-64 -68 -150.5 -103t-182.5 -35zM666 238q64 0 120.5 28t92 83t35.5 138v90q0 83 -36 137t-92.5 80t-119.5 26q-68 0 -129 -28
t-99.5 -90.5t-38.5 -166.5t38.5 -169.5t99.5 -96.5t129 -31zM422 1228q-66 0 -115.5 35t-49.5 99t49.5 99t115.5 35q65 0 114.5 -35t49.5 -99t-49.5 -99t-114.5 -35zM904 1228q-66 0 -115 35t-49 99t49 99t115 35t115.5 -35t49.5 -99t-49.5 -99t-115.5 -35z" />
    <glyph glyph-name="uni01DF" unicode="&#x1df;" horiz-adv-x="1256" 
d="M481 -22q-175 0 -287 82t-112 232q0 113 62 184t164.5 108.5t222.5 49.5q174 16 241 30.5t67 49.5v2q0 59 -56.5 93t-157.5 34q-220 0 -220 -156h-305q0 127 69.5 215.5t188.5 134t269 45.5q140 0 259 -42.5t191.5 -128t72.5 -215.5v-459q0 -41 2.5 -79t11.5 -68
q10 -35 25 -58t25 -32h-305q-7 8 -21.5 29.5t-24.5 50.5q-6 17 -10 33q-60 -64 -158 -99.5t-214 -35.5zM564 210q72 0 136 26.5t104 83.5t40 149v9q-57 -15 -121 -24.5t-127 -16.5q-102 -10 -152.5 -34.5t-50.5 -82.5q0 -110 171 -110zM401 1228q-66 0 -115.5 35t-49.5 99
t49.5 99t115.5 35q65 0 114.5 -35t49.5 -99t-49.5 -99t-114.5 -35zM883 1228q-66 0 -115 35t-49 99t49 99t115 35t115.5 -35t49.5 -99t-49.5 -99t-115.5 -35zM330 1630v129h623v-129h-623z" />
    <glyph glyph-name="uni01DF.ss01" horiz-adv-x="1335" 
d="M581 -24q-132 0 -248.5 62t-188.5 187t-72 313q0 179 73.5 300t190.5 182.5t245 61.5q96 0 182.5 -37t150.5 -106v123h310v-1062h-310v114q-64 -68 -150.5 -103t-182.5 -35zM666 238q64 0 120.5 28t92 83t35.5 138v90q0 83 -36 137t-92.5 80t-119.5 26q-68 0 -129 -28
t-99.5 -90.5t-38.5 -166.5t38.5 -169.5t99.5 -96.5t129 -31zM422 1228q-66 0 -115.5 35t-49.5 99t49.5 99t115.5 35q65 0 114.5 -35t49.5 -99t-49.5 -99t-114.5 -35zM904 1228q-66 0 -115 35t-49 99t49 99t115 35t115.5 -35t49.5 -99t-49.5 -99t-115.5 -35zM352 1630v129
h623v-129h-623z" />
    <glyph glyph-name="uni1EA1" unicode="&#x1ea1;" horiz-adv-x="1256" 
d="M481 -22q-175 0 -287 82t-112 232q0 113 62 184t164.5 108.5t222.5 49.5q174 16 241 30.5t67 49.5v2q0 59 -56.5 93t-157.5 34q-220 0 -220 -156h-305q0 127 69.5 215.5t188.5 134t269 45.5q140 0 259 -42.5t191.5 -128t72.5 -215.5v-459q0 -41 2.5 -79t11.5 -68
q10 -35 25 -58t25 -32h-305q-7 8 -21.5 29.5t-24.5 50.5q-6 17 -10 33q-60 -64 -158 -99.5t-214 -35.5zM564 210q72 0 136 26.5t104 83.5t40 149v9q-57 -15 -121 -24.5t-127 -16.5q-102 -10 -152.5 -34.5t-50.5 -82.5q0 -110 171 -110zM610 -411q-72 0 -125.5 38.5
t-53.5 107.5q0 70 53.5 107.5t125.5 37.5t126 -37.5t54 -107.5t-54 -108t-126 -38z" />
    <glyph glyph-name="uni1EA1.ss01" horiz-adv-x="1335" 
d="M581 -24q-132 0 -248.5 62t-188.5 187t-72 313q0 179 73.5 300t190.5 182.5t245 61.5q96 0 182.5 -37t150.5 -106v123h310v-1062h-310v114q-64 -68 -150.5 -103t-182.5 -35zM666 238q64 0 120.5 28t92 83t35.5 138v90q0 83 -36 137t-92.5 80t-119.5 26q-68 0 -129 -28
t-99.5 -90.5t-38.5 -166.5t38.5 -169.5t99.5 -96.5t129 -31zM670 -411q-72 0 -125.5 38.5t-53.5 107.5q0 70 53.5 107.5t125.5 37.5t126 -37.5t54 -107.5t-54 -108t-126 -38z" />
    <glyph glyph-name="agrave" unicode="&#xe0;" horiz-adv-x="1256" 
d="M481 -22q-175 0 -287 82t-112 232q0 113 62 184t164.5 108.5t222.5 49.5q174 16 241 30.5t67 49.5v2q0 59 -56.5 93t-157.5 34q-220 0 -220 -156h-305q0 127 69.5 215.5t188.5 134t269 45.5q140 0 259 -42.5t191.5 -128t72.5 -215.5v-459q0 -41 2.5 -79t11.5 -68
q10 -35 25 -58t25 -32h-305q-7 8 -21.5 29.5t-24.5 50.5q-6 17 -10 33q-60 -64 -158 -99.5t-214 -35.5zM564 210q72 0 136 26.5t104 83.5t40 149v9q-57 -15 -121 -24.5t-127 -16.5q-102 -10 -152.5 -34.5t-50.5 -82.5q0 -110 171 -110zM805 1198h-204l-272 272h238z" />
    <glyph glyph-name="agrave.ss01" horiz-adv-x="1335" 
d="M581 -24q-132 0 -248.5 62t-188.5 187t-72 313q0 179 73.5 300t190.5 182.5t245 61.5q96 0 182.5 -37t150.5 -106v123h310v-1062h-310v114q-64 -68 -150.5 -103t-182.5 -35zM666 238q64 0 120.5 28t92 83t35.5 138v90q0 83 -36 137t-92.5 80t-119.5 26q-68 0 -129 -28
t-99.5 -90.5t-38.5 -166.5t38.5 -169.5t99.5 -96.5t129 -31zM826 1198h-204l-272 272h238z" />
    <glyph glyph-name="uni1EA3" unicode="&#x1ea3;" horiz-adv-x="1256" 
d="M481 -22q-175 0 -287 82t-112 232q0 113 62 184t164.5 108.5t222.5 49.5q174 16 241 30.5t67 49.5v2q0 59 -56.5 93t-157.5 34q-220 0 -220 -156h-305q0 127 69.5 215.5t188.5 134t269 45.5q140 0 259 -42.5t191.5 -128t72.5 -215.5v-459q0 -41 2.5 -79t11.5 -68
q10 -35 25 -58t25 -32h-305q-7 8 -21.5 29.5t-24.5 50.5q-6 17 -10 33q-60 -64 -158 -99.5t-214 -35.5zM564 210q72 0 136 26.5t104 83.5t40 149v9q-57 -15 -121 -24.5t-127 -16.5q-102 -10 -152.5 -34.5t-50.5 -82.5q0 -110 171 -110zM432 1509q112 0 206.5 -8.5t152 -37.5
t57.5 -90q0 -79 -82.5 -115t-202.5 -36l-32 81q32 2 71 7.5t67.5 17.5t28.5 33q0 33 -70 42t-196 9v97z" />
    <glyph glyph-name="uni1EA3.ss01" horiz-adv-x="1335" 
d="M581 -24q-132 0 -248.5 62t-188.5 187t-72 313q0 179 73.5 300t190.5 182.5t245 61.5q96 0 182.5 -37t150.5 -106v123h310v-1062h-310v114q-64 -68 -150.5 -103t-182.5 -35zM666 238q64 0 120.5 28t92 83t35.5 138v90q0 83 -36 137t-92.5 80t-119.5 26q-68 0 -129 -28
t-99.5 -90.5t-38.5 -166.5t38.5 -169.5t99.5 -96.5t129 -31zM453 1509q112 0 206.5 -8.5t152 -37.5t57.5 -90q0 -79 -82.5 -115t-202.5 -36l-32 81q32 2 71 7.5t67.5 17.5t28.5 33q0 33 -70 42t-196 9v97z" />
    <glyph glyph-name="uni0203" unicode="&#x203;" horiz-adv-x="1256" 
d="M481 -22q-175 0 -287 82t-112 232q0 113 62 184t164.5 108.5t222.5 49.5q174 16 241 30.5t67 49.5v2q0 59 -56.5 93t-157.5 34q-220 0 -220 -156h-305q0 127 69.5 215.5t188.5 134t269 45.5q140 0 259 -42.5t191.5 -128t72.5 -215.5v-459q0 -41 2.5 -79t11.5 -68
q10 -35 25 -58t25 -32h-305q-7 8 -21.5 29.5t-24.5 50.5q-6 17 -10 33q-60 -64 -158 -99.5t-214 -35.5zM564 210q72 0 136 26.5t104 83.5t40 149v9q-57 -15 -121 -24.5t-127 -16.5q-102 -10 -152.5 -34.5t-50.5 -82.5q0 -110 171 -110zM352 1241q0 124 82.5 185.5
t208.5 61.5q125 0 207 -61.5t82 -185.5h-181q0 61 -28.5 94.5t-79.5 33.5q-52 0 -80.5 -33.5t-28.5 -94.5h-182z" />
    <glyph glyph-name="uni0203.ss01" horiz-adv-x="1335" 
d="M581 -24q-132 0 -248.5 62t-188.5 187t-72 313q0 179 73.5 300t190.5 182.5t245 61.5q96 0 182.5 -37t150.5 -106v123h310v-1062h-310v114q-64 -68 -150.5 -103t-182.5 -35zM666 238q64 0 120.5 28t92 83t35.5 138v90q0 83 -36 137t-92.5 80t-119.5 26q-68 0 -129 -28
t-99.5 -90.5t-38.5 -166.5t38.5 -169.5t99.5 -96.5t129 -31zM374 1241q0 124 82.5 185.5t208.5 61.5q125 0 207 -61.5t82 -185.5h-181q0 61 -28.5 94.5t-79.5 33.5q-52 0 -80.5 -33.5t-28.5 -94.5h-182z" />
    <glyph glyph-name="amacron" unicode="&#x101;" horiz-adv-x="1256" 
d="M481 -22q-175 0 -287 82t-112 232q0 113 62 184t164.5 108.5t222.5 49.5q174 16 241 30.5t67 49.5v2q0 59 -56.5 93t-157.5 34q-220 0 -220 -156h-305q0 127 69.5 215.5t188.5 134t269 45.5q140 0 259 -42.5t191.5 -128t72.5 -215.5v-459q0 -41 2.5 -79t11.5 -68
q10 -35 25 -58t25 -32h-305q-7 8 -21.5 29.5t-24.5 50.5q-6 17 -10 33q-60 -64 -158 -99.5t-214 -35.5zM564 210q72 0 136 26.5t104 83.5t40 149v9q-57 -15 -121 -24.5t-127 -16.5q-102 -10 -152.5 -34.5t-50.5 -82.5q0 -110 171 -110zM331 1287v128h623v-128h-623z" />
    <glyph glyph-name="amacron.ss01" horiz-adv-x="1335" 
d="M581 -24q-132 0 -248.5 62t-188.5 187t-72 313q0 179 73.5 300t190.5 182.5t245 61.5q96 0 182.5 -37t150.5 -106v123h310v-1062h-310v114q-64 -68 -150.5 -103t-182.5 -35zM666 238q64 0 120.5 28t92 83t35.5 138v90q0 83 -36 137t-92.5 80t-119.5 26q-68 0 -129 -28
t-99.5 -90.5t-38.5 -166.5t38.5 -169.5t99.5 -96.5t129 -31zM352 1287v128h623v-128h-623z" />
    <glyph glyph-name="aogonek" unicode="&#x105;" horiz-adv-x="1256" 
d="M481 -22q-175 0 -287 82t-112 232q0 113 62 184t164.5 108.5t222.5 49.5q174 16 241 30.5t67 49.5v2q0 59 -56.5 93t-157.5 34q-220 0 -220 -156h-305q0 127 69.5 215.5t188.5 134t269 45.5q140 0 259 -42.5t191.5 -128t72.5 -215.5v-459q0 -41 2.5 -79t11.5 -68
q10 -35 25 -58t25 -32h-305q-7 8 -21.5 29.5t-24.5 50.5q-6 17 -10 33q-60 -64 -158 -99.5t-214 -35.5zM564 210q72 0 136 26.5t104 83.5t40 149v9q-57 -15 -121 -24.5t-127 -16.5q-102 -10 -152.5 -34.5t-50.5 -82.5q0 -110 171 -110zM1213 -296v-148q-20 -3 -44 -4.5
t-49 -1.5q-100 0 -173.5 40t-73.5 131q0 54 33 109t77 100.5t78 69.5h152q-29 -25 -69.5 -68t-71.5 -89t-31 -80q0 -38 28 -52t68 -14q19 0 39.5 2t36.5 5z" />
    <glyph glyph-name="aogonek.ss01" horiz-adv-x="1335" 
d="M581 -24q-132 0 -248.5 62t-188.5 187t-72 313q0 179 73.5 300t190.5 182.5t245 61.5q96 0 182.5 -37t150.5 -106v123h310v-1062h-310v114q-64 -68 -150.5 -103t-182.5 -35zM666 238q64 0 120.5 28t92 83t35.5 138v90q0 83 -36 137t-92.5 80t-119.5 26q-68 0 -129 -28
t-99.5 -90.5t-38.5 -166.5t38.5 -169.5t99.5 -96.5t129 -31zM1224 -296v-148q-20 -3 -44 -4.5t-49 -1.5q-100 0 -173.5 40t-73.5 131q0 54 33 109t77 100.5t78 69.5h152q-29 -25 -69.5 -68t-71.5 -89t-31 -80q0 -38 28 -52t68 -14q19 0 39.5 2t36.5 5z" />
    <glyph glyph-name="aring" unicode="&#xe5;" horiz-adv-x="1256" 
d="M481 -22q-175 0 -287 82t-112 232q0 113 62 184t164.5 108.5t222.5 49.5q174 16 241 30.5t67 49.5v2q0 59 -56.5 93t-157.5 34q-220 0 -220 -156h-305q0 127 69.5 215.5t188.5 134t269 45.5q140 0 259 -42.5t191.5 -128t72.5 -215.5v-459q0 -41 2.5 -79t11.5 -68
q10 -35 25 -58t25 -32h-305q-7 8 -21.5 29.5t-24.5 50.5q-6 17 -10 33q-60 -64 -158 -99.5t-214 -35.5zM564 210q72 0 136 26.5t104 83.5t40 149v9q-57 -15 -121 -24.5t-127 -16.5q-102 -10 -152.5 -34.5t-50.5 -82.5q0 -110 171 -110zM643 1142q-63 0 -115 31t-83 83
t-31 115t31 115t83 83t115 31t115 -31t83 -83t31 -115t-31 -115t-83 -83t-115 -31zM643 1276q40 0 67.5 27.5t27.5 67.5t-27.5 67.5t-67.5 27.5t-67.5 -27.5t-27.5 -67.5t27.5 -67.5t67.5 -27.5z" />
    <glyph glyph-name="aring.ss01" horiz-adv-x="1335" 
d="M581 -24q-132 0 -248.5 62t-188.5 187t-72 313q0 179 73.5 300t190.5 182.5t245 61.5q96 0 182.5 -37t150.5 -106v123h310v-1062h-310v114q-64 -68 -150.5 -103t-182.5 -35zM666 238q64 0 120.5 28t92 83t35.5 138v90q0 83 -36 137t-92.5 80t-119.5 26q-68 0 -129 -28
t-99.5 -90.5t-38.5 -166.5t38.5 -169.5t99.5 -96.5t129 -31zM664 1142q-63 0 -115 31t-83 83t-31 115t31 115t83 83t115 31t115 -31t83 -83t31 -115t-31 -115t-83 -83t-115 -31zM664 1276q40 0 67.5 27.5t27.5 67.5t-27.5 67.5t-67.5 27.5t-67.5 -27.5t-27.5 -67.5
t27.5 -67.5t67.5 -27.5z" />
    <glyph glyph-name="aringacute" unicode="&#x1fb;" horiz-adv-x="1256" 
d="M481 -22q-175 0 -287 82t-112 232q0 113 62 184t164.5 108.5t222.5 49.5q174 16 241 30.5t67 49.5v2q0 59 -56.5 93t-157.5 34q-220 0 -220 -156h-305q0 127 69.5 215.5t188.5 134t269 45.5q140 0 259 -42.5t191.5 -128t72.5 -215.5v-459q0 -41 2.5 -79t11.5 -68
q10 -35 25 -58t25 -32h-305q-7 8 -21.5 29.5t-24.5 50.5q-6 17 -10 33q-60 -64 -158 -99.5t-214 -35.5zM564 210q72 0 136 26.5t104 83.5t40 149v9q-57 -15 -121 -24.5t-127 -16.5q-102 -10 -152.5 -34.5t-50.5 -82.5q0 -110 171 -110zM643 1142q-63 0 -115 31t-83 83
t-31 115t31 115t83 83t115 31t115 -31t83 -83t31 -115t-31 -115t-83 -83t-115 -31zM643 1276q40 0 67.5 27.5t27.5 67.5t-27.5 67.5t-67.5 27.5t-67.5 -27.5t-27.5 -67.5t27.5 -67.5t67.5 -27.5zM483 1700l238 272h237l-271 -272h-204z" />
    <glyph glyph-name="aringacute.ss01" horiz-adv-x="1335" 
d="M581 -24q-132 0 -248.5 62t-188.5 187t-72 313q0 179 73.5 300t190.5 182.5t245 61.5q96 0 182.5 -37t150.5 -106v123h310v-1062h-310v114q-64 -68 -150.5 -103t-182.5 -35zM666 238q64 0 120.5 28t92 83t35.5 138v90q0 83 -36 137t-92.5 80t-119.5 26q-68 0 -129 -28
t-99.5 -90.5t-38.5 -166.5t38.5 -169.5t99.5 -96.5t129 -31zM664 1142q-63 0 -115 31t-83 83t-31 115t31 115t83 83t115 31t115 -31t83 -83t31 -115t-31 -115t-83 -83t-115 -31zM664 1276q40 0 67.5 27.5t27.5 67.5t-27.5 67.5t-67.5 27.5t-67.5 -27.5t-27.5 -67.5
t27.5 -67.5t67.5 -27.5zM519 1700l238 272h237l-271 -272h-204z" />
    <glyph glyph-name="atilde" unicode="&#xe3;" horiz-adv-x="1256" 
d="M481 -22q-175 0 -287 82t-112 232q0 113 62 184t164.5 108.5t222.5 49.5q174 16 241 30.5t67 49.5v2q0 59 -56.5 93t-157.5 34q-220 0 -220 -156h-305q0 127 69.5 215.5t188.5 134t269 45.5q140 0 259 -42.5t191.5 -128t72.5 -215.5v-459q0 -41 2.5 -79t11.5 -68
q10 -35 25 -58t25 -32h-305q-7 8 -21.5 29.5t-24.5 50.5q-6 17 -10 33q-60 -64 -158 -99.5t-214 -35.5zM564 210q72 0 136 26.5t104 83.5t40 149v9q-57 -15 -121 -24.5t-127 -16.5q-102 -10 -152.5 -34.5t-50.5 -82.5q0 -110 171 -110zM974 1456q0 -51 -21.5 -103.5t-65 -88
t-112.5 -35.5q-53 0 -89 21t-59 41q-21 20 -42.5 34.5t-49.5 14.5q-34 0 -50 -25t-17 -65h-157q0 53 23 105.5t68.5 88t115.5 35.5q50 0 85.5 -20.5t58.5 -40.5q22 -20 45.5 -34.5t48.5 -14.5q31 0 45.5 23.5t15.5 63.5h157z" />
    <glyph glyph-name="atilde.ss01" horiz-adv-x="1335" 
d="M581 -24q-132 0 -248.5 62t-188.5 187t-72 313q0 179 73.5 300t190.5 182.5t245 61.5q96 0 182.5 -37t150.5 -106v123h310v-1062h-310v114q-64 -68 -150.5 -103t-182.5 -35zM666 238q64 0 120.5 28t92 83t35.5 138v90q0 83 -36 137t-92.5 80t-119.5 26q-68 0 -129 -28
t-99.5 -90.5t-38.5 -166.5t38.5 -169.5t99.5 -96.5t129 -31zM995 1456q0 -51 -21.5 -103.5t-65 -88t-112.5 -35.5q-53 0 -89 21t-59 41q-21 20 -42.5 34.5t-49.5 14.5q-34 0 -50 -25t-17 -65h-157q0 53 23 105.5t68.5 88t115.5 35.5q50 0 85.5 -20.5t58.5 -40.5
q22 -20 45.5 -34.5t48.5 -14.5q31 0 45.5 23.5t15.5 63.5h157z" />
    <glyph glyph-name="ae" unicode="&#xe6;" horiz-adv-x="2134" 
d="M574 -24q-233 0 -362.5 96.5t-129.5 253.5q0 112 68 177.5t180 93.5t243 28q130 0 199.5 3t96 15t26.5 39v19q0 69 -64.5 107t-166.5 38q-107 0 -179.5 -37t-72.5 -116h-306q0 128 77.5 214.5t205.5 130.5t278 44q123 0 229.5 -37.5t175.5 -112.5q77 71 182.5 110.5
t232.5 39.5q177 0 306 -71.5t199 -199t70 -295.5q0 -25 -1 -46t-2 -32h-848q20 -107 89 -169t195 -62t183.5 44t63.5 84h306q-9 -87 -76.5 -169.5t-189.5 -136t-295 -53.5q-146 0 -261.5 49.5t-191.5 136.5q-49 -68 -124.5 -109t-163 -59t-172.5 -18zM1215 637h535
q0 10 -3 24q-13 75 -76 134t-180 59q-108 0 -180.5 -58t-95.5 -159zM589 215q59 0 124 20.5t115 72t66 143.5q-67 -7 -139.5 -10t-139.5 -3q-112 0 -167 -23.5t-55 -82.5t53 -88t143 -29z" />
    <glyph glyph-name="aeacute" unicode="&#x1fd;" horiz-adv-x="2134" 
d="M574 -24q-233 0 -362.5 96.5t-129.5 253.5q0 112 68 177.5t180 93.5t243 28q130 0 199.5 3t96 15t26.5 39v19q0 69 -64.5 107t-166.5 38q-107 0 -179.5 -37t-72.5 -116h-306q0 128 77.5 214.5t205.5 130.5t278 44q123 0 229.5 -37.5t175.5 -112.5q77 71 182.5 110.5
t232.5 39.5q177 0 306 -71.5t199 -199t70 -295.5q0 -25 -1 -46t-2 -32h-848q20 -107 89 -169t195 -62t183.5 44t63.5 84h306q-9 -87 -76.5 -169.5t-189.5 -136t-295 -53.5q-146 0 -261.5 49.5t-191.5 136.5q-49 -68 -124.5 -109t-163 -59t-172.5 -18zM1215 637h535
q0 10 -3 24q-13 75 -76 134t-180 59q-108 0 -180.5 -58t-95.5 -159zM589 215q59 0 124 20.5t115 72t66 143.5q-67 -7 -139.5 -10t-139.5 -3q-112 0 -167 -23.5t-55 -82.5t53 -88t143 -29zM914 1203l238 272h237l-271 -272h-204z" />
    <glyph glyph-name="b" unicode="b" horiz-adv-x="1324" 
d="M121 0v1563h311v-623q63 66 147.5 103.5t180.5 37.5q128 0 240.5 -63t182 -185t69.5 -297q0 -183 -68 -307.5t-180 -188t-244 -63.5q-96 0 -180.5 39.5t-147.5 108.5v-125h-311zM680 823q-62 0 -119 -29.5t-93 -83.5t-36 -129v-91q0 -74 36 -129.5t92.5 -85.5t119.5 -30
q102 0 177.5 70.5t75.5 220.5t-75 218.5t-178 68.5z" />
    <glyph glyph-name="c" unicode="c" horiz-adv-x="1267" 
d="M656 -24q-175 0 -306.5 70.5t-204.5 196t-73 291.5t73 289t204.5 191t306.5 68q131 0 231.5 -38.5t169 -101t103.5 -138t35 -149.5v-8h-307q0 8 -3 23q-12 63 -67.5 113t-163.5 50q-115 0 -191.5 -76.5t-76.5 -222.5q0 -144 76.5 -226.5t191.5 -82.5q118 0 172 53.5
t62 128.5h307q0 -75 -34.5 -151t-102.5 -139t-168.5 -102t-233.5 -39z" />
    <glyph glyph-name="cacute" unicode="&#x107;" horiz-adv-x="1267" 
d="M656 -24q-175 0 -306.5 70.5t-204.5 196t-73 291.5t73 289t204.5 191t306.5 68q131 0 231.5 -38.5t169 -101t103.5 -138t35 -149.5v-8h-307q0 8 -3 23q-12 63 -67.5 113t-163.5 50q-115 0 -191.5 -76.5t-76.5 -222.5q0 -144 76.5 -226.5t191.5 -82.5q118 0 172 53.5
t62 128.5h307q0 -75 -34.5 -151t-102.5 -139t-168.5 -102t-233.5 -39zM473 1203l238 272h237l-271 -272h-204z" />
    <glyph glyph-name="ccaron" unicode="&#x10d;" horiz-adv-x="1267" 
d="M656 -24q-175 0 -306.5 70.5t-204.5 196t-73 291.5t73 289t204.5 191t306.5 68q131 0 231.5 -38.5t169 -101t103.5 -138t35 -149.5v-8h-307q0 8 -3 23q-12 63 -67.5 113t-163.5 50q-115 0 -191.5 -76.5t-76.5 -222.5q0 -144 76.5 -226.5t191.5 -82.5q118 0 172 53.5
t62 128.5h307q0 -75 -34.5 -151t-102.5 -139t-168.5 -102t-233.5 -39zM298 1475h196l143 -167l143 167h197l-239 -272h-200z" />
    <glyph glyph-name="ccedilla" unicode="&#xe7;" horiz-adv-x="1267" 
d="M765 -74q52 0 102.5 -34.5t50.5 -114.5q0 -67 -40.5 -109.5t-104 -63t-132.5 -20.5q-63 0 -126.5 16t-89.5 33l60 113q19 -11 66.5 -28.5t99.5 -17.5q56 0 93.5 21t37.5 62q0 32 -19 47t-47 15q-24 0 -48.5 -9t-36.5 -26l-118 33l63 137q-153 16 -266.5 89.5
t-175.5 192.5t-62 272q0 166 73 289t204.5 191t306.5 68q131 0 231.5 -38.5t169 -101t103.5 -138t35 -149.5v-8h-307q0 8 -3 23q-12 63 -67.5 113t-163.5 50q-115 0 -191.5 -76.5t-76.5 -222.5q0 -144 76.5 -226.5t191.5 -82.5q118 0 172 53.5t62 128.5h307q0 -94 -55 -189
t-163 -162t-267 -78l-33 -71q36 19 88 19z" />
    <glyph glyph-name="uni1E09" unicode="&#x1e09;" horiz-adv-x="1267" 
d="M765 -74q52 0 102.5 -34.5t50.5 -114.5q0 -67 -40.5 -109.5t-104 -63t-132.5 -20.5q-63 0 -126.5 16t-89.5 33l60 113q19 -11 66.5 -28.5t99.5 -17.5q56 0 93.5 21t37.5 62q0 32 -19 47t-47 15q-24 0 -48.5 -9t-36.5 -26l-118 33l63 137q-153 16 -266.5 89.5
t-175.5 192.5t-62 272q0 166 73 289t204.5 191t306.5 68q131 0 231.5 -38.5t169 -101t103.5 -138t35 -149.5v-8h-307q0 8 -3 23q-12 63 -67.5 113t-163.5 50q-115 0 -191.5 -76.5t-76.5 -222.5q0 -144 76.5 -226.5t191.5 -82.5q118 0 172 53.5t62 128.5h307q0 -94 -55 -189
t-163 -162t-267 -78l-33 -71q36 19 88 19zM473 1203l238 272h237l-271 -272h-204z" />
    <glyph glyph-name="ccircumflex" unicode="&#x109;" horiz-adv-x="1267" 
d="M656 -24q-175 0 -306.5 70.5t-204.5 196t-73 291.5t73 289t204.5 191t306.5 68q131 0 231.5 -38.5t169 -101t103.5 -138t35 -149.5v-8h-307q0 8 -3 23q-12 63 -67.5 113t-163.5 50q-115 0 -191.5 -76.5t-76.5 -222.5q0 -144 76.5 -226.5t191.5 -82.5q118 0 172 53.5
t62 128.5h307q0 -75 -34.5 -151t-102.5 -139t-168.5 -102t-233.5 -39zM298 1203l240 272h200l239 -272h-197l-143 167l-143 -167h-196z" />
    <glyph glyph-name="cdotaccent" unicode="&#x10b;" horiz-adv-x="1267" 
d="M656 -24q-175 0 -306.5 70.5t-204.5 196t-73 291.5t73 289t204.5 191t306.5 68q131 0 231.5 -38.5t169 -101t103.5 -138t35 -149.5v-8h-307q0 8 -3 23q-12 63 -67.5 113t-163.5 50q-115 0 -191.5 -76.5t-76.5 -222.5q0 -144 76.5 -226.5t191.5 -82.5q118 0 172 53.5
t62 128.5h307q0 -75 -34.5 -151t-102.5 -139t-168.5 -102t-233.5 -39zM638 1234q-72 0 -125.5 38t-53.5 108t53.5 107.5t125.5 37.5t125.5 -37.5t53.5 -107.5t-53.5 -108t-125.5 -38z" />
    <glyph glyph-name="d" unicode="d" horiz-adv-x="1319" 
d="M565 -24q-133 0 -245 63.5t-180 188.5t-68 308q0 175 69.5 297t182 185.5t241.5 63.5q95 0 179.5 -37.5t147.5 -104.5v623h311v-1563h-311v124q-62 -68 -146.5 -108t-180.5 -40zM644 245q64 0 120.5 30.5t92 86.5t35.5 132v87q0 75 -36 129t-93 83.5t-119 29.5
q-102 0 -177.5 -68.5t-75.5 -218.5t75.5 -220.5t177.5 -70.5z" />
    <glyph glyph-name="eth" unicode="&#xf0;" horiz-adv-x="1350" 
d="M653 -23q-172 0 -303 70.5t-204.5 195.5t-73.5 288q0 162 73.5 286.5t204.5 194t303 69.5q107 0 201 -28q-25 56 -57 101.5t-70 81.5l-94 -86l-182 98l109 101q-47 22 -98 39.5t-105 31.5l142 150q118 -29 218 -77l90 83l180 -102l-97 -89q156 -123 250 -331t94 -523
q0 -163 -73.5 -288t-204.5 -195.5t-303 -70.5zM653 221q121 0 195.5 85t74.5 225t-74.5 223t-195.5 83t-195.5 -83t-74.5 -223t74.5 -225t195.5 -85z" />
    <glyph glyph-name="dcaron" unicode="&#x10f;" horiz-adv-x="1508" 
d="M565 -24q-133 0 -245 63.5t-180 188.5t-68 308q0 175 69.5 297t182 185.5t241.5 63.5q95 0 179.5 -37.5t147.5 -104.5v623h311v-1563h-311v124q-62 -68 -146.5 -108t-180.5 -40zM644 245q64 0 120.5 30.5t92 86.5t35.5 132v87q0 75 -36 129t-93 83.5t-119 29.5
q-102 0 -177.5 -68.5t-75.5 -218.5t75.5 -220.5t177.5 -70.5zM1503 1563q0 -88 -11 -174t-24 -152t-20 -93h-144q8 29 16 93.5t13.5 150t5.5 175.5h164z" />
    <glyph glyph-name="dcroat" unicode="&#x111;" horiz-adv-x="1329" 
d="M565 -24q-133 0 -245 63.5t-180 188.5t-68 308q0 175 69.5 297t182 185.5t241.5 63.5q95 0 179.5 -37.5t147.5 -104.5v302h-373v159h373v162h311v-162h114v-159h-114v-1242h-311v124q-62 -68 -146.5 -108t-180.5 -40zM644 245q64 0 120.5 30.5t92 86.5t35.5 132v87
q0 75 -36 129t-93 83.5t-119 29.5q-102 0 -177.5 -68.5t-75.5 -218.5t75.5 -220.5t177.5 -70.5z" />
    <glyph glyph-name="uni1E0D" unicode="&#x1e0d;" horiz-adv-x="1319" 
d="M565 -24q-133 0 -245 63.5t-180 188.5t-68 308q0 175 69.5 297t182 185.5t241.5 63.5q95 0 179.5 -37.5t147.5 -104.5v623h311v-1563h-311v124q-62 -68 -146.5 -108t-180.5 -40zM644 245q64 0 120.5 30.5t92 86.5t35.5 132v87q0 75 -36 129t-93 83.5t-119 29.5
q-102 0 -177.5 -68.5t-75.5 -218.5t75.5 -220.5t177.5 -70.5zM735 -425q-72 0 -125.5 38.5t-53.5 107.5q0 70 53.5 107.5t125.5 37.5t126 -37.5t54 -107.5t-54 -108t-126 -38z" />
    <glyph glyph-name="uni1E0F" unicode="&#x1e0f;" horiz-adv-x="1319" 
d="M565 -24q-133 0 -245 63.5t-180 188.5t-68 308q0 175 69.5 297t182 185.5t241.5 63.5q95 0 179.5 -37.5t147.5 -104.5v623h311v-1563h-311v124q-62 -68 -146.5 -108t-180.5 -40zM644 245q64 0 120.5 30.5t92 86.5t35.5 132v87q0 75 -36 129t-93 83.5t-119 29.5
q-102 0 -177.5 -68.5t-75.5 -218.5t75.5 -220.5t177.5 -70.5zM446 -317v129h571v-129h-571z" />
    <glyph glyph-name="uni01C6" unicode="&#x1c6;" horiz-adv-x="2348" 
d="M565 -24q-133 0 -245 63.5t-180 188.5t-68 308q0 175 69.5 297t182 185.5t241.5 63.5q95 0 179.5 -37.5t147.5 -104.5v623h311v-1563h-311v124q-62 -68 -146.5 -108t-180.5 -40zM644 245q64 0 120.5 30.5t92 86.5t35.5 132v87q0 75 -36 129t-93 83.5t-119 29.5
q-102 0 -177.5 -68.5t-75.5 -218.5t75.5 -220.5t177.5 -70.5zM2287 243v-243h-908v230l552 590h-532v242h876v-230l-548 -589h560zM1498 1475h196l143 -167l143 167h197l-239 -272h-200z" />
    <glyph glyph-name="e" unicode="e" horiz-adv-x="1302" 
d="M1215 335q-8 -90 -75.5 -172.5t-190 -134.5t-295.5 -52q-176 0 -307 70.5t-203 195t-72 287.5q0 165 73.5 289.5t205 194t304.5 69.5q177 0 306 -70.5t199 -197t70 -294.5q0 -52 -4 -82h-840q21 -108 91 -167.5t190 -59.5q125 0 180.5 40.5t61.5 83.5h306zM659 850
q-107 0 -176.5 -54t-93.5 -153h524q-7 79 -68.5 143t-185.5 64z" />
    <glyph glyph-name="eacute" unicode="&#xe9;" horiz-adv-x="1302" 
d="M1215 335q-8 -90 -75.5 -172.5t-190 -134.5t-295.5 -52q-176 0 -307 70.5t-203 195t-72 287.5q0 165 73.5 289.5t205 194t304.5 69.5q177 0 306 -70.5t199 -197t70 -294.5q0 -52 -4 -82h-840q21 -108 91 -167.5t190 -59.5q125 0 180.5 40.5t61.5 83.5h306zM659 850
q-107 0 -176.5 -54t-93.5 -153h524q-7 79 -68.5 143t-185.5 64zM488 1203l238 272h237l-271 -272h-204z" />
    <glyph glyph-name="ebreve" unicode="&#x115;" horiz-adv-x="1302" 
d="M1215 335q-8 -90 -75.5 -172.5t-190 -134.5t-295.5 -52q-176 0 -307 70.5t-203 195t-72 287.5q0 165 73.5 289.5t205 194t304.5 69.5q177 0 306 -70.5t199 -197t70 -294.5q0 -52 -4 -82h-840q21 -108 91 -167.5t190 -59.5q125 0 180.5 40.5t61.5 83.5h306zM659 850
q-107 0 -176.5 -54t-93.5 -153h524q-7 79 -68.5 143t-185.5 64zM363 1495h181q0 -60 29 -100t80 -40q52 0 80.5 40t28.5 100h181q0 -123 -82.5 -191t-207.5 -68t-207.5 68t-82.5 191z" />
    <glyph glyph-name="ecaron" unicode="&#x11b;" horiz-adv-x="1302" 
d="M1215 335q-8 -90 -75.5 -172.5t-190 -134.5t-295.5 -52q-176 0 -307 70.5t-203 195t-72 287.5q0 165 73.5 289.5t205 194t304.5 69.5q177 0 306 -70.5t199 -197t70 -294.5q0 -52 -4 -82h-840q21 -108 91 -167.5t190 -59.5q125 0 180.5 40.5t61.5 83.5h306zM659 850
q-107 0 -176.5 -54t-93.5 -153h524q-7 79 -68.5 143t-185.5 64zM313 1475h196l143 -167l143 167h197l-239 -272h-200z" />
    <glyph glyph-name="uni0229" unicode="&#x229;" horiz-adv-x="1294" 
d="M772 -74q52 0 102.5 -34.5t50.5 -114.5q0 -67 -40.5 -109.5t-104 -63t-132.5 -20.5q-63 0 -126.5 16t-89.5 33l60 113q19 -11 66.5 -28.5t99.5 -17.5q56 0 93.5 21t37.5 62q0 32 -19 47t-47 15q-24 0 -48.5 -9t-36.5 -26l-118 33l62 136q-155 15 -270 88t-177.5 191.5
t-62.5 270.5q0 165 73.5 289.5t205 194t304.5 69.5q177 0 306 -70.5t199 -197t70 -294.5q0 -52 -4 -82h-840q21 -108 91 -167.5t190 -59.5q125 0 180.5 40.5t61.5 83.5h306q-8 -85 -68 -163t-168 -131t-262 -63l-33 -71q36 19 88 19zM659 850q-107 0 -176.5 -54t-93.5 -153
h524q-7 79 -68.5 143t-185.5 64z" />
    <glyph glyph-name="uni1E1D" unicode="&#x1e1d;" horiz-adv-x="1294" 
d="M772 -74q52 0 102.5 -34.5t50.5 -114.5q0 -67 -40.5 -109.5t-104 -63t-132.5 -20.5q-63 0 -126.5 16t-89.5 33l60 113q19 -11 66.5 -28.5t99.5 -17.5q56 0 93.5 21t37.5 62q0 32 -19 47t-47 15q-24 0 -48.5 -9t-36.5 -26l-118 33l62 136q-155 15 -270 88t-177.5 191.5
t-62.5 270.5q0 165 73.5 289.5t205 194t304.5 69.5q177 0 306 -70.5t199 -197t70 -294.5q0 -52 -4 -82h-840q21 -108 91 -167.5t190 -59.5q125 0 180.5 40.5t61.5 83.5h306q-8 -85 -68 -163t-168 -131t-262 -63l-33 -71q36 19 88 19zM659 850q-107 0 -176.5 -54t-93.5 -153
h524q-7 79 -68.5 143t-185.5 64zM363 1495h181q0 -60 29 -100t80 -40q52 0 80.5 40t28.5 100h181q0 -123 -82.5 -191t-207.5 -68t-207.5 68t-82.5 191z" />
    <glyph glyph-name="ecircumflex" unicode="&#xea;" horiz-adv-x="1302" 
d="M1215 335q-8 -90 -75.5 -172.5t-190 -134.5t-295.5 -52q-176 0 -307 70.5t-203 195t-72 287.5q0 165 73.5 289.5t205 194t304.5 69.5q177 0 306 -70.5t199 -197t70 -294.5q0 -52 -4 -82h-840q21 -108 91 -167.5t190 -59.5q125 0 180.5 40.5t61.5 83.5h306zM659 850
q-107 0 -176.5 -54t-93.5 -153h524q-7 79 -68.5 143t-185.5 64zM313 1203l240 272h200l239 -272h-197l-143 167l-143 -167h-196z" />
    <glyph glyph-name="uni1EBF" unicode="&#x1ebf;" horiz-adv-x="1302" 
d="M1215 335q-8 -90 -75.5 -172.5t-190 -134.5t-295.5 -52q-176 0 -307 70.5t-203 195t-72 287.5q0 165 73.5 289.5t205 194t304.5 69.5q177 0 306 -70.5t199 -197t70 -294.5q0 -52 -4 -82h-840q21 -108 91 -167.5t190 -59.5q125 0 180.5 40.5t61.5 83.5h306zM659 850
q-107 0 -176.5 -54t-93.5 -153h524q-7 79 -68.5 143t-185.5 64zM820 1433l194 271h203l-216 -271h-181zM313 1203l240 272h200l239 -272h-197l-143 167l-143 -167h-196z" />
    <glyph glyph-name="uni1EC7" unicode="&#x1ec7;" horiz-adv-x="1302" 
d="M1215 335q-8 -90 -75.5 -172.5t-190 -134.5t-295.5 -52q-176 0 -307 70.5t-203 195t-72 287.5q0 165 73.5 289.5t205 194t304.5 69.5q177 0 306 -70.5t199 -197t70 -294.5q0 -52 -4 -82h-840q21 -108 91 -167.5t190 -59.5q125 0 180.5 40.5t61.5 83.5h306zM659 850
q-107 0 -176.5 -54t-93.5 -153h524q-7 79 -68.5 143t-185.5 64zM663 -411q-72 0 -125.5 38.5t-53.5 107.5q0 70 53.5 107.5t125.5 37.5t126 -37.5t54 -107.5t-54 -108t-126 -38zM313 1203l240 272h200l239 -272h-197l-143 167l-143 -167h-196z" />
    <glyph glyph-name="uni1EC1" unicode="&#x1ec1;" horiz-adv-x="1302" 
d="M1215 335q-8 -90 -75.5 -172.5t-190 -134.5t-295.5 -52q-176 0 -307 70.5t-203 195t-72 287.5q0 165 73.5 289.5t205 194t304.5 69.5q177 0 306 -70.5t199 -197t70 -294.5q0 -52 -4 -82h-840q21 -108 91 -167.5t190 -59.5q125 0 180.5 40.5t61.5 83.5h306zM659 850
q-107 0 -176.5 -54t-93.5 -153h524q-7 79 -68.5 143t-185.5 64zM1080 1433h-180l-217 271h203zM315 1203l240 272h200l239 -272h-197l-143 167l-143 -167h-196z" />
    <glyph glyph-name="uni1EC3" unicode="&#x1ec3;" horiz-adv-x="1302" 
d="M1215 335q-8 -90 -75.5 -172.5t-190 -134.5t-295.5 -52q-176 0 -307 70.5t-203 195t-72 287.5q0 165 73.5 289.5t205 194t304.5 69.5q177 0 306 -70.5t199 -197t70 -294.5q0 -52 -4 -82h-840q21 -108 91 -167.5t190 -59.5q125 0 180.5 40.5t61.5 83.5h306zM659 850
q-107 0 -176.5 -54t-93.5 -153h524q-7 79 -68.5 143t-185.5 64zM892 1428l-28 72q29 1 64 6t60.5 15.5t25.5 29.5q0 30 -62.5 38t-175.5 8v86q99 0 183.5 -7.5t135.5 -33.5t51 -80q0 -70 -73 -102t-181 -32zM313 1203l240 272h200l239 -272h-197l-143 167l-143 -167h-196z
" />
    <glyph glyph-name="uni1EC5" unicode="&#x1ec5;" horiz-adv-x="1302" 
d="M1215 335q-8 -90 -75.5 -172.5t-190 -134.5t-295.5 -52q-176 0 -307 70.5t-203 195t-72 287.5q0 165 73.5 289.5t205 194t304.5 69.5q177 0 306 -70.5t199 -197t70 -294.5q0 -52 -4 -82h-840q21 -108 91 -167.5t190 -59.5q125 0 180.5 40.5t61.5 83.5h306zM659 850
q-107 0 -176.5 -54t-93.5 -153h524q-7 79 -68.5 143t-185.5 64zM789 1552q-56 0 -91 20t-57 41q-21 20 -41.5 35t-48.5 15q-34 0 -51 -25t-18 -65h-158q1 53 23.5 105.5t68.5 88t116 35.5q49 0 85 -20.5t58 -40.5q23 -20 46 -34.5t48 -14.5q32 0 46.5 23.5t15.5 63.5h157
q-1 -51 -22 -103.5t-65 -88t-112 -35.5zM313 1203l240 272h200l239 -272h-197l-143 167l-143 -167h-196z" />
    <glyph glyph-name="uni0205" unicode="&#x205;" horiz-adv-x="1302" 
d="M1215 335q-8 -90 -75.5 -172.5t-190 -134.5t-295.5 -52q-176 0 -307 70.5t-203 195t-72 287.5q0 165 73.5 289.5t205 194t304.5 69.5q177 0 306 -70.5t199 -197t70 -294.5q0 -52 -4 -82h-840q21 -108 91 -167.5t190 -59.5q125 0 180.5 40.5t61.5 83.5h306zM659 850
q-107 0 -176.5 -54t-93.5 -153h524q-7 79 -68.5 143t-185.5 64zM912 1203h-165l-177 272h191zM580 1203h-165l-200 272h192z" />
    <glyph glyph-name="edieresis" unicode="&#xeb;" horiz-adv-x="1302" 
d="M1215 335q-8 -90 -75.5 -172.5t-190 -134.5t-295.5 -52q-176 0 -307 70.5t-203 195t-72 287.5q0 165 73.5 289.5t205 194t304.5 69.5q177 0 306 -70.5t199 -197t70 -294.5q0 -52 -4 -82h-840q21 -108 91 -167.5t190 -59.5q125 0 180.5 40.5t61.5 83.5h306zM659 850
q-107 0 -176.5 -54t-93.5 -153h524q-7 79 -68.5 143t-185.5 64zM411 1228q-66 0 -115.5 35t-49.5 99t49.5 99t115.5 35q65 0 114.5 -35t49.5 -99t-49.5 -99t-114.5 -35zM893 1228q-66 0 -115 35t-49 99t49 99t115 35t115.5 -35t49.5 -99t-49.5 -99t-115.5 -35z" />
    <glyph glyph-name="edotaccent" unicode="&#x117;" horiz-adv-x="1302" 
d="M1215 335q-8 -90 -75.5 -172.5t-190 -134.5t-295.5 -52q-176 0 -307 70.5t-203 195t-72 287.5q0 165 73.5 289.5t205 194t304.5 69.5q177 0 306 -70.5t199 -197t70 -294.5q0 -52 -4 -82h-840q21 -108 91 -167.5t190 -59.5q125 0 180.5 40.5t61.5 83.5h306zM659 850
q-107 0 -176.5 -54t-93.5 -153h524q-7 79 -68.5 143t-185.5 64zM653 1234q-72 0 -125.5 38t-53.5 108t53.5 107.5t125.5 37.5t125.5 -37.5t53.5 -107.5t-53.5 -108t-125.5 -38z" />
    <glyph glyph-name="uni1EB9" unicode="&#x1eb9;" horiz-adv-x="1302" 
d="M1215 335q-8 -90 -75.5 -172.5t-190 -134.5t-295.5 -52q-176 0 -307 70.5t-203 195t-72 287.5q0 165 73.5 289.5t205 194t304.5 69.5q177 0 306 -70.5t199 -197t70 -294.5q0 -52 -4 -82h-840q21 -108 91 -167.5t190 -59.5q125 0 180.5 40.5t61.5 83.5h306zM659 850
q-107 0 -176.5 -54t-93.5 -153h524q-7 79 -68.5 143t-185.5 64zM663 -411q-72 0 -125.5 38.5t-53.5 107.5q0 70 53.5 107.5t125.5 37.5t126 -37.5t54 -107.5t-54 -108t-126 -38z" />
    <glyph glyph-name="egrave" unicode="&#xe8;" horiz-adv-x="1302" 
d="M1215 335q-8 -90 -75.5 -172.5t-190 -134.5t-295.5 -52q-176 0 -307 70.5t-203 195t-72 287.5q0 165 73.5 289.5t205 194t304.5 69.5q177 0 306 -70.5t199 -197t70 -294.5q0 -52 -4 -82h-840q21 -108 91 -167.5t190 -59.5q125 0 180.5 40.5t61.5 83.5h306zM659 850
q-107 0 -176.5 -54t-93.5 -153h524q-7 79 -68.5 143t-185.5 64zM815 1198h-204l-272 272h238z" />
    <glyph glyph-name="uni1EBB" unicode="&#x1ebb;" horiz-adv-x="1302" 
d="M1215 335q-8 -90 -75.5 -172.5t-190 -134.5t-295.5 -52q-176 0 -307 70.5t-203 195t-72 287.5q0 165 73.5 289.5t205 194t304.5 69.5q177 0 306 -70.5t199 -197t70 -294.5q0 -52 -4 -82h-840q21 -108 91 -167.5t190 -59.5q125 0 180.5 40.5t61.5 83.5h306zM659 850
q-107 0 -176.5 -54t-93.5 -153h524q-7 79 -68.5 143t-185.5 64zM442 1509q112 0 206.5 -8.5t152 -37.5t57.5 -90q0 -79 -82.5 -115t-202.5 -36l-32 81q32 2 71 7.5t67.5 17.5t28.5 33q0 33 -70 42t-196 9v97z" />
    <glyph glyph-name="uni0207" unicode="&#x207;" horiz-adv-x="1302" 
d="M1215 335q-8 -90 -75.5 -172.5t-190 -134.5t-295.5 -52q-176 0 -307 70.5t-203 195t-72 287.5q0 165 73.5 289.5t205 194t304.5 69.5q177 0 306 -70.5t199 -197t70 -294.5q0 -52 -4 -82h-840q21 -108 91 -167.5t190 -59.5q125 0 180.5 40.5t61.5 83.5h306zM659 850
q-107 0 -176.5 -54t-93.5 -153h524q-7 79 -68.5 143t-185.5 64zM363 1241q0 124 82.5 185.5t208.5 61.5q125 0 207 -61.5t82 -185.5h-181q0 61 -28.5 94.5t-79.5 33.5q-52 0 -80.5 -33.5t-28.5 -94.5h-182z" />
    <glyph glyph-name="emacron" unicode="&#x113;" horiz-adv-x="1302" 
d="M1215 335q-8 -90 -75.5 -172.5t-190 -134.5t-295.5 -52q-176 0 -307 70.5t-203 195t-72 287.5q0 165 73.5 289.5t205 194t304.5 69.5q177 0 306 -70.5t199 -197t70 -294.5q0 -52 -4 -82h-840q21 -108 91 -167.5t190 -59.5q125 0 180.5 40.5t61.5 83.5h306zM659 850
q-107 0 -176.5 -54t-93.5 -153h524q-7 79 -68.5 143t-185.5 64zM341 1287v128h623v-128h-623z" />
    <glyph glyph-name="uni1E17" unicode="&#x1e17;" horiz-adv-x="1302" 
d="M1215 335q-8 -90 -75.5 -172.5t-190 -134.5t-295.5 -52q-176 0 -307 70.5t-203 195t-72 287.5q0 165 73.5 289.5t205 194t304.5 69.5q177 0 306 -70.5t199 -197t70 -294.5q0 -52 -4 -82h-840q21 -108 91 -167.5t190 -59.5q125 0 180.5 40.5t61.5 83.5h306zM659 850
q-107 0 -176.5 -54t-93.5 -153h524q-7 79 -68.5 143t-185.5 64zM341 1287v128h623v-128h-623zM488 1556l238 272h237l-271 -272h-204z" />
    <glyph glyph-name="uni1E15" unicode="&#x1e15;" horiz-adv-x="1302" 
d="M1215 335q-8 -90 -75.5 -172.5t-190 -134.5t-295.5 -52q-176 0 -307 70.5t-203 195t-72 287.5q0 165 73.5 289.5t205 194t304.5 69.5q177 0 306 -70.5t199 -197t70 -294.5q0 -52 -4 -82h-840q21 -108 91 -167.5t190 -59.5q125 0 180.5 40.5t61.5 83.5h306zM659 850
q-107 0 -176.5 -54t-93.5 -153h524q-7 79 -68.5 143t-185.5 64zM341 1287v128h623v-128h-623zM815 1551h-204l-272 272h238z" />
    <glyph glyph-name="eogonek" unicode="&#x119;" horiz-adv-x="1302" 
d="M921 -273v-149q-21 -2 -45 -3.5t-49 -1.5q-100 0 -173 39.5t-73 130.5q0 63 43 126.5t91 108.5q-30 -2 -61 -2q-176 0 -307 70.5t-203 195t-72 287.5q0 165 73.5 289.5t205 194t304.5 69.5q177 0 306 -70.5t199 -197t70 -294.5q0 -52 -4 -82h-840q21 -108 91 -167.5
t190 -59.5q125 0 180.5 40.5t61.5 83.5h306q-9 -97 -86.5 -185t-216.5 -135q-31 -27 -69 -69t-66.5 -85.5t-28.5 -74.5q0 -38 28.5 -52t68.5 -14q18 0 38.5 2t37.5 5zM659 850q-107 0 -176.5 -54t-93.5 -153h524q-7 79 -68.5 143t-185.5 64z" />
    <glyph glyph-name="uni1EBD" unicode="&#x1ebd;" horiz-adv-x="1302" 
d="M1215 335q-8 -90 -75.5 -172.5t-190 -134.5t-295.5 -52q-176 0 -307 70.5t-203 195t-72 287.5q0 165 73.5 289.5t205 194t304.5 69.5q177 0 306 -70.5t199 -197t70 -294.5q0 -52 -4 -82h-840q21 -108 91 -167.5t190 -59.5q125 0 180.5 40.5t61.5 83.5h306zM659 850
q-107 0 -176.5 -54t-93.5 -153h524q-7 79 -68.5 143t-185.5 64zM984 1456q0 -51 -21.5 -103.5t-65 -88t-112.5 -35.5q-53 0 -89 21t-59 41q-21 20 -42.5 34.5t-49.5 14.5q-34 0 -50 -25t-17 -65h-157q0 53 23 105.5t68.5 88t115.5 35.5q50 0 85.5 -20.5t58.5 -40.5
q22 -20 45.5 -34.5t48.5 -14.5q31 0 45.5 23.5t15.5 63.5h157z" />
    <glyph glyph-name="uni0259" unicode="&#x259;" horiz-adv-x="1302" 
d="M647 -25q-177 0 -306 70.5t-199 197t-70 294.5q0 52 3 82h848q-18 110 -87.5 168.5t-202.5 58.5q-115 0 -173 -39t-67 -85h-306q8 90 75.5 172.5t190 134.5t295.5 52q176 0 307 -70.5t203 -195t72 -287.5q0 -165 -73.5 -289.5t-205 -194t-304.5 -69.5zM643 207
q109 0 180.5 53.5t95.5 153.5h-530q7 -79 69 -143t185 -64z" />
    <glyph glyph-name="uni0292" unicode="&#x292;" horiz-adv-x="1249" 
d="M623 -437q-150 0 -250 40t-158.5 109.5t-83 159t-24.5 189.5v4h310v-4q0 -149 56.5 -203t153.5 -54q84 0 137 48t53 168t-64 167t-231 47h-109l358 588h-613v240h929v-222l-271 -424q150 0 231 -102t81 -268q0 -139 -53 -248t-164.5 -172t-287.5 -63z" />
    <glyph glyph-name="uni01EF" unicode="&#x1ef;" horiz-adv-x="1249" 
d="M623 -437q-150 0 -250 40t-158.5 109.5t-83 159t-24.5 189.5v4h310v-4q0 -149 56.5 -203t153.5 -54q84 0 137 48t53 168t-64 167t-231 47h-109l358 588h-613v240h929v-222l-271 -424q150 0 231 -102t81 -268q0 -139 -53 -248t-164.5 -172t-287.5 -63zM285 1475h196
l143 -167l143 167h197l-239 -272h-200z" />
    <glyph glyph-name="f" unicode="f" horiz-adv-x="881" 
d="M250 0v822h-221v240h221v73q0 132 44 218t114.5 135t153 69t159.5 20q65 0 98 -7.5t44 -12.5v-241q-12 3 -42.5 8.5t-65.5 5.5q-116 0 -156 -59t-40 -150v-59h285v-240h-285v-822h-309z" />
    <glyph glyph-name="g" unicode="g" horiz-adv-x="1261" 
d="M854 126q147 -15 237 -71.5t90 -189.5q0 -154 -151 -239t-429 -85q-273 0 -422.5 78.5t-149.5 209.5q0 37 8.5 66.5t21.5 50.5l282 -41q-5 -7 -10.5 -21.5t-5.5 -36.5q0 -54 79.5 -79.5t205.5 -25.5q133 0 208 28t75 76q0 45 -43.5 59t-100.5 20l-402 41q-111 11 -184 64
t-73 143q0 66 42 118.5t84 78.5q-132 110 -132 291q0 125 65.5 220t179 148t257.5 53q117 0 213 -41t147 -105l13 126h273l-111 -408q-31 -117 -92 -207.5t-162.5 -142t-255.5 -51.5q-132 0 -238 34q-26 -23 -26 -49q0 -29 28 -48.5t105 -26.5zM609 480q100 0 161 48t61 137
q0 86 -61.5 135t-160.5 49q-95 0 -158.5 -49.5t-63.5 -137.5q0 -87 61.5 -134.5t160.5 -47.5z" />
    <glyph glyph-name="g.ss01" horiz-adv-x="1345" 
d="M591 -24q-132 0 -248.5 62t-188.5 187t-72 313q0 179 73.5 300t190.5 182.5t245 61.5q96 0 182.5 -36.5t150.5 -104.5v121h310v-1050q0 -133 -49.5 -223t-132.5 -143.5t-184 -77t-204 -23.5q-102 0 -199 19.5t-175 62.5t-124.5 112.5t-46.5 170.5v13h310v-13
q0 -66 69.5 -104t172.5 -38q114 0 183.5 57t69.5 187v104q-64 -69 -150.5 -104.5t-182.5 -35.5zM676 241q64 0 120.5 28t92 83t35.5 138v90q0 83 -36 137t-92.5 80t-119.5 26q-68 0 -129 -28t-99.5 -90.5t-38.5 -166.5t38.5 -169.5t99.5 -96.5t129 -31z" />
    <glyph glyph-name="gbreve" unicode="&#x11f;" horiz-adv-x="1261" 
d="M854 126q147 -15 237 -71.5t90 -189.5q0 -154 -151 -239t-429 -85q-273 0 -422.5 78.5t-149.5 209.5q0 37 8.5 66.5t21.5 50.5l282 -41q-5 -7 -10.5 -21.5t-5.5 -36.5q0 -54 79.5 -79.5t205.5 -25.5q133 0 208 28t75 76q0 45 -43.5 59t-100.5 20l-402 41q-111 11 -184 64
t-73 143q0 66 42 118.5t84 78.5q-132 110 -132 291q0 125 65.5 220t179 148t257.5 53q117 0 213 -41t147 -105l13 126h273l-111 -408q-31 -117 -92 -207.5t-162.5 -142t-255.5 -51.5q-132 0 -238 34q-26 -23 -26 -49q0 -29 28 -48.5t105 -26.5zM609 480q100 0 161 48t61 137
q0 86 -61.5 135t-160.5 49q-95 0 -158.5 -49.5t-63.5 -137.5q0 -87 61.5 -134.5t160.5 -47.5zM304 1495h181q0 -60 29 -100t80 -40q52 0 80.5 40t28.5 100h181q0 -123 -82.5 -191t-207.5 -68t-207.5 68t-82.5 191z" />
    <glyph glyph-name="gbreve.ss01" horiz-adv-x="1345" 
d="M591 -24q-132 0 -248.5 62t-188.5 187t-72 313q0 179 73.5 300t190.5 182.5t245 61.5q96 0 182.5 -36.5t150.5 -104.5v121h310v-1050q0 -133 -49.5 -223t-132.5 -143.5t-184 -77t-204 -23.5q-102 0 -199 19.5t-175 62.5t-124.5 112.5t-46.5 170.5v13h310v-13
q0 -66 69.5 -104t172.5 -38q114 0 183.5 57t69.5 187v104q-64 -69 -150.5 -104.5t-182.5 -35.5zM676 241q64 0 120.5 28t92 83t35.5 138v90q0 83 -36 137t-92.5 80t-119.5 26q-68 0 -129 -28t-99.5 -90.5t-38.5 -166.5t38.5 -169.5t99.5 -96.5t129 -31zM372 1495h181
q0 -60 29 -100t80 -40q52 0 80.5 40t28.5 100h181q0 -123 -82.5 -191t-207.5 -68t-207.5 68t-82.5 191z" />
    <glyph glyph-name="gcaron" unicode="&#x1e7;" horiz-adv-x="1261" 
d="M854 126q147 -15 237 -71.5t90 -189.5q0 -154 -151 -239t-429 -85q-273 0 -422.5 78.5t-149.5 209.5q0 37 8.5 66.5t21.5 50.5l282 -41q-5 -7 -10.5 -21.5t-5.5 -36.5q0 -54 79.5 -79.5t205.5 -25.5q133 0 208 28t75 76q0 45 -43.5 59t-100.5 20l-402 41q-111 11 -184 64
t-73 143q0 66 42 118.5t84 78.5q-132 110 -132 291q0 125 65.5 220t179 148t257.5 53q117 0 213 -41t147 -105l13 126h273l-111 -408q-31 -117 -92 -207.5t-162.5 -142t-255.5 -51.5q-132 0 -238 34q-26 -23 -26 -49q0 -29 28 -48.5t105 -26.5zM609 480q100 0 161 48t61 137
q0 86 -61.5 135t-160.5 49q-95 0 -158.5 -49.5t-63.5 -137.5q0 -87 61.5 -134.5t160.5 -47.5zM254 1475h196l143 -167l143 167h197l-239 -272h-200z" />
    <glyph glyph-name="gcaron.ss01" horiz-adv-x="1345" 
d="M591 -24q-132 0 -248.5 62t-188.5 187t-72 313q0 179 73.5 300t190.5 182.5t245 61.5q96 0 182.5 -36.5t150.5 -104.5v121h310v-1050q0 -133 -49.5 -223t-132.5 -143.5t-184 -77t-204 -23.5q-102 0 -199 19.5t-175 62.5t-124.5 112.5t-46.5 170.5v13h310v-13
q0 -66 69.5 -104t172.5 -38q114 0 183.5 57t69.5 187v104q-64 -69 -150.5 -104.5t-182.5 -35.5zM676 241q64 0 120.5 28t92 83t35.5 138v90q0 83 -36 137t-92.5 80t-119.5 26q-68 0 -129 -28t-99.5 -90.5t-38.5 -166.5t38.5 -169.5t99.5 -96.5t129 -31zM322 1475h196
l143 -167l143 167h197l-239 -272h-200z" />
    <glyph glyph-name="gcircumflex" unicode="&#x11d;" horiz-adv-x="1261" 
d="M854 126q147 -15 237 -71.5t90 -189.5q0 -154 -151 -239t-429 -85q-273 0 -422.5 78.5t-149.5 209.5q0 37 8.5 66.5t21.5 50.5l282 -41q-5 -7 -10.5 -21.5t-5.5 -36.5q0 -54 79.5 -79.5t205.5 -25.5q133 0 208 28t75 76q0 45 -43.5 59t-100.5 20l-402 41q-111 11 -184 64
t-73 143q0 66 42 118.5t84 78.5q-132 110 -132 291q0 125 65.5 220t179 148t257.5 53q117 0 213 -41t147 -105l13 126h273l-111 -408q-31 -117 -92 -207.5t-162.5 -142t-255.5 -51.5q-132 0 -238 34q-26 -23 -26 -49q0 -29 28 -48.5t105 -26.5zM609 480q100 0 161 48t61 137
q0 86 -61.5 135t-160.5 49q-95 0 -158.5 -49.5t-63.5 -137.5q0 -87 61.5 -134.5t160.5 -47.5zM254 1203l240 272h200l239 -272h-197l-143 167l-143 -167h-196z" />
    <glyph glyph-name="gcircumflex.ss01" horiz-adv-x="1345" 
d="M591 -24q-132 0 -248.5 62t-188.5 187t-72 313q0 179 73.5 300t190.5 182.5t245 61.5q96 0 182.5 -36.5t150.5 -104.5v121h310v-1050q0 -133 -49.5 -223t-132.5 -143.5t-184 -77t-204 -23.5q-102 0 -199 19.5t-175 62.5t-124.5 112.5t-46.5 170.5v13h310v-13
q0 -66 69.5 -104t172.5 -38q114 0 183.5 57t69.5 187v104q-64 -69 -150.5 -104.5t-182.5 -35.5zM676 241q64 0 120.5 28t92 83t35.5 138v90q0 83 -36 137t-92.5 80t-119.5 26q-68 0 -129 -28t-99.5 -90.5t-38.5 -166.5t38.5 -169.5t99.5 -96.5t129 -31zM322 1203l240 272
h200l239 -272h-197l-143 167l-143 -167h-196z" />
    <glyph glyph-name="uni0123" unicode="&#x123;" horiz-adv-x="1261" 
d="M854 126q147 -15 237 -71.5t90 -189.5q0 -154 -151 -239t-429 -85q-273 0 -422.5 78.5t-149.5 209.5q0 37 8.5 66.5t21.5 50.5l282 -41q-5 -7 -10.5 -21.5t-5.5 -36.5q0 -54 79.5 -79.5t205.5 -25.5q133 0 208 28t75 76q0 45 -43.5 59t-100.5 20l-402 41q-111 11 -184 64
t-73 143q0 66 42 118.5t84 78.5q-132 110 -132 291q0 125 65.5 220t179 148t257.5 53q117 0 213 -41t147 -105l13 126h273l-111 -408q-31 -117 -92 -207.5t-162.5 -142t-255.5 -51.5q-132 0 -238 34q-26 -23 -26 -49q0 -29 28 -48.5t105 -26.5zM609 480q100 0 161 48t61 137
q0 86 -61.5 135t-160.5 49q-95 0 -158.5 -49.5t-63.5 -137.5q0 -87 61.5 -134.5t160.5 -47.5zM611.565 1373.94q47.0381 0 75.4385 -26.626q28.4004 -26.625 28.4004 -73.6631q0 -47.9258 -31.0625 -78.5449q-31.0635 -30.6191 -89.6387 -30.6191
q-59.4639 0 -90.9707 39.4941t-31.5068 100.733q0 59.4629 28.8447 104.282q28.8438 44.8193 72.332 75.8818q43.4883 31.0635 86.9766 48.8135l23.9629 -48.8135q-43.4883 -16.8623 -85.2012 -53.6943q-41.7139 -36.8311 -41.7139 -74.9941q2.66309 4.4375 17.3066 11.0938
q14.6445 6.65625 36.832 6.65625z" />
    <glyph glyph-name="uni0123.ss01" horiz-adv-x="1345" 
d="M591 -24q-132 0 -248.5 62t-188.5 187t-72 313q0 179 73.5 300t190.5 182.5t245 61.5q96 0 182.5 -36.5t150.5 -104.5v121h310v-1050q0 -133 -49.5 -223t-132.5 -143.5t-184 -77t-204 -23.5q-102 0 -199 19.5t-175 62.5t-124.5 112.5t-46.5 170.5v13h310v-13
q0 -66 69.5 -104t172.5 -38q114 0 183.5 57t69.5 187v104q-64 -69 -150.5 -104.5t-182.5 -35.5zM676 241q64 0 120.5 28t92 83t35.5 138v90q0 83 -36 137t-92.5 80t-119.5 26q-68 0 -129 -28t-99.5 -90.5t-38.5 -166.5t38.5 -169.5t99.5 -96.5t129 -31zM682 1414
q53 0 85 -30t32 -83q0 -54 -35 -88.5t-101 -34.5q-67 0 -102.5 44.5t-35.5 113.5q0 67 32.5 117.5t81.5 85.5t98 55l27 -55q-49 -19 -96 -60.5t-47 -84.5q3 5 19.5 12.5t41.5 7.5z" />
    <glyph glyph-name="gdotaccent" unicode="&#x121;" horiz-adv-x="1261" 
d="M854 126q147 -15 237 -71.5t90 -189.5q0 -154 -151 -239t-429 -85q-273 0 -422.5 78.5t-149.5 209.5q0 37 8.5 66.5t21.5 50.5l282 -41q-5 -7 -10.5 -21.5t-5.5 -36.5q0 -54 79.5 -79.5t205.5 -25.5q133 0 208 28t75 76q0 45 -43.5 59t-100.5 20l-402 41q-111 11 -184 64
t-73 143q0 66 42 118.5t84 78.5q-132 110 -132 291q0 125 65.5 220t179 148t257.5 53q117 0 213 -41t147 -105l13 126h273l-111 -408q-31 -117 -92 -207.5t-162.5 -142t-255.5 -51.5q-132 0 -238 34q-26 -23 -26 -49q0 -29 28 -48.5t105 -26.5zM609 480q100 0 161 48t61 137
q0 86 -61.5 135t-160.5 49q-95 0 -158.5 -49.5t-63.5 -137.5q0 -87 61.5 -134.5t160.5 -47.5zM594 1234q-72 0 -125.5 38t-53.5 108t53.5 107.5t125.5 37.5t125.5 -37.5t53.5 -107.5t-53.5 -108t-125.5 -38z" />
    <glyph glyph-name="gdotaccent.ss01" horiz-adv-x="1345" 
d="M591 -24q-132 0 -248.5 62t-188.5 187t-72 313q0 179 73.5 300t190.5 182.5t245 61.5q96 0 182.5 -36.5t150.5 -104.5v121h310v-1050q0 -133 -49.5 -223t-132.5 -143.5t-184 -77t-204 -23.5q-102 0 -199 19.5t-175 62.5t-124.5 112.5t-46.5 170.5v13h310v-13
q0 -66 69.5 -104t172.5 -38q114 0 183.5 57t69.5 187v104q-64 -69 -150.5 -104.5t-182.5 -35.5zM676 241q64 0 120.5 28t92 83t35.5 138v90q0 83 -36 137t-92.5 80t-119.5 26q-68 0 -129 -28t-99.5 -90.5t-38.5 -166.5t38.5 -169.5t99.5 -96.5t129 -31zM662 1234
q-72 0 -125.5 38t-53.5 108t53.5 107.5t125.5 37.5t125.5 -37.5t53.5 -107.5t-53.5 -108t-125.5 -38z" />
    <glyph glyph-name="uni1E21" unicode="&#x1e21;" horiz-adv-x="1261" 
d="M854 126q147 -15 237 -71.5t90 -189.5q0 -154 -151 -239t-429 -85q-273 0 -422.5 78.5t-149.5 209.5q0 37 8.5 66.5t21.5 50.5l282 -41q-5 -7 -10.5 -21.5t-5.5 -36.5q0 -54 79.5 -79.5t205.5 -25.5q133 0 208 28t75 76q0 45 -43.5 59t-100.5 20l-402 41q-111 11 -184 64
t-73 143q0 66 42 118.5t84 78.5q-132 110 -132 291q0 125 65.5 220t179 148t257.5 53q117 0 213 -41t147 -105l13 126h273l-111 -408q-31 -117 -92 -207.5t-162.5 -142t-255.5 -51.5q-132 0 -238 34q-26 -23 -26 -49q0 -29 28 -48.5t105 -26.5zM609 480q100 0 161 48t61 137
q0 86 -61.5 135t-160.5 49q-95 0 -158.5 -49.5t-63.5 -137.5q0 -87 61.5 -134.5t160.5 -47.5zM282 1287v128h623v-128h-623z" />
    <glyph glyph-name="uni1E21.ss01" horiz-adv-x="1345" 
d="M591 -24q-132 0 -248.5 62t-188.5 187t-72 313q0 179 73.5 300t190.5 182.5t245 61.5q96 0 182.5 -36.5t150.5 -104.5v121h310v-1050q0 -133 -49.5 -223t-132.5 -143.5t-184 -77t-204 -23.5q-102 0 -199 19.5t-175 62.5t-124.5 112.5t-46.5 170.5v13h310v-13
q0 -66 69.5 -104t172.5 -38q114 0 183.5 57t69.5 187v104q-64 -69 -150.5 -104.5t-182.5 -35.5zM676 241q64 0 120.5 28t92 83t35.5 138v90q0 83 -36 137t-92.5 80t-119.5 26q-68 0 -129 -28t-99.5 -90.5t-38.5 -166.5t38.5 -169.5t99.5 -96.5t129 -31zM350 1287v128h623
v-128h-623z" />
    <glyph glyph-name="uni01E5" unicode="&#x1e5;" horiz-adv-x="1345" 
d="M591 -24q-132 0 -248.5 62t-188.5 187t-72 313q0 179 73.5 300t190.5 182.5t245 61.5q96 0 182.5 -36.5t150.5 -104.5v121h310v-1050q0 -133 -49.5 -223t-132.5 -143.5t-184 -77t-204 -23.5q-102 0 -199 19.5t-175 62.5t-124.5 112.5t-46.5 170.5v13h310v-13
q0 -66 69.5 -104t172.5 -38q114 0 183.5 57t69.5 187v104q-64 -69 -150.5 -104.5t-182.5 -35.5zM676 241q64 0 120.5 28t92 83t35.5 138v90q0 83 -36 137t-92.5 80t-119.5 26q-68 0 -129 -28t-99.5 -90.5t-38.5 -166.5t38.5 -169.5t99.5 -96.5t129 -31zM622 458v141h729
v-141h-729z" />
    <glyph glyph-name="h" unicode="h" horiz-adv-x="1290" 
d="M121 0v1563h310v-645q59 77 151 120.5t206 43.5q195 0 293 -114.5t98 -318.5v-649h-310v562q0 122 -44 188.5t-161 66.5q-115 0 -174 -67t-59 -178v-572h-310z" />
    <glyph glyph-name="hbar" unicode="&#x127;" horiz-adv-x="1308" 
d="M139 0v1242h-131v159h131v162h310v-162h331v-159h-331v-324q59 77 151 120.5t206 43.5q195 0 293 -114.5t98 -318.5v-649h-310v562q0 122 -44 188.5t-161 66.5q-115 0 -174 -67t-59 -178v-572h-310z" />
    <glyph glyph-name="uni1E2B" unicode="&#x1e2b;" horiz-adv-x="1290" 
d="M121 0v1563h310v-645q59 77 151 120.5t206 43.5q195 0 293 -114.5t98 -318.5v-649h-310v562q0 122 -44 188.5t-161 66.5q-115 0 -174 -67t-59 -178v-572h-310zM346 -120h182q0 -60 28.5 -93.5t79.5 -33.5q52 0 80.5 33.5t28.5 93.5h181q0 -123 -82.5 -184.5t-207.5 -61.5
t-207.5 61.5t-82.5 184.5z" />
    <glyph glyph-name="hcircumflex" unicode="&#x125;" horiz-adv-x="1290" 
d="M121 0v1563h310v-645q59 77 151 120.5t206 43.5q195 0 293 -114.5t98 -318.5v-649h-310v562q0 122 -44 188.5t-161 66.5q-115 0 -174 -67t-59 -178v-572h-310zM-59 1699l240 272h200l239 -272h-197l-143 167l-143 -167h-196z" />
    <glyph glyph-name="uni1E25" unicode="&#x1e25;" horiz-adv-x="1290" 
d="M121 0v1563h310v-645q59 77 151 120.5t206 43.5q195 0 293 -114.5t98 -318.5v-649h-310v562q0 122 -44 188.5t-161 66.5q-115 0 -174 -67t-59 -178v-572h-310zM639 -411q-72 0 -125.5 38.5t-53.5 107.5q0 70 53.5 107.5t125.5 37.5t126 -37.5t54 -107.5t-54 -108
t-126 -38z" />
    <glyph glyph-name="i" unicode="i" horiz-adv-x="524" 
d="M262 1235q-72 0 -125.5 38t-53.5 107q0 70 53.5 108t125.5 38t126 -38t54 -108t-54 -107.5t-126 -37.5zM109 0v1062h307v-1062h-307z" />
    <glyph glyph-name="dotlessi" unicode="&#x131;" horiz-adv-x="525" 
d="M109 0v1062h307v-1062h-307z" />
    <glyph glyph-name="iacute" unicode="&#xed;" horiz-adv-x="525" 
d="M109 0v1062h307v-1062h-307zM98 1203l238 272h237l-271 -272h-204z" />
    <glyph glyph-name="ibreve" unicode="&#x12d;" horiz-adv-x="525" 
d="M109 0v1062h307v-1062h-307zM-27 1495h181q0 -60 29 -100t80 -40q52 0 80.5 40t28.5 100h181q0 -123 -82.5 -191t-207.5 -68t-207.5 68t-82.5 191z" />
    <glyph glyph-name="uni01D0" unicode="&#x1d0;" horiz-adv-x="525" 
d="M109 0v1062h307v-1062h-307zM-77 1475h196l143 -167l143 167h197l-239 -272h-200z" />
    <glyph glyph-name="icircumflex" unicode="&#xee;" horiz-adv-x="525" 
d="M109 0v1062h307v-1062h-307zM-77 1203l240 272h200l239 -272h-197l-143 167l-143 -167h-196z" />
    <glyph glyph-name="uni0209" unicode="&#x209;" horiz-adv-x="525" 
d="M109 0v1062h307v-1062h-307zM522 1203h-165l-177 272h191zM190 1203h-165l-200 272h192z" />
    <glyph glyph-name="idieresis" unicode="&#xef;" horiz-adv-x="525" 
d="M109 0v1062h307v-1062h-307zM74 1228q-66 0 -115 35t-49 99t49 99t115 35t115 -35t49 -99t-49 -99t-115 -35zM447 1228q-66 0 -115 35t-49 99t49 99t115 35t115.5 -35t49.5 -99t-49.5 -99t-115.5 -35z" />
    <glyph glyph-name="uni1E2F" unicode="&#x1e2f;" horiz-adv-x="525" 
d="M109 0v1062h307v-1062h-307zM74 1228q-66 0 -115 35t-49 99t49 99t115 35t115 -35t49 -99t-49 -99t-115 -35zM447 1228q-66 0 -115 35t-49 99t49 99t115 35t115.5 -35t49.5 -99t-49.5 -99t-115.5 -35zM98 1645l238 272h237l-271 -272h-204z" />
    <glyph glyph-name="i.loclTRK" horiz-adv-x="525" 
d="M109 0v1062h307v-1062h-307zM263 1234q-72 0 -125.5 38t-53.5 108t53.5 107.5t125.5 37.5t125.5 -37.5t53.5 -107.5t-53.5 -108t-125.5 -38z" />
    <glyph glyph-name="uni1ECB" unicode="&#x1ecb;" horiz-adv-x="524" 
d="M262 1235q-72 0 -125.5 38t-53.5 107q0 70 53.5 108t125.5 38t126 -38t54 -108t-54 -107.5t-126 -37.5zM109 0v1062h307v-1062h-307zM263 -411q-72 0 -125.5 38.5t-53.5 107.5q0 70 53.5 107.5t125.5 37.5t126 -37.5t54 -107.5t-54 -108t-126 -38z" />
    <glyph glyph-name="igrave" unicode="&#xec;" horiz-adv-x="525" 
d="M109 0v1062h307v-1062h-307zM425 1198h-204l-272 272h238z" />
    <glyph glyph-name="uni1EC9" unicode="&#x1ec9;" horiz-adv-x="525" 
d="M109 0v1062h307v-1062h-307zM52 1509q112 0 206.5 -8.5t152 -37.5t57.5 -90q0 -79 -82.5 -115t-202.5 -36l-32 81q32 2 71 7.5t67.5 17.5t28.5 33q0 33 -70 42t-196 9v97z" />
    <glyph glyph-name="uni020B" unicode="&#x20b;" horiz-adv-x="525" 
d="M109 0v1062h307v-1062h-307zM-27 1241q0 124 82.5 185.5t208.5 61.5q125 0 207 -61.5t82 -185.5h-181q0 61 -28.5 94.5t-79.5 33.5q-52 0 -80.5 -33.5t-28.5 -94.5h-182z" />
    <glyph glyph-name="imacron" unicode="&#x12b;" horiz-adv-x="525" 
d="M109 0v1062h307v-1062h-307zM40 1287v128h446v-128h-446z" />
    <glyph glyph-name="iogonek" unicode="&#x12f;" horiz-adv-x="525" 
d="M109 0v1062h307v-1062h-307zM416 -296v-148q-20 -3 -44 -4.5t-49 -1.5q-100 0 -173.5 40t-73.5 131q0 54 33 109t77 100.5t78 69.5h152q-29 -25 -69.5 -68t-71.5 -89t-31 -80q0 -38 28 -52t68 -14q19 0 39.5 2t36.5 5zM263 1234q-72 0 -125.5 38t-53.5 108t53.5 107.5
t125.5 37.5t125.5 -37.5t53.5 -107.5t-53.5 -108t-125.5 -38z" />
    <glyph glyph-name="itilde" unicode="&#x129;" horiz-adv-x="525" 
d="M109 0v1062h307v-1062h-307zM594 1456q0 -51 -21.5 -103.5t-65 -88t-112.5 -35.5q-53 0 -89 21t-59 41q-21 20 -42.5 34.5t-49.5 14.5q-34 0 -50 -25t-17 -65h-157q0 53 23 105.5t68.5 88t115.5 35.5q50 0 85.5 -20.5t58.5 -40.5q22 -20 45.5 -34.5t48.5 -14.5
q31 0 45.5 23.5t15.5 63.5h157z" />
    <glyph glyph-name="j" unicode="j" horiz-adv-x="540" 
d="M277 1235q-72 0 -125.5 38t-53.5 107q0 70 53.5 108t125.5 38t125.5 -38t53.5 -108q0 -69 -53.5 -107t-125.5 -38zM-33 -457q-29 0 -56.5 1.5t-45.5 3.5v229q18 -3 45.5 -5.5t56.5 -2.5q66 0 98.5 23t43 57t10.5 66v1147h309v-1154q0 -66 -16 -130.5t-63.5 -117.5
t-139 -85t-242.5 -32z" />
    <glyph glyph-name="uni0237" unicode="&#x237;" horiz-adv-x="540" 
d="M-33 -457q-29 0 -56.5 1.5t-45.5 3.5v229q18 -3 45.5 -5.5t56.5 -2.5q66 0 98.5 23t43 57t10.5 66v1147h309v-1154q0 -66 -16 -130.5t-63.5 -117.5t-139 -85t-242.5 -32z" />
    <glyph glyph-name="jcircumflex" unicode="&#x135;" horiz-adv-x="540" 
d="M-33 -457q-29 0 -56.5 1.5t-45.5 3.5v229q18 -3 45.5 -5.5t56.5 -2.5q66 0 98.5 23t43 57t10.5 66v1147h309v-1154q0 -66 -16 -130.5t-63.5 -117.5t-139 -85t-242.5 -32zM-63 1203l240 272h200l239 -272h-197l-143 167l-143 -167h-196z" />
    <glyph glyph-name="k" unicode="k" horiz-adv-x="1144" 
d="M121 0v1563h294v-809l344 308h380l-436 -390l427 -672h-326l-297 497l-92 -83v-414h-294z" />
    <glyph glyph-name="uni01E9" unicode="&#x1e9;" horiz-adv-x="1144" 
d="M121 0v1563h294v-809l344 308h380l-436 -390l427 -672h-326l-297 497l-92 -83v-414h-294zM-72 1851h199l142 -125l143 125h200l-240 -206h-203z" />
    <glyph glyph-name="uni0137" unicode="&#x137;" horiz-adv-x="1144" 
d="M121 0v1563h294v-809l344 308h380l-436 -390l427 -672h-326l-297 497l-92 -83v-414h-294zM588 -268q-46 0 -73.5 25t-27.5 67q0 51 39 74t85 23q41 0 83 -27t42 -95q0 -75 -33 -126.5t-78.5 -82.5t-84.5 -45l-18 48q45 17 92.5 58t47.5 110q-7 -14 -29 -21.5t-45 -7.5z
" />
    <glyph glyph-name="kgreenlandic" unicode="&#x138;" horiz-adv-x="1045" 
d="M713 0l-219 358l-79 -104v-254h-294v1062h294v-451l298 451h321l-354 -486l362 -576h-329z" />
    <glyph glyph-name="l" unicode="l" horiz-adv-x="568" 
d="M442 1563v-1563h-306v1563h306z" />
    <glyph glyph-name="l.ss01" horiz-adv-x="633" 
d="M461 -21q-56 0 -115 9.5t-110.5 40.5t-83 93.5t-31.5 169.5v1271h311v-1217q0 -79 25 -104t63 -25q27 0 51 5t42 13v-234q-25 -9 -63 -15.5t-89 -6.5z" />
    <glyph glyph-name="lacute" unicode="&#x13a;" horiz-adv-x="568" 
d="M442 1563v-1563h-306v1563h306zM117 1646l273 207h248l-305 -207h-216z" />
    <glyph glyph-name="lacute.ss01" horiz-adv-x="633" 
d="M461 -21q-56 0 -115 9.5t-110.5 40.5t-83 93.5t-31.5 169.5v1271h311v-1217q0 -79 25 -104t63 -25q27 0 51 5t42 13v-234q-25 -9 -63 -15.5t-89 -6.5zM107 1704l238 272h237l-271 -272h-204z" />
    <glyph glyph-name="lcaron" unicode="&#x13e;" horiz-adv-x="720" 
d="M442 1563v-1563h-306v1563h306zM720 1563q0 -88 -11 -174t-24 -152t-20 -93h-144q8 29 16 93.5t13.5 150t5.5 175.5h164z" />
    <glyph glyph-name="lcaron.ss01" horiz-adv-x="764" 
d="M476 -21q-56 0 -115 9.5t-110.5 40.5t-83 93.5t-31.5 169.5v1271h311v-1217q0 -79 25 -104t63 -25q27 0 51 5t42 13v-234q-25 -9 -63 -15.5t-89 -6.5zM765 1563q0 -88 -11 -174t-24 -152t-20 -93h-144q8 29 16 93.5t13.5 150t5.5 175.5h164z" />
    <glyph glyph-name="uni013C" unicode="&#x13c;" horiz-adv-x="568" 
d="M442 1563v-1563h-306v1563h306zM262 -268q-46 0 -73.5 25t-27.5 67q0 51 39 74t85 23q41 0 83 -27t42 -95q0 -75 -33 -126.5t-78.5 -82.5t-84.5 -45l-18 48q45 17 92.5 58t47.5 110q-7 -14 -29 -21.5t-45 -7.5z" />
    <glyph glyph-name="uni013C.ss01" horiz-adv-x="633" 
d="M461 -21q-56 0 -115 9.5t-110.5 40.5t-83 93.5t-31.5 169.5v1271h311v-1217q0 -79 25 -104t63 -25q27 0 51 5t42 13v-234q-25 -9 -63 -15.5t-89 -6.5zM353 -283q-46 0 -73.5 25t-27.5 67q0 51 39 74t85 23q41 0 83 -27t42 -95q0 -75 -33 -126.5t-78.5 -82.5t-84.5 -45
l-18 48q45 17 92.5 58t47.5 110q-7 -14 -29 -21.5t-45 -7.5z" />
    <glyph glyph-name="ldot" unicode="&#x140;" horiz-adv-x="881" 
d="M427 1563v-1563h-306v1563h306zM691 648q-69 0 -117 48t-48 116t48 116t117 48q68 0 116 -48t48 -116t-48 -116t-116 -48z" />
    <glyph glyph-name="ldot.ss01" horiz-adv-x="905" 
d="M461 -21q-56 0 -115 9.5t-110.5 40.5t-83 93.5t-31.5 169.5v1271h311v-1217q0 -79 25 -104t63 -25q27 0 51 5t42 13v-234q-25 -9 -63 -15.5t-89 -6.5zM711 648q-69 0 -117 48t-48 116t48 116t117 48q68 0 116 -48t48 -116t-48 -116t-116 -48z" />
    <glyph glyph-name="uni1E37" unicode="&#x1e37;" horiz-adv-x="568" 
d="M442 1563v-1563h-306v1563h306zM287 -411q-72 0 -125.5 38.5t-53.5 107.5q0 70 53.5 107.5t125.5 37.5t126 -37.5t54 -107.5t-54 -108t-126 -38z" />
    <glyph glyph-name="uni1E37.ss01" horiz-adv-x="633" 
d="M461 -21q-56 0 -115 9.5t-110.5 40.5t-83 93.5t-31.5 169.5v1271h311v-1217q0 -79 25 -104t63 -25q27 0 51 5t42 13v-234q-25 -9 -63 -15.5t-89 -6.5zM378 -426q-72 0 -125.5 38.5t-53.5 107.5q0 70 53.5 107.5t125.5 37.5t126 -37.5t54 -107.5t-54 -108t-126 -38z" />
    <glyph glyph-name="uni01C9" unicode="&#x1c9;" horiz-adv-x="1173" 
d="M461 -21q-56 0 -115 9.5t-110.5 40.5t-83 93.5t-31.5 169.5v1271h311v-1217q0 -79 25 -104t63 -25q27 0 51 5t42 13v-234q-25 -9 -63 -15.5t-89 -6.5zM910 1235q-72 0 -125.5 38t-53.5 107q0 70 53.5 108t125.5 38t125.5 -38t53.5 -108q0 -69 -53.5 -107t-125.5 -38z
M600 -457q-29 0 -56.5 1.5t-45.5 3.5v229q18 -3 45.5 -5.5t56.5 -2.5q66 0 98.5 23t43 57t10.5 66v1147h309v-1154q0 -66 -16 -130.5t-63.5 -117.5t-139 -85t-242.5 -32z" />
    <glyph glyph-name="uni1E3B" unicode="&#x1e3b;" horiz-adv-x="568" 
d="M442 1563v-1563h-306v1563h306zM-1 -303v129h571v-129h-571z" />
    <glyph glyph-name="uni1E3B.ss01" horiz-adv-x="633" 
d="M461 -21q-56 0 -115 9.5t-110.5 40.5t-83 93.5t-31.5 169.5v1271h311v-1217q0 -79 25 -104t63 -25q27 0 51 5t42 13v-234q-25 -9 -63 -15.5t-89 -6.5zM90 -318v129h571v-129h-571z" />
    <glyph glyph-name="lslash" unicode="&#x142;" horiz-adv-x="537" 
d="M-74 786l210 106v671h306v-517l68 34l79 -162l-147 -74v-844h-306v690l-131 -65z" />
    <glyph glyph-name="lslash.ss01" horiz-adv-x="633" 
d="M461 -21q-56 0 -115 9.5t-110.5 40.5t-83 93.5t-31.5 169.5v389l-112 -56l-79 161l191 96v681h311v-524l82 41l78 -162l-160 -81v-491q0 -79 25 -104t63 -25q27 0 51 5t42 13v-234q-25 -9 -63 -15.5t-89 -6.5z" />
    <glyph glyph-name="m" unicode="m" horiz-adv-x="1865" 
d="M121 0v1062h310v-141q52 75 133 118t185 43q133 0 207.5 -57.5t106.5 -149.5q48 95 136 151t209 56q130 0 205.5 -54.5t108 -146.5t32.5 -205v-676h-310v588q0 58 -10 110.5t-44 85.5t-107 33q-69 0 -111 -37t-61 -97t-19 -128v-555h-308v586q0 54 -9 107t-43 88.5
t-107 35.5q-69 0 -111.5 -37.5t-62.5 -98.5t-20 -132v-549h-310z" />
    <glyph glyph-name="uni1E43" unicode="&#x1e43;" horiz-adv-x="1865" 
d="M121 0v1062h310v-141q52 75 133 118t185 43q133 0 207.5 -57.5t106.5 -149.5q48 95 136 151t209 56q130 0 205.5 -54.5t108 -146.5t32.5 -205v-676h-310v588q0 58 -10 110.5t-44 85.5t-107 33q-69 0 -111 -37t-61 -97t-19 -128v-555h-308v586q0 54 -9 107t-43 88.5
t-107 35.5q-69 0 -111.5 -37.5t-62.5 -98.5t-20 -132v-549h-310zM951 -411q-72 0 -125.5 38.5t-53.5 107.5q0 70 53.5 107.5t125.5 37.5t126 -37.5t54 -107.5t-54 -108t-126 -38z" />
    <glyph glyph-name="n" unicode="n" horiz-adv-x="1290" 
d="M121 0v1062h310v-163q61 86 156 134.5t208 48.5q196 0 289.5 -115t93.5 -302v-665h-309v576q0 66 -17 120.5t-61.5 87.5t-126.5 33q-108 0 -170.5 -72.5t-62.5 -188.5v-556h-310z" />
    <glyph glyph-name="nacute" unicode="&#x144;" horiz-adv-x="1290" 
d="M121 0v1062h310v-163q61 86 156 134.5t208 48.5q196 0 289.5 -115t93.5 -302v-665h-309v576q0 66 -17 120.5t-61.5 87.5t-126.5 33q-108 0 -170.5 -72.5t-62.5 -188.5v-556h-310zM499 1203l238 272h237l-271 -272h-204z" />
    <glyph glyph-name="ncaron" unicode="&#x148;" horiz-adv-x="1290" 
d="M121 0v1062h310v-163q61 86 156 134.5t208 48.5q196 0 289.5 -115t93.5 -302v-665h-309v576q0 66 -17 120.5t-61.5 87.5t-126.5 33q-108 0 -170.5 -72.5t-62.5 -188.5v-556h-310zM325 1475h196l143 -167l143 167h197l-239 -272h-200z" />
    <glyph glyph-name="uni0146" unicode="&#x146;" horiz-adv-x="1290" 
d="M121 0v1062h310v-163q61 86 156 134.5t208 48.5q196 0 289.5 -115t93.5 -302v-665h-309v576q0 66 -17 120.5t-61.5 87.5t-126.5 33q-108 0 -170.5 -72.5t-62.5 -188.5v-556h-310zM616 -268q-46 0 -73.5 25t-27.5 67q0 51 39 74t85 23q41 0 83 -27t42 -95
q0 -75 -33 -126.5t-78.5 -82.5t-84.5 -45l-18 48q45 17 92.5 58t47.5 110q-7 -14 -29 -21.5t-45 -7.5z" />
    <glyph glyph-name="uni1E45" unicode="&#x1e45;" horiz-adv-x="1290" 
d="M121 0v1062h310v-163q61 86 156 134.5t208 48.5q196 0 289.5 -115t93.5 -302v-665h-309v576q0 66 -17 120.5t-61.5 87.5t-126.5 33q-108 0 -170.5 -72.5t-62.5 -188.5v-556h-310zM664 1234q-72 0 -125.5 38t-53.5 108t53.5 107.5t125.5 37.5t125.5 -37.5t53.5 -107.5
t-53.5 -108t-125.5 -38z" />
    <glyph glyph-name="uni1E47" unicode="&#x1e47;" horiz-adv-x="1290" 
d="M121 0v1062h310v-163q61 86 156 134.5t208 48.5q196 0 289.5 -115t93.5 -302v-665h-309v576q0 66 -17 120.5t-61.5 87.5t-126.5 33q-108 0 -170.5 -72.5t-62.5 -188.5v-556h-310zM641 -411q-72 0 -125.5 38.5t-53.5 107.5q0 70 53.5 107.5t125.5 37.5t126 -37.5
t54 -107.5t-54 -108t-126 -38z" />
    <glyph glyph-name="eng" unicode="&#x14b;" horiz-adv-x="1282" 
d="M121 0v1062h310v-163q61 86 156 134.5t208 48.5q196 0 285.5 -115t89.5 -302v-703q0 -224 -128 -321t-419 -97v222q107 0 172.5 49.5t65.5 139.5v621q0 66 -15 120.5t-57.5 87.5t-124.5 33q-108 0 -170.5 -72.5t-62.5 -188.5v-556h-310z" />
    <glyph glyph-name="uni0272" unicode="&#x272;" horiz-adv-x="1222" 
d="M-135 -463v222q92 0 144.5 57.5t52.5 148.5v1097h310v-162q61 85 156 133.5t208 48.5q196 0 285.5 -115t89.5 -302v-665h-310v576q0 66 -14.5 120.5t-57 87.5t-124.5 33q-104 0 -166 -67.5t-67 -176.5v-608q0 -79 -15 -155t-64.5 -137.5t-151.5 -98.5t-276 -37z" />
    <glyph glyph-name="uni01CC" unicode="&#x1cc;" horiz-adv-x="1830" 
d="M121 0v1062h310v-163q61 86 156 134.5t208 48.5q196 0 289.5 -115t93.5 -302v-665h-309v576q0 66 -17 120.5t-61.5 87.5t-126.5 33q-108 0 -170.5 -72.5t-62.5 -188.5v-556h-310zM1567 1235q-72 0 -125.5 38t-53.5 107q0 70 53.5 108t125.5 38t125.5 -38t53.5 -108
q0 -69 -53.5 -107t-125.5 -38zM1257 -457q-29 0 -56.5 1.5t-45.5 3.5v229q18 -3 45.5 -5.5t56.5 -2.5q66 0 98.5 23t43 57t10.5 66v1147h309v-1154q0 -66 -16 -130.5t-63.5 -117.5t-139 -85t-242.5 -32z" />
    <glyph glyph-name="uni1E49" unicode="&#x1e49;" horiz-adv-x="1290" 
d="M121 0v1062h310v-163q61 86 156 134.5t208 48.5q196 0 289.5 -115t93.5 -302v-665h-309v576q0 66 -17 120.5t-61.5 87.5t-126.5 33q-108 0 -170.5 -72.5t-62.5 -188.5v-556h-310zM353 -303v129h571v-129h-571z" />
    <glyph glyph-name="ntilde" unicode="&#xf1;" horiz-adv-x="1290" 
d="M121 0v1062h310v-163q61 86 156 134.5t208 48.5q196 0 289.5 -115t93.5 -302v-665h-309v576q0 66 -17 120.5t-61.5 87.5t-126.5 33q-108 0 -170.5 -72.5t-62.5 -188.5v-556h-310zM995 1456q0 -51 -21.5 -103.5t-65 -88t-112.5 -35.5q-53 0 -89 21t-59 41
q-21 20 -42.5 34.5t-49.5 14.5q-34 0 -50 -25t-17 -65h-157q0 53 23 105.5t68.5 88t115.5 35.5q50 0 85.5 -20.5t58.5 -40.5q22 -20 45.5 -34.5t48.5 -14.5q31 0 45.5 23.5t15.5 63.5h157z" />
    <glyph glyph-name="o" unicode="o" horiz-adv-x="1306" 
d="M653 -23q-172 0 -303 71t-204.5 195.5t-73.5 287.5q0 162 73.5 286.5t204.5 194t303 69.5t303 -69.5t204.5 -194t73.5 -286.5q0 -163 -73.5 -287.5t-204.5 -195.5t-303 -71zM653 223q121 0 194 84t73 224t-73 222t-194 82t-194 -82t-73 -222t73 -224t194 -84z" />
    <glyph glyph-name="oacute" unicode="&#xf3;" horiz-adv-x="1306" 
d="M653 -23q-172 0 -303 71t-204.5 195.5t-73.5 287.5q0 162 73.5 286.5t204.5 194t303 69.5t303 -69.5t204.5 -194t73.5 -286.5q0 -163 -73.5 -287.5t-204.5 -195.5t-303 -71zM653 223q121 0 194 84t73 224t-73 222t-194 82t-194 -82t-73 -222t73 -224t194 -84zM488 1203
l238 272h237l-271 -272h-204z" />
    <glyph glyph-name="obreve" unicode="&#x14f;" horiz-adv-x="1306" 
d="M653 -23q-172 0 -303 71t-204.5 195.5t-73.5 287.5q0 162 73.5 286.5t204.5 194t303 69.5t303 -69.5t204.5 -194t73.5 -286.5q0 -163 -73.5 -287.5t-204.5 -195.5t-303 -71zM653 223q121 0 194 84t73 224t-73 222t-194 82t-194 -82t-73 -222t73 -224t194 -84zM363 1495
h181q0 -60 29 -100t80 -40q52 0 80.5 40t28.5 100h181q0 -123 -82.5 -191t-207.5 -68t-207.5 68t-82.5 191z" />
    <glyph glyph-name="uni01D2" unicode="&#x1d2;" horiz-adv-x="1306" 
d="M653 -23q-172 0 -303 71t-204.5 195.5t-73.5 287.5q0 162 73.5 286.5t204.5 194t303 69.5t303 -69.5t204.5 -194t73.5 -286.5q0 -163 -73.5 -287.5t-204.5 -195.5t-303 -71zM653 223q121 0 194 84t73 224t-73 222t-194 82t-194 -82t-73 -222t73 -224t194 -84zM314 1475
h196l143 -167l143 167h197l-239 -272h-200z" />
    <glyph glyph-name="ocircumflex" unicode="&#xf4;" horiz-adv-x="1306" 
d="M653 -23q-172 0 -303 71t-204.5 195.5t-73.5 287.5q0 162 73.5 286.5t204.5 194t303 69.5t303 -69.5t204.5 -194t73.5 -286.5q0 -163 -73.5 -287.5t-204.5 -195.5t-303 -71zM653 223q121 0 194 84t73 224t-73 222t-194 82t-194 -82t-73 -222t73 -224t194 -84zM314 1203
l240 272h200l239 -272h-197l-143 167l-143 -167h-196z" />
    <glyph glyph-name="uni1ED1" unicode="&#x1ed1;" horiz-adv-x="1306" 
d="M653 -23q-172 0 -303 71t-204.5 195.5t-73.5 287.5q0 162 73.5 286.5t204.5 194t303 69.5t303 -69.5t204.5 -194t73.5 -286.5q0 -163 -73.5 -287.5t-204.5 -195.5t-303 -71zM653 223q121 0 194 84t73 224t-73 222t-194 82t-194 -82t-73 -222t73 -224t194 -84zM820 1433
l194 271h203l-216 -271h-181zM313 1203l240 272h200l239 -272h-197l-143 167l-143 -167h-196z" />
    <glyph glyph-name="uni1ED9" unicode="&#x1ed9;" horiz-adv-x="1306" 
d="M653 -23q-172 0 -303 71t-204.5 195.5t-73.5 287.5q0 162 73.5 286.5t204.5 194t303 69.5t303 -69.5t204.5 -194t73.5 -286.5q0 -163 -73.5 -287.5t-204.5 -195.5t-303 -71zM653 223q121 0 194 84t73 224t-73 222t-194 82t-194 -82t-73 -222t73 -224t194 -84zM656 -411
q-72 0 -125.5 38.5t-53.5 107.5q0 70 53.5 107.5t125.5 37.5t126 -37.5t54 -107.5t-54 -108t-126 -38zM314 1203l240 272h200l239 -272h-197l-143 167l-143 -167h-196z" />
    <glyph glyph-name="uni1ED3" unicode="&#x1ed3;" horiz-adv-x="1306" 
d="M653 -23q-172 0 -303 71t-204.5 195.5t-73.5 287.5q0 162 73.5 286.5t204.5 194t303 69.5t303 -69.5t204.5 -194t73.5 -286.5q0 -163 -73.5 -287.5t-204.5 -195.5t-303 -71zM653 223q121 0 194 84t73 224t-73 222t-194 82t-194 -82t-73 -222t73 -224t194 -84zM1080 1433
h-180l-217 271h203zM315 1203l240 272h200l239 -272h-197l-143 167l-143 -167h-196z" />
    <glyph glyph-name="uni1ED5" unicode="&#x1ed5;" horiz-adv-x="1306" 
d="M653 -23q-172 0 -303 71t-204.5 195.5t-73.5 287.5q0 162 73.5 286.5t204.5 194t303 69.5t303 -69.5t204.5 -194t73.5 -286.5q0 -163 -73.5 -287.5t-204.5 -195.5t-303 -71zM653 223q121 0 194 84t73 224t-73 222t-194 82t-194 -82t-73 -222t73 -224t194 -84zM893 1428
l-28 72q29 1 64 6t60.5 15.5t25.5 29.5q0 30 -62.5 38t-175.5 8v86q99 0 183.5 -7.5t135.5 -33.5t51 -80q0 -70 -73 -102t-181 -32zM314 1203l240 272h200l239 -272h-197l-143 167l-143 -167h-196z" />
    <glyph glyph-name="uni1ED7" unicode="&#x1ed7;" horiz-adv-x="1306" 
d="M653 -23q-172 0 -303 71t-204.5 195.5t-73.5 287.5q0 162 73.5 286.5t204.5 194t303 69.5t303 -69.5t204.5 -194t73.5 -286.5q0 -163 -73.5 -287.5t-204.5 -195.5t-303 -71zM653 223q121 0 194 84t73 224t-73 222t-194 82t-194 -82t-73 -222t73 -224t194 -84zM790 1552
q-56 0 -91 20t-57 41q-21 20 -41.5 35t-48.5 15q-34 0 -51 -25t-18 -65h-158q1 53 23.5 105.5t68.5 88t116 35.5q49 0 85 -20.5t58 -40.5q23 -20 46 -34.5t48 -14.5q32 0 46.5 23.5t15.5 63.5h157q-1 -51 -22 -103.5t-65 -88t-112 -35.5zM314 1203l240 272h200l239 -272
h-197l-143 167l-143 -167h-196z" />
    <glyph glyph-name="uni020D" unicode="&#x20d;" horiz-adv-x="1306" 
d="M653 -23q-172 0 -303 71t-204.5 195.5t-73.5 287.5q0 162 73.5 286.5t204.5 194t303 69.5t303 -69.5t204.5 -194t73.5 -286.5q0 -163 -73.5 -287.5t-204.5 -195.5t-303 -71zM653 223q121 0 194 84t73 224t-73 222t-194 82t-194 -82t-73 -222t73 -224t194 -84zM912 1203
h-165l-177 272h191zM580 1203h-165l-200 272h192z" />
    <glyph glyph-name="odieresis" unicode="&#xf6;" horiz-adv-x="1306" 
d="M653 -23q-172 0 -303 71t-204.5 195.5t-73.5 287.5q0 162 73.5 286.5t204.5 194t303 69.5t303 -69.5t204.5 -194t73.5 -286.5q0 -163 -73.5 -287.5t-204.5 -195.5t-303 -71zM653 223q121 0 194 84t73 224t-73 222t-194 82t-194 -82t-73 -222t73 -224t194 -84zM411 1228
q-66 0 -115.5 35t-49.5 99t49.5 99t115.5 35q65 0 114.5 -35t49.5 -99t-49.5 -99t-114.5 -35zM893 1228q-66 0 -115 35t-49 99t49 99t115 35t115.5 -35t49.5 -99t-49.5 -99t-115.5 -35z" />
    <glyph glyph-name="uni022B" unicode="&#x22b;" horiz-adv-x="1306" 
d="M653 -23q-172 0 -303 71t-204.5 195.5t-73.5 287.5q0 162 73.5 286.5t204.5 194t303 69.5t303 -69.5t204.5 -194t73.5 -286.5q0 -163 -73.5 -287.5t-204.5 -195.5t-303 -71zM653 223q121 0 194 84t73 224t-73 222t-194 82t-194 -82t-73 -222t73 -224t194 -84zM411 1228
q-66 0 -115.5 35t-49.5 99t49.5 99t115.5 35q65 0 114.5 -35t49.5 -99t-49.5 -99t-114.5 -35zM893 1228q-66 0 -115 35t-49 99t49 99t115 35t115.5 -35t49.5 -99t-49.5 -99t-115.5 -35zM341 1630v129h623v-129h-623z" />
    <glyph glyph-name="uni0231" unicode="&#x231;" horiz-adv-x="1306" 
d="M653 -23q-172 0 -303 71t-204.5 195.5t-73.5 287.5q0 162 73.5 286.5t204.5 194t303 69.5t303 -69.5t204.5 -194t73.5 -286.5q0 -163 -73.5 -287.5t-204.5 -195.5t-303 -71zM653 223q121 0 194 84t73 224t-73 222t-194 82t-194 -82t-73 -222t73 -224t194 -84zM653 1234
q-72 0 -125.5 38t-53.5 108t53.5 107.5t125.5 37.5t125.5 -37.5t53.5 -107.5t-53.5 -108t-125.5 -38zM341 1654v129h623v-129h-623z" />
    <glyph glyph-name="uni1ECD" unicode="&#x1ecd;" horiz-adv-x="1306" 
d="M653 -23q-172 0 -303 71t-204.5 195.5t-73.5 287.5q0 162 73.5 286.5t204.5 194t303 69.5t303 -69.5t204.5 -194t73.5 -286.5q0 -163 -73.5 -287.5t-204.5 -195.5t-303 -71zM653 223q121 0 194 84t73 224t-73 222t-194 82t-194 -82t-73 -222t73 -224t194 -84zM656 -411
q-72 0 -125.5 38.5t-53.5 107.5q0 70 53.5 107.5t125.5 37.5t126 -37.5t54 -107.5t-54 -108t-126 -38z" />
    <glyph glyph-name="ograve" unicode="&#xf2;" horiz-adv-x="1306" 
d="M653 -23q-172 0 -303 71t-204.5 195.5t-73.5 287.5q0 162 73.5 286.5t204.5 194t303 69.5t303 -69.5t204.5 -194t73.5 -286.5q0 -163 -73.5 -287.5t-204.5 -195.5t-303 -71zM653 223q121 0 194 84t73 224t-73 222t-194 82t-194 -82t-73 -222t73 -224t194 -84zM815 1198
h-204l-272 272h238z" />
    <glyph glyph-name="uni1ECF" unicode="&#x1ecf;" horiz-adv-x="1306" 
d="M653 -23q-172 0 -303 71t-204.5 195.5t-73.5 287.5q0 162 73.5 286.5t204.5 194t303 69.5t303 -69.5t204.5 -194t73.5 -286.5q0 -163 -73.5 -287.5t-204.5 -195.5t-303 -71zM653 223q121 0 194 84t73 224t-73 222t-194 82t-194 -82t-73 -222t73 -224t194 -84zM442 1509
q112 0 206.5 -8.5t152 -37.5t57.5 -90q0 -79 -82.5 -115t-202.5 -36l-32 81q32 2 71 7.5t67.5 17.5t28.5 33q0 33 -70 42t-196 9v97z" />
    <glyph glyph-name="ohorn" unicode="&#x1a1;" horiz-adv-x="1309" 
d="M649 -23q-172 0 -303 71t-204.5 195.5t-73.5 287.5q0 162 73.5 286.5t204.5 194t303 69.5q182 0 321 -80q77 8 101 66t24 204h169q0 -166 -40 -256t-118 -126q59 -70 91.5 -161t32.5 -197q0 -163 -73.5 -287.5t-204.5 -195.5t-303 -71zM649 223q121 0 195.5 84t74.5 224
t-74.5 222t-195.5 82t-195.5 -82t-74.5 -222t74.5 -224t195.5 -84z" />
    <glyph glyph-name="uni1EDB" unicode="&#x1edb;" horiz-adv-x="1309" 
d="M649 -23q-172 0 -303 71t-204.5 195.5t-73.5 287.5q0 162 73.5 286.5t204.5 194t303 69.5q182 0 321 -80q77 8 101 66t24 204h169q0 -166 -40 -256t-118 -126q59 -70 91.5 -161t32.5 -197q0 -163 -73.5 -287.5t-204.5 -195.5t-303 -71zM649 223q121 0 195.5 84t74.5 224
t-74.5 222t-195.5 82t-195.5 -82t-74.5 -222t74.5 -224t195.5 -84zM484 1203l238 272h237l-271 -272h-204z" />
    <glyph glyph-name="uni1EE3" unicode="&#x1ee3;" horiz-adv-x="1309" 
d="M649 -23q-172 0 -303 71t-204.5 195.5t-73.5 287.5q0 162 73.5 286.5t204.5 194t303 69.5q182 0 321 -80q77 8 101 66t24 204h169q0 -166 -40 -256t-118 -126q59 -70 91.5 -161t32.5 -197q0 -163 -73.5 -287.5t-204.5 -195.5t-303 -71zM649 223q121 0 195.5 84t74.5 224
t-74.5 222t-195.5 82t-195.5 -82t-74.5 -222t74.5 -224t195.5 -84zM652 -411q-72 0 -125.5 38.5t-53.5 107.5q0 70 53.5 107.5t125.5 37.5t126 -37.5t54 -107.5t-54 -108t-126 -38z" />
    <glyph glyph-name="uni1EDD" unicode="&#x1edd;" horiz-adv-x="1309" 
d="M649 -23q-172 0 -303 71t-204.5 195.5t-73.5 287.5q0 162 73.5 286.5t204.5 194t303 69.5q182 0 321 -80q77 8 101 66t24 204h169q0 -166 -40 -256t-118 -126q59 -70 91.5 -161t32.5 -197q0 -163 -73.5 -287.5t-204.5 -195.5t-303 -71zM649 223q121 0 195.5 84t74.5 224
t-74.5 222t-195.5 82t-195.5 -82t-74.5 -222t74.5 -224t195.5 -84zM811 1198h-204l-272 272h238z" />
    <glyph glyph-name="uni1EDF" unicode="&#x1edf;" horiz-adv-x="1309" 
d="M649 -23q-172 0 -303 71t-204.5 195.5t-73.5 287.5q0 162 73.5 286.5t204.5 194t303 69.5q182 0 321 -80q77 8 101 66t24 204h169q0 -166 -40 -256t-118 -126q59 -70 91.5 -161t32.5 -197q0 -163 -73.5 -287.5t-204.5 -195.5t-303 -71zM649 223q121 0 195.5 84t74.5 224
t-74.5 222t-195.5 82t-195.5 -82t-74.5 -222t74.5 -224t195.5 -84zM438 1509q112 0 206.5 -8.5t152 -37.5t57.5 -90q0 -79 -82.5 -115t-202.5 -36l-32 81q32 2 71 7.5t67.5 17.5t28.5 33q0 33 -70 42t-196 9v97z" />
    <glyph glyph-name="uni1EE1" unicode="&#x1ee1;" horiz-adv-x="1309" 
d="M649 -23q-172 0 -303 71t-204.5 195.5t-73.5 287.5q0 162 73.5 286.5t204.5 194t303 69.5q182 0 321 -80q77 8 101 66t24 204h169q0 -166 -40 -256t-118 -126q59 -70 91.5 -161t32.5 -197q0 -163 -73.5 -287.5t-204.5 -195.5t-303 -71zM649 223q121 0 195.5 84t74.5 224
t-74.5 222t-195.5 82t-195.5 -82t-74.5 -222t74.5 -224t195.5 -84zM980 1456q0 -51 -21.5 -103.5t-65 -88t-112.5 -35.5q-53 0 -89 21t-59 41q-21 20 -42.5 34.5t-49.5 14.5q-34 0 -50 -25t-17 -65h-157q0 53 23 105.5t68.5 88t115.5 35.5q50 0 85.5 -20.5t58.5 -40.5
q22 -20 45.5 -34.5t48.5 -14.5q31 0 45.5 23.5t15.5 63.5h157z" />
    <glyph glyph-name="ohungarumlaut" unicode="&#x151;" horiz-adv-x="1306" 
d="M653 -23q-172 0 -303 71t-204.5 195.5t-73.5 287.5q0 162 73.5 286.5t204.5 194t303 69.5t303 -69.5t204.5 -194t73.5 -286.5q0 -163 -73.5 -287.5t-204.5 -195.5t-303 -71zM653 223q121 0 194 84t73 224t-73 222t-194 82t-194 -82t-73 -222t73 -224t194 -84zM397 1203
l151 272h191l-184 -272h-158zM737 1203l166 272h191l-199 -272h-158z" />
    <glyph glyph-name="uni020F" unicode="&#x20f;" horiz-adv-x="1306" 
d="M653 -23q-172 0 -303 71t-204.5 195.5t-73.5 287.5q0 162 73.5 286.5t204.5 194t303 69.5t303 -69.5t204.5 -194t73.5 -286.5q0 -163 -73.5 -287.5t-204.5 -195.5t-303 -71zM653 223q121 0 194 84t73 224t-73 222t-194 82t-194 -82t-73 -222t73 -224t194 -84zM363 1241
q0 124 82.5 185.5t208.5 61.5q125 0 207 -61.5t82 -185.5h-181q0 61 -28.5 94.5t-79.5 33.5q-52 0 -80.5 -33.5t-28.5 -94.5h-182z" />
    <glyph glyph-name="omacron" unicode="&#x14d;" horiz-adv-x="1306" 
d="M653 -23q-172 0 -303 71t-204.5 195.5t-73.5 287.5q0 162 73.5 286.5t204.5 194t303 69.5t303 -69.5t204.5 -194t73.5 -286.5q0 -163 -73.5 -287.5t-204.5 -195.5t-303 -71zM653 223q121 0 194 84t73 224t-73 222t-194 82t-194 -82t-73 -222t73 -224t194 -84zM341 1287
v128h623v-128h-623z" />
    <glyph glyph-name="uni1E53" unicode="&#x1e53;" horiz-adv-x="1306" 
d="M653 -23q-172 0 -303 71t-204.5 195.5t-73.5 287.5q0 162 73.5 286.5t204.5 194t303 69.5t303 -69.5t204.5 -194t73.5 -286.5q0 -163 -73.5 -287.5t-204.5 -195.5t-303 -71zM653 223q121 0 194 84t73 224t-73 222t-194 82t-194 -82t-73 -222t73 -224t194 -84zM341 1287
v128h623v-128h-623zM488 1556l238 272h237l-271 -272h-204z" />
    <glyph glyph-name="uni1E51" unicode="&#x1e51;" horiz-adv-x="1306" 
d="M653 -23q-172 0 -303 71t-204.5 195.5t-73.5 287.5q0 162 73.5 286.5t204.5 194t303 69.5t303 -69.5t204.5 -194t73.5 -286.5q0 -163 -73.5 -287.5t-204.5 -195.5t-303 -71zM653 223q121 0 194 84t73 224t-73 222t-194 82t-194 -82t-73 -222t73 -224t194 -84zM341 1287
v128h623v-128h-623zM815 1551h-204l-272 272h238z" />
    <glyph glyph-name="uni01EB" unicode="&#x1eb;" horiz-adv-x="1298" 
d="M653 -23q-172 0 -303 71t-204.5 195.5t-73.5 287.5q0 162 73.5 286.5t204.5 194t303 69.5t303 -69.5t204.5 -194t73.5 -286.5q0 -184 -93.5 -319t-253.5 -195q-30 -26 -69 -68t-68.5 -86.5t-29.5 -76.5q0 -38 28.5 -52t68.5 -14q19 0 39 2t37 5v-149q-20 -2 -44.5 -3.5
t-49.5 -1.5q-100 0 -173 39.5t-73 130.5q0 63 43 126.5t91 108.5q-17 -1 -34 -1zM653 223q121 0 194 84t73 224t-73 222t-194 82t-194 -82t-73 -222t73 -224t194 -84z" />
    <glyph glyph-name="oslash" unicode="&#xf8;" horiz-adv-x="1306" 
d="M653 -23q-152 0 -276 58l-68 -94l-114 83l62 87q-87 74 -136 181.5t-49 238.5q0 162 73.5 286.5t204.5 194t303 69.5q147 0 267 -53l67 93l115 -84l-60 -83q91 -73 141.5 -181.5t50.5 -241.5q0 -163 -73.5 -287.5t-204.5 -195.5t-303 -71zM386 531q0 -106 43 -182
l336 464q-51 22 -112 22q-121 0 -194 -82t-73 -222zM653 223q121 0 194 84t73 224q0 111 -48 188l-340 -469q54 -27 121 -27z" />
    <glyph glyph-name="oslashacute" unicode="&#x1ff;" horiz-adv-x="1306" 
d="M653 -23q-152 0 -276 58l-68 -94l-114 83l62 87q-87 74 -136 181.5t-49 238.5q0 162 73.5 286.5t204.5 194t303 69.5q147 0 267 -53l67 93l115 -84l-60 -83q91 -73 141.5 -181.5t50.5 -241.5q0 -163 -73.5 -287.5t-204.5 -195.5t-303 -71zM386 531q0 -106 43 -182
l336 464q-51 22 -112 22q-121 0 -194 -82t-73 -222zM653 223q121 0 194 84t73 224q0 111 -48 188l-340 -469q54 -27 121 -27zM483 1203l238 272h237l-271 -272h-204z" />
    <glyph glyph-name="otilde" unicode="&#xf5;" horiz-adv-x="1306" 
d="M653 -23q-172 0 -303 71t-204.5 195.5t-73.5 287.5q0 162 73.5 286.5t204.5 194t303 69.5t303 -69.5t204.5 -194t73.5 -286.5q0 -163 -73.5 -287.5t-204.5 -195.5t-303 -71zM653 223q121 0 194 84t73 224t-73 222t-194 82t-194 -82t-73 -222t73 -224t194 -84zM984 1456
q0 -51 -21.5 -103.5t-65 -88t-112.5 -35.5q-53 0 -89 21t-59 41q-21 20 -42.5 34.5t-49.5 14.5q-34 0 -50 -25t-17 -65h-157q0 53 23 105.5t68.5 88t115.5 35.5q50 0 85.5 -20.5t58.5 -40.5q22 -20 45.5 -34.5t48.5 -14.5q31 0 45.5 23.5t15.5 63.5h157z" />
    <glyph glyph-name="uni1E4D" unicode="&#x1e4d;" horiz-adv-x="1306" 
d="M653 -23q-172 0 -303 71t-204.5 195.5t-73.5 287.5q0 162 73.5 286.5t204.5 194t303 69.5t303 -69.5t204.5 -194t73.5 -286.5q0 -163 -73.5 -287.5t-204.5 -195.5t-303 -71zM653 223q121 0 194 84t73 224t-73 222t-194 82t-194 -82t-73 -222t73 -224t194 -84zM984 1456
q0 -51 -21.5 -103.5t-65 -88t-112.5 -35.5q-53 0 -89 21t-59 41q-21 20 -42.5 34.5t-49.5 14.5q-34 0 -50 -25t-17 -65h-157q0 53 23 105.5t68.5 88t115.5 35.5q50 0 85.5 -20.5t58.5 -40.5q22 -20 45.5 -34.5t48.5 -14.5q31 0 45.5 23.5t15.5 63.5h157zM486 1567l273 207
h248l-305 -207h-216z" />
    <glyph glyph-name="uni1E4F" unicode="&#x1e4f;" horiz-adv-x="1306" 
d="M653 -23q-172 0 -303 71t-204.5 195.5t-73.5 287.5q0 162 73.5 286.5t204.5 194t303 69.5t303 -69.5t204.5 -194t73.5 -286.5q0 -163 -73.5 -287.5t-204.5 -195.5t-303 -71zM653 223q121 0 194 84t73 224t-73 222t-194 82t-194 -82t-73 -222t73 -224t194 -84zM984 1456
q0 -51 -21.5 -103.5t-65 -88t-112.5 -35.5q-53 0 -89 21t-59 41q-21 20 -42.5 34.5t-49.5 14.5q-34 0 -50 -25t-17 -65h-157q0 53 23 105.5t68.5 88t115.5 35.5q50 0 85.5 -20.5t58.5 -40.5q22 -20 45.5 -34.5t48.5 -14.5q31 0 45.5 23.5t15.5 63.5h157zM413 1551
q-66 0 -115.5 35t-49.5 99t49.5 99t115.5 35q65 0 114.5 -35t49.5 -99t-49.5 -99t-114.5 -35zM895 1551q-66 0 -115 35t-49 99t49 99t115 35t115.5 -35t49.5 -99t-49.5 -99t-115.5 -35z" />
    <glyph glyph-name="uni022D" unicode="&#x22d;" horiz-adv-x="1306" 
d="M653 -23q-172 0 -303 71t-204.5 195.5t-73.5 287.5q0 162 73.5 286.5t204.5 194t303 69.5t303 -69.5t204.5 -194t73.5 -286.5q0 -163 -73.5 -287.5t-204.5 -195.5t-303 -71zM653 223q121 0 194 84t73 224t-73 222t-194 82t-194 -82t-73 -222t73 -224t194 -84zM984 1456
q0 -51 -21.5 -103.5t-65 -88t-112.5 -35.5q-53 0 -89 21t-59 41q-21 20 -42.5 34.5t-49.5 14.5q-34 0 -50 -25t-17 -65h-157q0 53 23 105.5t68.5 88t115.5 35.5q50 0 85.5 -20.5t58.5 -40.5q22 -20 45.5 -34.5t48.5 -14.5q31 0 45.5 23.5t15.5 63.5h157zM341 1618v129h623
v-129h-623z" />
    <glyph glyph-name="oe" unicode="&#x153;" horiz-adv-x="2154" 
d="M653 -23q-172 0 -303 71t-204.5 195.5t-73.5 287.5q0 162 73.5 286.5t204.5 194t303 69.5q132 0 241 -43t185 -119q76 77 185.5 120t242.5 43q177 0 306 -70.5t199 -197t70 -294.5q0 -52 -4 -82h-847q19 -108 88 -167.5t196 -59.5q129 0 184.5 40.5t61.5 83.5h306
q-8 -90 -75.5 -172.5t-190 -134.5t-295.5 -52q-134 0 -243.5 43t-185.5 121q-76 -76 -184.5 -119.5t-239.5 -43.5zM1238 643h528q0 3 -2 10q-9 76 -71 136.5t-182 60.5q-116 0 -184 -57t-89 -150zM653 223q121 0 195.5 84t74.5 224t-74.5 222t-195.5 82t-195.5 -82
t-74.5 -222t74.5 -224t195.5 -84z" />
    <glyph glyph-name="p" unicode="p" horiz-adv-x="1324" 
d="M121 -437v1499h311v-122q63 66 147.5 104t180.5 38q128 0 240.5 -63.5t182 -185.5t69.5 -297q0 -183 -68 -307.5t-180 -188.5t-244 -64q-96 0 -180.5 40t-147.5 109v-562h-311zM432 490q0 -74 36 -129.5t92.5 -85.5t119.5 -30q102 0 177.5 70.5t75.5 220.5t-75 218.5
t-178 68.5q-62 0 -119 -29.5t-93 -83.5t-36 -129v0v-79v0v-12z" />
    <glyph glyph-name="thorn" unicode="&#xfe;" horiz-adv-x="1324" 
d="M121 -437v2000h311v-623q63 66 147.5 103.5t179.5 37.5q129 0 241.5 -63t182 -185t69.5 -297q0 -183 -68 -307.5t-180 -188t-245 -63.5q-95 0 -179.5 39.5t-147.5 108.5v-562h-311zM680 823q-62 0 -119 -29.5t-93 -83.5t-36 -129v-91q0 -74 35.5 -129.5t92.5 -85.5
t120 -30q102 0 177 70.5t75 220.5t-74.5 218.5t-177.5 68.5z" />
    <glyph glyph-name="q" unicode="q" horiz-adv-x="1319" 
d="M565 -24q-133 0 -245 63.5t-180 188.5t-68 308q0 175 69.5 297t182 185.5t241.5 63.5q95 0 179.5 -37.5t147.5 -104.5v122h311v-1499h-311v561q-62 -68 -146.5 -108t-180.5 -40zM644 245q64 0 120.5 30.5t92 86.5t35.5 132v87q0 75 -36 129t-93 83.5t-119 29.5
q-102 0 -177.5 -68.5t-75.5 -218.5t75.5 -220.5t177.5 -70.5z" />
    <glyph glyph-name="r" unicode="r" horiz-adv-x="920" 
d="M121 0v1062h311v-144q46 75 122.5 119.5t183.5 44.5q64 0 100.5 -9.5t45.5 -14.5l-51 -278q-9 5 -40 16t-80 11q-107 0 -168.5 -46t-87 -116.5t-25.5 -143.5v-501h-311z" />
    <glyph glyph-name="racute" unicode="&#x155;" horiz-adv-x="920" 
d="M121 0v1062h311v-144q46 75 122.5 119.5t183.5 44.5q64 0 100.5 -9.5t45.5 -14.5l-51 -278q-9 5 -40 16t-80 11q-107 0 -168.5 -46t-87 -116.5t-25.5 -143.5v-501h-311zM374 1203l238 272h237l-271 -272h-204z" />
    <glyph glyph-name="rcaron" unicode="&#x159;" horiz-adv-x="920" 
d="M121 0v1062h311v-144q46 75 122.5 119.5t183.5 44.5q64 0 100.5 -9.5t45.5 -14.5l-51 -278q-9 5 -40 16t-80 11q-107 0 -168.5 -46t-87 -116.5t-25.5 -143.5v-501h-311zM200 1475h196l143 -167l143 167h197l-239 -272h-200z" />
    <glyph glyph-name="uni0157" unicode="&#x157;" horiz-adv-x="920" 
d="M121 0v1062h311v-144q46 75 122.5 119.5t183.5 44.5q64 0 100.5 -9.5t45.5 -14.5l-51 -278q-9 5 -40 16t-80 11q-107 0 -168.5 -46t-87 -116.5t-25.5 -143.5v-501h-311zM252 -268q-46 0 -73.5 25t-27.5 67q0 51 39 74t85 23q41 0 83 -27t42 -95q0 -75 -33 -126.5
t-78.5 -82.5t-84.5 -45l-18 48q45 17 92.5 58t47.5 110q-7 -14 -29 -21.5t-45 -7.5z" />
    <glyph glyph-name="uni0211" unicode="&#x211;" horiz-adv-x="920" 
d="M121 0v1062h311v-144q46 75 122.5 119.5t183.5 44.5q64 0 100.5 -9.5t45.5 -14.5l-51 -278q-9 5 -40 16t-80 11q-107 0 -168.5 -46t-87 -116.5t-25.5 -143.5v-501h-311zM799 1203h-165l-177 272h191zM467 1203h-165l-200 272h192z" />
    <glyph glyph-name="uni1E5B" unicode="&#x1e5b;" horiz-adv-x="920" 
d="M121 0v1062h311v-144q46 75 122.5 119.5t183.5 44.5q64 0 100.5 -9.5t45.5 -14.5l-51 -278q-9 5 -40 16t-80 11q-107 0 -168.5 -46t-87 -116.5t-25.5 -143.5v-501h-311zM278 -411q-72 0 -125.5 38.5t-53.5 107.5q0 70 53.5 107.5t125.5 37.5t126 -37.5t54 -107.5
t-54 -108t-126 -38z" />
    <glyph glyph-name="uni0213" unicode="&#x213;" horiz-adv-x="920" 
d="M121 0v1062h311v-144q46 75 122.5 119.5t183.5 44.5q64 0 100.5 -9.5t45.5 -14.5l-51 -278q-9 5 -40 16t-80 11q-107 0 -168.5 -46t-87 -116.5t-25.5 -143.5v-501h-311zM249 1241q0 124 82.5 185.5t208.5 61.5q125 0 207 -61.5t82 -185.5h-181q0 61 -28.5 94.5
t-79.5 33.5q-52 0 -80.5 -33.5t-28.5 -94.5h-182z" />
    <glyph glyph-name="uni1E5F" unicode="&#x1e5f;" horiz-adv-x="920" 
d="M121 0v1062h311v-144q46 75 122.5 119.5t183.5 44.5q64 0 100.5 -9.5t45.5 -14.5l-51 -278q-9 5 -40 16t-80 11q-107 0 -168.5 -46t-87 -116.5t-25.5 -143.5v-501h-311zM-11 -303v129h571v-129h-571z" />
    <glyph glyph-name="s" unicode="s" horiz-adv-x="1129" 
d="M563 -24q-126 0 -238.5 38.5t-182.5 115t-70 191.5v18h308v-14q0 -58 51 -85t140 -27q68 0 127 22t59 73q0 53 -58.5 75t-187.5 44q-74 12 -148.5 34t-137.5 58.5t-101 93t-38 137.5q0 108 65.5 182t174.5 112t240 38q124 0 232.5 -41.5t175.5 -119t67 -186.5v-14h-305
v12q0 60 -54.5 87.5t-116.5 27.5q-38 0 -78.5 -8.5t-68.5 -28t-28 -54.5q0 -51 66.5 -75t172.5 -41q67 -11 141.5 -30.5t139.5 -55t106 -93.5t41 -145q0 -91 -42 -156t-113.5 -105.5t-159.5 -60t-179 -19.5z" />
    <glyph glyph-name="sacute" unicode="&#x15b;" horiz-adv-x="1129" 
d="M563 -24q-126 0 -238.5 38.5t-182.5 115t-70 191.5v18h308v-14q0 -58 51 -85t140 -27q68 0 127 22t59 73q0 53 -58.5 75t-187.5 44q-74 12 -148.5 34t-137.5 58.5t-101 93t-38 137.5q0 108 65.5 182t174.5 112t240 38q124 0 232.5 -41.5t175.5 -119t67 -186.5v-14h-305
v12q0 60 -54.5 87.5t-116.5 27.5q-38 0 -78.5 -8.5t-68.5 -28t-28 -54.5q0 -51 66.5 -75t172.5 -41q67 -11 141.5 -30.5t139.5 -55t106 -93.5t41 -145q0 -91 -42 -156t-113.5 -105.5t-159.5 -60t-179 -19.5zM400 1203l238 272h237l-271 -272h-204z" />
    <glyph glyph-name="uni1E65" unicode="&#x1e65;" horiz-adv-x="1129" 
d="M563 -24q-126 0 -238.5 38.5t-182.5 115t-70 191.5v18h308v-14q0 -58 51 -85t140 -27q68 0 127 22t59 73q0 53 -58.5 75t-187.5 44q-74 12 -148.5 34t-137.5 58.5t-101 93t-38 137.5q0 108 65.5 182t174.5 112t240 38q124 0 232.5 -41.5t175.5 -119t67 -186.5v-14h-305
v12q0 60 -54.5 87.5t-116.5 27.5q-38 0 -78.5 -8.5t-68.5 -28t-28 -54.5q0 -51 66.5 -75t172.5 -41q67 -11 141.5 -30.5t139.5 -55t106 -93.5t41 -145q0 -91 -42 -156t-113.5 -105.5t-159.5 -60t-179 -19.5zM400 1203l238 272h237l-271 -272h-204zM582 1602q-72 0 -125.5 38
t-53.5 108t53.5 107.5t125.5 37.5t125.5 -37.5t53.5 -107.5t-53.5 -108t-125.5 -38z" />
    <glyph glyph-name="scaron" unicode="&#x161;" horiz-adv-x="1129" 
d="M563 -24q-126 0 -238.5 38.5t-182.5 115t-70 191.5v18h308v-14q0 -58 51 -85t140 -27q68 0 127 22t59 73q0 53 -58.5 75t-187.5 44q-74 12 -148.5 34t-137.5 58.5t-101 93t-38 137.5q0 108 65.5 182t174.5 112t240 38q124 0 232.5 -41.5t175.5 -119t67 -186.5v-14h-305
v12q0 60 -54.5 87.5t-116.5 27.5q-38 0 -78.5 -8.5t-68.5 -28t-28 -54.5q0 -51 66.5 -75t172.5 -41q67 -11 141.5 -30.5t139.5 -55t106 -93.5t41 -145q0 -91 -42 -156t-113.5 -105.5t-159.5 -60t-179 -19.5zM225 1475h196l143 -167l143 167h197l-239 -272h-200z" />
    <glyph glyph-name="uni1E67" unicode="&#x1e67;" horiz-adv-x="1129" 
d="M563 -24q-126 0 -238.5 38.5t-182.5 115t-70 191.5v18h308v-14q0 -58 51 -85t140 -27q68 0 127 22t59 73q0 53 -58.5 75t-187.5 44q-74 12 -148.5 34t-137.5 58.5t-101 93t-38 137.5q0 108 65.5 182t174.5 112t240 38q124 0 232.5 -41.5t175.5 -119t67 -186.5v-14h-305
v12q0 60 -54.5 87.5t-116.5 27.5q-38 0 -78.5 -8.5t-68.5 -28t-28 -54.5q0 -51 66.5 -75t172.5 -41q67 -11 141.5 -30.5t139.5 -55t106 -93.5t41 -145q0 -91 -42 -156t-113.5 -105.5t-159.5 -60t-179 -19.5zM225 1475h196l143 -167l143 167h197l-239 -272h-200zM568 1563
q-72 0 -125.5 38t-53.5 107q0 70 53.5 107.5t125.5 37.5t125.5 -37.5t53.5 -107.5t-53.5 -107.5t-125.5 -37.5z" />
    <glyph glyph-name="scedilla" unicode="&#x15f;" horiz-adv-x="1121" 
d="M676 -89q53 0 103.5 -34.5t50.5 -115.5q0 -67 -40.5 -109.5t-104 -63t-133.5 -20.5q-62 0 -125.5 16t-89.5 34l60 113q19 -12 66.5 -29.5t99.5 -17.5q56 0 93.5 21t37.5 62q0 32 -19 47t-47 15q-24 0 -48.5 -9t-36.5 -25l-118 32l70 152q-113 10 -209.5 51t-155 114
t-58.5 177v18h308v-14q0 -58 51 -85t140 -27q68 0 127 22t59 73q0 53 -58.5 75t-187.5 44q-74 12 -148.5 34t-137.5 58.5t-101 93t-38 137.5q0 108 65.5 182t174.5 112t240 38q124 0 232.5 -41.5t175.5 -119t67 -186.5v-14h-305v12q0 60 -54.5 87.5t-116.5 27.5
q-38 0 -78.5 -8.5t-68.5 -28t-28 -54.5q0 -51 66.5 -75t172.5 -41q67 -11 141.5 -30.5t139.5 -55t106 -93.5t41 -145q0 -111 -60.5 -182.5t-158.5 -109.5t-208 -46l-41 -88q36 20 87 20z" />
    <glyph glyph-name="scircumflex" unicode="&#x15d;" horiz-adv-x="1129" 
d="M563 -24q-126 0 -238.5 38.5t-182.5 115t-70 191.5v18h308v-14q0 -58 51 -85t140 -27q68 0 127 22t59 73q0 53 -58.5 75t-187.5 44q-74 12 -148.5 34t-137.5 58.5t-101 93t-38 137.5q0 108 65.5 182t174.5 112t240 38q124 0 232.5 -41.5t175.5 -119t67 -186.5v-14h-305
v12q0 60 -54.5 87.5t-116.5 27.5q-38 0 -78.5 -8.5t-68.5 -28t-28 -54.5q0 -51 66.5 -75t172.5 -41q67 -11 141.5 -30.5t139.5 -55t106 -93.5t41 -145q0 -91 -42 -156t-113.5 -105.5t-159.5 -60t-179 -19.5zM225 1203l240 272h200l239 -272h-197l-143 167l-143 -167h-196z
" />
    <glyph glyph-name="uni0219" unicode="&#x219;" horiz-adv-x="1129" 
d="M563 -24q-126 0 -238.5 38.5t-182.5 115t-70 191.5v18h308v-14q0 -58 51 -85t140 -27q68 0 127 22t59 73q0 53 -58.5 75t-187.5 44q-74 12 -148.5 34t-137.5 58.5t-101 93t-38 137.5q0 108 65.5 182t174.5 112t240 38q124 0 232.5 -41.5t175.5 -119t67 -186.5v-14h-305
v12q0 60 -54.5 87.5t-116.5 27.5q-38 0 -78.5 -8.5t-68.5 -28t-28 -54.5q0 -51 66.5 -75t172.5 -41q67 -11 141.5 -30.5t139.5 -55t106 -93.5t41 -145q0 -91 -42 -156t-113.5 -105.5t-159.5 -60t-179 -19.5zM542 -268q-46 0 -73.5 25t-27.5 67q0 51 39 74t85 23q41 0 83 -27
t42 -95q0 -75 -33 -126.5t-78.5 -82.5t-84.5 -45l-18 48q45 17 92.5 58t47.5 110q-7 -14 -29 -21.5t-45 -7.5z" />
    </font>
</defs>
</svg>
