<?xml version="1.0" standalone="no"?>
<!DOCTYPE svg PUBLIC "-//W3C//DTD SVG 1.1//EN" "http://www.w3.org/Graphics/SVG/1.1/DTD/svg11.dtd" >
<svg xmlns="http://www.w3.org/2000/svg" xmlns:xlink="http://www.w3.org/1999/xlink" version="1.1">
<metadata>
Created by FontForge 20190801 at Wed Jun 28 13:00:52 2023
 By root
Copyright (c) 2023 Fontwerk GmbH. All rights reserved.
</metadata>
<defs>
<font id="IberPangeaText-Medium" horiz-adv-x="0" >
  <font-face 
    font-family="IberPangea Text Medium"
    font-weight="500"
    font-stretch="normal"
    units-per-em="1000"
    panose-1="2 11 6 4 0 0 0 0 0 0"
    ascent="770"
    descent="-230"
    x-height="511"
    cap-height="700"
    bbox="-604 -303 3620 1122"
    underline-thickness="82"
    underline-position="-100"
    unicode-range="U+000D-1F4A7"
  />
<missing-glyph horiz-adv-x="841" 
d="M138 -111v922h565v-922h-565zM599 709h-357v-718h357v718z" />
    <glyph glyph-name=".notdef" horiz-adv-x="841" 
d="M138 -111v922h565v-922h-565zM599 709h-357v-718h357v718z" />
    <glyph glyph-name="NULL" 
 />
    <glyph glyph-name="nonmarkingreturn" unicode="&#xd;" horiz-adv-x="238" 
 />
    <glyph glyph-name="space" unicode=" " horiz-adv-x="238" 
 />
    <glyph glyph-name="A" unicode="A" horiz-adv-x="708" 
d="M689 0h-125l-73 192h-276l-73 -192h-121l277 700h113zM252 290h202l-73 193q-26 71 -26 89h-4q0 -18 -26 -89z" />
    <glyph glyph-name="Aacute" unicode="&#xc1;" horiz-adv-x="708" 
d="M689 0l-278 700h-113l-277 -700h121l73 192h276l73 -192h125zM252 290l73 193q26 71 26 89h4q0 -18 26 -89l73 -193h-202zM508 926h-125l-110 -137h108z" />
    <glyph glyph-name="Abreve" unicode="&#x102;" horiz-adv-x="708" 
d="M689 0l-278 700h-113l-277 -700h121l73 192h276l73 -192h125zM184 926q5 -66 51.5 -103.5t119.5 -37.5t119.5 37.5t51.5 103.5h-96q-7 -63 -75 -63t-75 63h-96zM252 290l73 193q26 71 26 89h4q0 -18 26 -89l73 -193h-202z" />
    <glyph glyph-name="uni1EAE" unicode="&#x1eae;" horiz-adv-x="708" 
d="M689 0l-278 700h-113l-277 -700h121l73 192h276l73 -192h125zM184 914q4 -66 51 -104t119 -38q73 0 120 37.5t51 104.5h-96q-3 -32 -22.5 -48t-52.5 -16q-32 0 -51.5 16t-22.5 48h-96zM252 290l73 193q26 71 26 89h4q0 -18 26 -89l73 -193h-202zM389 941l89 110h-125
l-70 -110h106z" />
    <glyph glyph-name="uni1EB6" unicode="&#x1eb6;" horiz-adv-x="708" 
d="M689 0l-278 700h-113l-277 -700h121l73 192h276l73 -192h125zM184 926q5 -66 51.5 -103.5t119.5 -37.5t119.5 37.5t51.5 103.5h-96q-7 -63 -75 -63t-75 63h-96zM252 290l73 193q26 71 26 89h4q0 -18 26 -89l73 -193h-202zM281 -129q0 -32 21 -51t52 -19q32 0 53 19t21 51
q0 31 -21 50.5t-53 19.5q-31 0 -52 -19.5t-21 -50.5z" />
    <glyph glyph-name="uni1EB0" unicode="&#x1eb0;" horiz-adv-x="708" 
d="M689 0l-278 700h-113l-277 -700h121l73 192h276l73 -192h125zM184 914q4 -66 51 -104t119 -38q73 0 120 37.5t51 104.5h-96q-3 -32 -22.5 -48t-52.5 -16q-32 0 -51.5 16t-22.5 48h-96zM252 290l73 193q26 71 26 89h4q0 -18 26 -89l73 -193h-202zM428 941l-70 110h-125
l89 -110h106z" />
    <glyph glyph-name="uni1EB2" unicode="&#x1eb2;" horiz-adv-x="708" 
d="M689 0l-278 700h-113l-277 -700h121l73 192h276l73 -192h125zM184 914q4 -66 51 -104t119 -38q73 0 120 37.5t51 104.5h-96q-3 -32 -22.5 -48t-52.5 -16q-32 0 -51.5 16t-22.5 48h-96zM252 290l73 193q26 71 26 89h4q0 -18 26 -89l73 -193h-202zM322 949h88q39 46 39 87
q0 36 -31 61t-79 25q-69 0 -107 -51l58 -52q8 10 19 16t22 6q13 0 20.5 -7t7.5 -18t-8.5 -26.5t-28.5 -40.5z" />
    <glyph glyph-name="uni1EB4" unicode="&#x1eb4;" horiz-adv-x="708" 
d="M689 0l-278 700h-113l-277 -700h121l73 192h276l73 -192h125zM184 914q4 -67 51 -104.5t120 -37.5q72 0 119 38t51 104h-96q-6 -64 -74 -64t-75 64h-96zM337 980q23 -12 42 -18.5t46 -6.5q43 0 75.5 32t32.5 84h-90q0 -17 -8 -27t-21 -10q-9 0 -19.5 4.5t-21.5 10.5
q-21 12 -41 19t-47 7q-43 0 -75.5 -32t-32.5 -84h90q0 16 8 26t21 10q9 0 19.5 -4.5t21.5 -10.5zM252 290l73 193q26 71 26 89h4q0 -18 26 -89l73 -193h-202z" />
    <glyph glyph-name="uni01CD" unicode="&#x1cd;" horiz-adv-x="708" 
d="M689 0l-278 700h-113l-277 -700h121l73 192h276l73 -192h125zM305 789h100l133 137h-119q-12 -14 -21 -23q-37 -41 -41 -49h-3q-6 10 -39 45q-8 9 -14 16t-10 11h-119zM252 290l73 193q26 71 26 89h4q0 -18 26 -89l73 -193h-202z" />
    <glyph glyph-name="Acircumflex" unicode="&#xc2;" horiz-adv-x="708" 
d="M689 0l-278 700h-113l-277 -700h121l73 192h276l73 -192h125zM172 789h119l17 19q36 40 45 54h3q5 -10 42 -49q7 -8 12.5 -14t8.5 -10h119l-133 138h-100zM252 290l73 193q26 71 26 89h4q0 -18 26 -89l73 -193h-202z" />
    <glyph glyph-name="uni1EA4" unicode="&#x1ea4;" horiz-adv-x="708" 
d="M689 0l-278 700h-113l-277 -700h121l73 192h276l73 -192h125zM173 774h119q4 4 10 11t14 16q34 38 39 45h3q3 -7 19.5 -25t20.5 -23l22 -24h119l-133 137h-99zM252 290l73 193q26 71 26 89h4q0 -18 26 -89l73 -193h-202zM670 998h-119l-70 -124h100z" />
    <glyph glyph-name="uni1EAC" unicode="&#x1eac;" horiz-adv-x="708" 
d="M689 0l-278 700h-113l-277 -700h121l73 192h276l73 -192h125zM172 789h119l17 19q36 40 45 54h3q5 -10 42 -49q7 -8 12.5 -14t8.5 -10h119l-133 138h-100zM252 290l73 193q26 71 26 89h4q0 -18 26 -89l73 -193h-202zM281 -129q0 -32 21 -51t52 -19q32 0 53 19t21 51
q0 31 -21 50.5t-53 19.5q-31 0 -52 -19.5t-21 -50.5z" />
    <glyph glyph-name="uni1EA6" unicode="&#x1ea6;" horiz-adv-x="708" 
d="M689 0l-278 700h-113l-277 -700h121l73 192h276l73 -192h125zM172 774h119q4 4 10 11t14 16q34 38 39 45h3q3 -7 19.5 -25t20.5 -23l22 -24h119l-133 137h-99zM252 290l73 193q26 71 26 89h4q0 -18 26 -89l73 -193h-202zM608 874l-70 124h-119l89 -124h100z" />
    <glyph glyph-name="uni1EA8" unicode="&#x1ea8;" horiz-adv-x="708" 
d="M689 0l-278 700h-113l-277 -700h121l73 192h276l73 -192h125zM171 775h119q4 4 10 11t14 16q34 38 39 45h3q3 -7 19.5 -25t20.5 -23l22 -24h119l-133 137h-99zM252 290l73 193q26 71 26 89h4q0 -18 26 -89l73 -193h-202zM468 884h88q39 44 39 86q0 36 -31 61t-79 25
q-72 0 -107 -51l57 -52q9 10 20 16t21 6q28 0 28 -25q0 -12 -8.5 -27t-27.5 -39z" />
    <glyph glyph-name="uni1EAA" unicode="&#x1eaa;" horiz-adv-x="708" 
d="M689 0l-278 700h-113l-277 -700h121l73 192h276l73 -192h125zM338 979q24 -12 43 -19t46 -7t52.5 14.5t41 41.5t15.5 62h-91q0 -17 -8 -27t-21 -10q-9 0 -19 4.5t-21 10.5q-24 12 -43 19t-46 7q-44 0 -76.5 -32.5t-32.5 -85.5h91q0 17 7.5 27t21.5 10q9 0 19 -4.5
t21 -10.5zM172 774h119q12 14 21 23q37 41 41 49h3q6 -10 39 -45q8 -9 14 -16t10 -11h119l-133 137h-100zM252 290l73 193q26 71 26 89h4q0 -18 26 -89l73 -193h-202z" />
    <glyph glyph-name="Adieresis" unicode="&#xc4;" horiz-adv-x="708" 
d="M689 0l-278 700h-113l-277 -700h121l73 192h276l73 -192h125zM252 290l73 193q26 71 26 89h4q0 -18 26 -89l73 -193h-202zM171 862q0 -31 20 -49.5t49 -18.5q30 0 49.5 18.5t19.5 49.5t-19.5 49t-49.5 18q-29 0 -49 -18t-20 -49zM399 862q0 -31 19.5 -49.5t49.5 -18.5
q29 0 48.5 18.5t19.5 49.5t-19.5 49t-48.5 18q-30 0 -49.5 -18t-19.5 -49z" />
    <glyph glyph-name="uni1EA0" unicode="&#x1ea0;" horiz-adv-x="708" 
d="M689 0l-278 700h-113l-277 -700h121l73 192h276l73 -192h125zM252 290l73 193q26 71 26 89h4q0 -18 26 -89l73 -193h-202zM281 -129q0 -32 21 -51t52 -19q32 0 53 19t21 51q0 31 -21 50.5t-53 19.5q-31 0 -52 -19.5t-21 -50.5z" />
    <glyph glyph-name="Agrave" unicode="&#xc0;" horiz-adv-x="708" 
d="M689 0l-278 700h-113l-277 -700h121l73 192h276l73 -192h125zM252 290l73 193q26 71 26 89h4q0 -18 26 -89l73 -193h-202zM436 789l-111 137h-124l126 -137h109z" />
    <glyph glyph-name="uni1EA2" unicode="&#x1ea2;" horiz-adv-x="708" 
d="M689 0l-278 700h-113l-277 -700h121l73 192h276l73 -192h125zM252 290l73 193q26 71 26 89h4q0 -18 26 -89l73 -193h-202zM332 763h88q39 44 39 86q0 36 -31 61.5t-79 25.5q-69 0 -107 -52l57 -51q9 10 20 15.5t21 5.5q28 0 28 -25q0 -12 -8.5 -27t-27.5 -39z" />
    <glyph glyph-name="Amacron" unicode="&#x100;" horiz-adv-x="708" 
d="M689 0l-278 700h-113l-277 -700h121l73 192h276l73 -192h125zM522 815v88h-334v-88h334zM252 290l73 193q26 71 26 89h4q0 -18 26 -89l73 -193h-202z" />
    <glyph glyph-name="Aogonek" unicode="&#x104;" horiz-adv-x="708" 
d="M701 -82v-94h-63q-46 0 -72 23t-26 56q0 41 39 75l25 22h-40l-73 192h-276l-73 -192h-121l277 700h113l278 -700h-6l-27 -29q-15 -17 -15 -31q0 -10 8 -16t21 -6h31zM252 290h202l-73 193q-26 71 -26 89h-4q0 -18 -26 -89z" />
    <glyph glyph-name="Aring" unicode="&#xc5;" horiz-adv-x="708" 
d="M689 0l-278 700h-113l-277 -700h121l73 192h276l73 -192h125zM221 878q0 -48 37.5 -79t96.5 -31t96 31t37 79t-37 79t-96 31t-96.5 -31t-37.5 -79zM252 290l73 193q26 71 26 89h4q0 -18 26 -89l73 -193h-202zM413 878q0 -20 -15 -32.5t-43 -12.5t-43 12.5t-15 32.5
t15 32.5t43 12.5t43 -12.5t15 -32.5z" />
    <glyph glyph-name="Atilde" unicode="&#xc3;" horiz-adv-x="708" 
d="M689 0l-278 700h-113l-277 -700h121l73 192h276l73 -192h125zM339 821q22 -15 42 -23.5t47 -8.5q29 0 55 15.5t42 45.5t16 70h-90q0 -21 -8 -33t-21 -12q-9 0 -18 4.5t-23 13.5q-22 15 -42 23.5t-47 8.5q-29 0 -55 -16t-42 -46t-16 -70h91q0 22 7.5 34t21.5 12
q9 0 17.5 -4.5t22.5 -13.5zM252 290l73 193q26 71 26 89h4q0 -18 26 -89l73 -193h-202z" />
    <glyph glyph-name="AE" unicode="&#xc6;" horiz-adv-x="1024" 
d="M480 700h489v-105h-343v-188h302v-102h-302v-200h343v-105h-460v172h-259l-117 -172h-128zM509 461q0 86 6 107l-3 1q-7 -20 -55 -92l-107 -156q-32 -46 -48 -56l2 -3q14 8 73 8h132v191z" />
    <glyph glyph-name="uni01E2" unicode="&#x1e2;" horiz-adv-x="1024" 
d="M480 700l-475 -700h128l117 172h259v-172h460v105h-343v200h302v102h-302v188h343v105h-489zM881 815v88h-334v-88h334zM509 461v-191h-132q-59 0 -73 -8l-2 3q16 10 48 56l107 156q48 72 55 92l3 -1q-6 -21 -6 -107z" />
    <glyph glyph-name="B" unicode="B" horiz-adv-x="675" 
d="M592.5 305.5q35.5 -45.5 35.5 -107.5q0 -97 -66 -147.5t-186 -50.5h-293v700h270q113 0 175.5 -47t62.5 -140q0 -49 -26 -86t-71 -56q63 -20 98.5 -65.5zM200 598v-187h145q60 0 92.5 20.5t32.5 72.5t-32.5 73t-92.5 21h-145zM372 102q65 0 100 25t35 81t-35 81t-100 25
h-172v-212h172z" />
    <glyph glyph-name="C" unicode="C" horiz-adv-x="723" 
d="M220.5 34.5q-79.5 45.5 -124 127.5t-44.5 188t44.5 188t124 127.5t180.5 45.5q97 0 173 -44t118 -125l-100 -62q-28 59 -77.5 91t-113.5 32q-66 0 -117.5 -30.5t-80.5 -88t-29 -134.5t29 -134.5t80.5 -88t117.5 -30.5q64 0 113.5 32t77.5 91l100 -62q-42 -81 -118 -125
t-173 -44q-101 0 -180.5 45.5z" />
    <glyph glyph-name="Cacute" unicode="&#x106;" horiz-adv-x="723" 
d="M52 350q0 -106 44.5 -188t124 -127.5t180.5 -45.5q97 0 173 44t118 125l-100 62q-28 -59 -77.5 -91t-113.5 -32q-66 0 -117.5 30.5t-80.5 88t-29 134.5t29 134.5t80.5 88t117.5 30.5q64 0 113.5 -32t77.5 -91l100 62q-42 81 -118 125t-173 44q-101 0 -180.5 -45.5
t-124 -127.5t-44.5 -188zM559 926h-125l-110 -137h108z" />
    <glyph glyph-name="Ccaron" unicode="&#x10c;" horiz-adv-x="723" 
d="M52 350q0 -106 44.5 -188t124 -127.5t180.5 -45.5q97 0 173 44t118 125l-100 62q-28 -59 -77.5 -91t-113.5 -32q-66 0 -117.5 30.5t-80.5 88t-29 134.5t29 134.5t80.5 88t117.5 30.5q64 0 113.5 -32t77.5 -91l100 62q-42 81 -118 125t-173 44q-101 0 -180.5 -45.5
t-124 -127.5t-44.5 -188zM355 789h100l133 137h-119q-12 -14 -21 -23q-37 -41 -41 -49h-3q-6 10 -39 45q-8 9 -14 16t-10 11h-119z" />
    <glyph glyph-name="Ccedilla" unicode="&#xc7;" horiz-adv-x="723" 
d="M514.5 129q49.5 32 77.5 91l100 -62q-37 -72 -102 -115t-148 -52l15 -13q39 -35 39 -75q0 -33 -26.5 -56t-71.5 -23h-90v94h58q13 0 21 6t8 16q0 15 -16 31l-19 20q-90 9 -160 56.5t-109 125.5t-39 177q0 106 44.5 188t124 127.5t180.5 45.5q97 0 173 -44t118 -125
l-100 -62q-28 59 -77.5 91t-113.5 32q-66 0 -117.5 -30.5t-80.5 -88t-29 -134.5t29 -134.5t80.5 -88t117.5 -30.5q64 0 113.5 32z" />
    <glyph glyph-name="Ccircumflex" unicode="&#x108;" horiz-adv-x="723" 
d="M52 350q0 -106 44.5 -188t124 -127.5t180.5 -45.5q97 0 173 44t118 125l-100 62q-28 -59 -77.5 -91t-113.5 -32q-66 0 -117.5 30.5t-80.5 88t-29 134.5t29 134.5t80.5 88t117.5 30.5q64 0 113.5 -32t77.5 -91l100 62q-42 81 -118 125t-173 44q-101 0 -180.5 -45.5
t-124 -127.5t-44.5 -188zM223 789h119l17 19q36 40 45 54h3q5 -10 42 -49q7 -8 12.5 -14t8.5 -10h119l-133 138h-100z" />
    <glyph glyph-name="Cdotaccent" unicode="&#x10a;" horiz-adv-x="723" 
d="M52 350q0 -106 44.5 -188t124 -127.5t180.5 -45.5q97 0 173 44t118 125l-100 62q-28 -59 -77.5 -91t-113.5 -32q-66 0 -117.5 30.5t-80.5 88t-29 134.5t29 134.5t80.5 88t117.5 30.5q64 0 113.5 -32t77.5 -91l100 62q-42 81 -118 125t-173 44q-101 0 -180.5 -45.5
t-124 -127.5t-44.5 -188zM332 864q0 -32 21 -50.5t53 -18.5t52.5 18.5t20.5 50.5t-21 51t-52 19q-32 0 -53 -19t-21 -51z" />
    <glyph glyph-name="D" unicode="D" horiz-adv-x="754" 
d="M534.5 657q79.5 -43 123.5 -122.5t44 -184.5t-44 -184.5t-123.5 -122.5t-183.5 -43h-268v700h268q104 0 183.5 -43zM345 105q114 0 174.5 65t60.5 180t-60.5 180t-174.5 65h-145v-490h145z" />
    <glyph glyph-name="uni01F1" unicode="&#x1f1;" horiz-adv-x="1301" 
d="M702 350q0 105 -44 184.5t-123.5 122.5t-183.5 43h-268v-700h268q104 0 183.5 43t123.5 122.5t44 184.5zM735 0h521v105h-305q-61 0 -78 -8l-1 3q19 11 52 58l329 451v91h-510v-105h294q61 0 78 8l1 -3q-19 -11 -52 -58l-329 -451v-91zM345 105h-145v490h145
q114 0 174.5 -65t60.5 -180t-60.5 -180t-174.5 -65z" />
    <glyph glyph-name="uni01C4" unicode="&#x1c4;" horiz-adv-x="1301" 
d="M702 350q0 105 -44 184.5t-123.5 122.5t-183.5 43h-268v-700h268q104 0 183.5 43t123.5 122.5t44 184.5zM735 0h521v105h-305q-61 0 -78 -8l-1 3q19 11 52 58l329 451v91h-510v-105h294q61 0 78 8l1 -3q-19 -11 -52 -58l-329 -451v-91zM345 105h-145v490h145
q114 0 174.5 -65t60.5 -180t-60.5 -180t-174.5 -65zM947 789h100l133 137h-119q-12 -14 -21 -23q-37 -41 -41 -49h-3q-6 10 -39 45q-8 9 -14 16t-10 11h-119z" />
    <glyph glyph-name="Eth" unicode="&#xd0;" horiz-adv-x="784" 
d="M564 657q80 -43 124 -122.5t44 -184.5t-44 -184.5t-124 -122.5t-184 -43h-268v306h-80v95h80v299h268q104 0 184 -43zM374 105q114 0 174.5 65t60.5 180t-60.5 180t-174.5 65h-145v-194h152v-95h-152v-201h145z" />
    <glyph glyph-name="Dcaron" unicode="&#x10e;" horiz-adv-x="754" 
d="M702 350q0 105 -44 184.5t-123.5 122.5t-183.5 43h-268v-700h268q104 0 183.5 43t123.5 122.5t44 184.5zM345 105h-145v490h145q114 0 174.5 -65t60.5 -180t-60.5 -180t-174.5 -65zM303 789h100l133 137h-119q-12 -14 -21 -23q-37 -41 -41 -49h-3q-6 10 -39 45
q-8 9 -14 16t-10 11h-119z" />
    <glyph glyph-name="Dcroat" unicode="&#x110;" horiz-adv-x="784" 
d="M732 350q0 105 -44 184.5t-124 122.5t-184 43h-268v-299h-80v-95h80v-306h268q104 0 184 43t124 122.5t44 184.5zM374 105h-145v201h152v95h-152v194h145q114 0 174.5 -65t60.5 -180t-60.5 -180t-174.5 -65z" />
    <glyph glyph-name="uni1E0C" unicode="&#x1e0c;" horiz-adv-x="754" 
d="M702 350q0 105 -44 184.5t-123.5 122.5t-183.5 43h-268v-700h268q104 0 183.5 43t123.5 122.5t44 184.5zM345 105h-145v490h145q114 0 174.5 -65t60.5 -180t-60.5 -180t-174.5 -65zM293 -129q0 -32 21 -51t52 -19q32 0 53 19t21 51q0 31 -21 50.5t-53 19.5
q-31 0 -52 -19.5t-21 -50.5z" />
    <glyph glyph-name="uni1E0E" unicode="&#x1e0e;" horiz-adv-x="754" 
d="M702 350q0 105 -44 184.5t-123.5 122.5t-183.5 43h-268v-700h268q104 0 183.5 43t123.5 122.5t44 184.5zM345 105h-145v490h145q114 0 174.5 -65t60.5 -180t-60.5 -180t-174.5 -65zM533 -155v89h-333v-89h333z" />
    <glyph glyph-name="uni01F2" unicode="&#x1f2;" horiz-adv-x="1226" 
d="M702 350q0 105 -44 184.5t-123.5 122.5t-183.5 43h-268v-700h268q104 0 183.5 43t123.5 122.5t44 184.5zM345 105h-145v490h145q114 0 174.5 -65t60.5 -180t-60.5 -180t-174.5 -65zM948 149l226 279v83h-405v-97h193q64 0 81 8l1 -3q-16 -8 -57 -58l-229 -281v-80h421v96
h-205q-63 0 -81 -7l-1 3q17 8 56 57z" />
    <glyph glyph-name="uni01C5" unicode="&#x1c5;" horiz-adv-x="1226" 
d="M702 350q0 105 -44 184.5t-123.5 122.5t-183.5 43h-268v-700h268q104 0 183.5 43t123.5 122.5t44 184.5zM345 105h-145v490h145q114 0 174.5 -65t60.5 -180t-60.5 -180t-174.5 -65zM948 149l226 279v83h-405v-97h193q64 0 81 8l1 -3q-16 -8 -57 -58l-229 -281v-80h421v96
h-205q-63 0 -81 -7l-1 3q17 8 56 57zM923 600h100l133 137h-119q-12 -14 -21 -23q-37 -41 -41 -49h-3q-6 10 -39 45q-8 9 -14 16t-10 11h-119z" />
    <glyph glyph-name="E" unicode="E" horiz-adv-x="621" 
d="M566 700v-105h-366v-188h325v-102h-325v-200h366v-105h-483v700h483z" />
    <glyph glyph-name="Eacute" unicode="&#xc9;" horiz-adv-x="621" 
d="M566 700h-483v-700h483v105h-366v200h325v102h-325v188h366v105zM482 926h-125l-110 -137h108z" />
    <glyph glyph-name="Ebreve" unicode="&#x114;" horiz-adv-x="621" 
d="M566 700h-483v-700h483v105h-366v200h325v102h-325v188h366v105zM157 926q5 -66 51.5 -103.5t119.5 -37.5t119.5 37.5t51.5 103.5h-96q-7 -63 -75 -63t-75 63h-96z" />
    <glyph glyph-name="Ecaron" unicode="&#x11a;" horiz-adv-x="621" 
d="M566 700h-483v-700h483v105h-366v200h325v102h-325v188h366v105zM278 789h100l133 137h-119q-12 -14 -21 -23q-37 -41 -41 -49h-3q-6 10 -39 45q-8 9 -14 16t-10 11h-119z" />
    <glyph glyph-name="Ecircumflex" unicode="&#xca;" horiz-adv-x="621" 
d="M566 700h-483v-700h483v105h-366v200h325v102h-325v188h366v105zM146 789h119l17 19q36 40 45 54h3q5 -10 42 -49q7 -8 12.5 -14t8.5 -10h119l-133 138h-100z" />
    <glyph glyph-name="uni1EBE" unicode="&#x1ebe;" horiz-adv-x="621" 
d="M566 700h-483v-700h483v105h-366v200h325v102h-325v188h366v105zM147 774h119q4 4 10 11t14 16q34 38 39 45h3q3 -7 19.5 -25t20.5 -23l22 -24h119l-133 137h-99zM644 998h-119l-70 -124h100z" />
    <glyph glyph-name="uni1EC6" unicode="&#x1ec6;" horiz-adv-x="621" 
d="M566 700h-483v-700h483v105h-366v200h325v102h-325v188h366v105zM146 789h119l17 19q36 40 45 54h3q5 -10 42 -49q7 -8 12.5 -14t8.5 -10h119l-133 138h-100zM254 -129q0 -32 21 -51t52 -19q32 0 53 19t21 51q0 31 -21 50.5t-53 19.5q-31 0 -52 -19.5t-21 -50.5z" />
    <glyph glyph-name="uni1EC0" unicode="&#x1ec0;" horiz-adv-x="621" 
d="M566 700h-483v-700h483v105h-366v200h325v102h-325v188h366v105zM146 774h119q4 4 10 11t14 16q34 38 39 45h3q3 -7 19.5 -25t20.5 -23l22 -24h119l-133 137h-99zM582 874l-70 124h-119l89 -124h100z" />
    <glyph glyph-name="uni1EC2" unicode="&#x1ec2;" horiz-adv-x="621" 
d="M566 700h-483v-700h483v105h-366v200h325v102h-325v188h366v105zM145 775h119q4 4 10 11t14 16q34 38 39 45h3q3 -7 19.5 -25t20.5 -23l22 -24h119l-133 137h-99zM442 884h88q39 44 39 86q0 36 -31 61t-79 25q-72 0 -107 -51l57 -52q9 10 20 16t21 6q28 0 28 -25
q0 -12 -8.5 -27t-27.5 -39z" />
    <glyph glyph-name="uni1EC4" unicode="&#x1ec4;" horiz-adv-x="621" 
d="M566 700h-483v-700h483v105h-366v200h325v102h-325v188h366v105zM311 979q24 -12 43 -19t46 -7t52.5 14.5t41 41.5t15.5 62h-91q0 -17 -8 -27t-21 -10q-9 0 -19 4.5t-21 10.5q-24 12 -43 19t-46 7q-44 0 -76.5 -32.5t-32.5 -85.5h91q0 17 7.5 27t21.5 10q9 0 19 -4.5
t21 -10.5zM145 774h119q12 14 21 23q37 41 41 49h3q6 -10 39 -45q8 -9 14 -16t10 -11h119l-133 137h-100z" />
    <glyph glyph-name="Edieresis" unicode="&#xcb;" horiz-adv-x="621" 
d="M566 700h-483v-700h483v105h-366v200h325v102h-325v188h366v105zM145 862q0 -31 20 -49.5t49 -18.5q30 0 49.5 18.5t19.5 49.5t-19.5 49t-49.5 18q-29 0 -49 -18t-20 -49zM373 862q0 -31 19.5 -49.5t49.5 -18.5q29 0 48.5 18.5t19.5 49.5t-19.5 49t-48.5 18
q-30 0 -49.5 -18t-19.5 -49z" />
    <glyph glyph-name="Edotaccent" unicode="&#x116;" horiz-adv-x="621" 
d="M566 700h-483v-700h483v105h-366v200h325v102h-325v188h366v105zM255 864q0 -32 21 -50.5t53 -18.5t52.5 18.5t20.5 50.5t-21 51t-52 19q-32 0 -53 -19t-21 -51z" />
    <glyph glyph-name="uni1EB8" unicode="&#x1eb8;" horiz-adv-x="621" 
d="M566 700h-483v-700h483v105h-366v200h325v102h-325v188h366v105zM254 -129q0 -32 21 -51t52 -19q32 0 53 19t21 51q0 31 -21 50.5t-53 19.5q-31 0 -52 -19.5t-21 -50.5z" />
    <glyph glyph-name="Egrave" unicode="&#xc8;" horiz-adv-x="621" 
d="M566 700h-483v-700h483v105h-366v200h325v102h-325v188h366v105zM410 789l-111 137h-124l126 -137h109z" />
    <glyph glyph-name="uni1EBA" unicode="&#x1eba;" horiz-adv-x="621" 
d="M566 700h-483v-700h483v105h-366v200h325v102h-325v188h366v105zM306 763h88q39 44 39 86q0 36 -31 61.5t-79 25.5q-69 0 -107 -52l57 -51q9 10 20 15.5t21 5.5q28 0 28 -25q0 -12 -8.5 -27t-27.5 -39z" />
    <glyph glyph-name="Emacron" unicode="&#x112;" horiz-adv-x="621" 
d="M566 700h-483v-700h483v105h-366v200h325v102h-325v188h366v105zM495 815v88h-334v-88h334z" />
    <glyph glyph-name="Eogonek" unicode="&#x118;" horiz-adv-x="621" 
d="M566 595h-366v-188h325v-102h-325v-200h366v-105h-52l-27 -29q-15 -17 -15 -31q0 -10 8 -16t21 -6h31v-94h-63q-46 0 -72 23t-26 56q0 40 39 75l25 22h-352v700h483v-105z" />
    <glyph glyph-name="uni1EBC" unicode="&#x1ebc;" horiz-adv-x="621" 
d="M566 700h-483v-700h483v105h-366v200h325v102h-325v188h366v105zM312 821q22 -15 42 -23.5t47 -8.5q29 0 55 15.5t42 45.5t16 70h-90q0 -21 -8 -33t-21 -12q-9 0 -18 4.5t-23 13.5q-22 15 -42 23.5t-47 8.5q-29 0 -55 -16t-42 -46t-16 -70h91q0 22 7.5 34t21.5 12
q9 0 17.5 -4.5t22.5 -13.5z" />
    <glyph glyph-name="F" unicode="F" horiz-adv-x="603" 
d="M561 700v-105h-362v-206h318v-105h-318v-284h-116v700h478z" />
    <glyph glyph-name="G" unicode="G" horiz-adv-x="777" 
d="M727 378q2 -15 2 -44q0 -107 -43 -185t-118 -119t-170 -41q-97 0 -176 45t-124.5 127t-45.5 189t45 189t124.5 127t180.5 45q89 0 167.5 -40.5t125.5 -118.5l-94 -63q-34 57 -85.5 85.5t-114.5 28.5q-65 0 -116.5 -30.5t-81 -88t-29.5 -134.5q0 -76 30 -133.5t81 -88.5
t113 -31q91 0 145 48t65 136h-210v97h329z" />
    <glyph glyph-name="Gbreve" unicode="&#x11e;" horiz-adv-x="777" 
d="M727 378h-329v-97h210q-11 -88 -65 -136t-145 -48q-62 0 -113 31t-81 88.5t-30 133.5q0 77 29.5 134.5t81 88t116.5 30.5q63 0 114.5 -28.5t85.5 -85.5l94 63q-47 78 -125.5 118.5t-167.5 40.5q-101 0 -180.5 -45t-124.5 -127t-45 -189t45.5 -189t124.5 -127t176 -45
q95 0 170 41t118 119t43 185q0 29 -2 44zM226 926q5 -66 51.5 -103.5t119.5 -37.5t119.5 37.5t51.5 103.5h-96q-7 -63 -75 -63t-75 63h-96z" />
    <glyph glyph-name="Gcaron" unicode="&#x1e6;" horiz-adv-x="777" 
d="M727 378h-329v-97h210q-11 -88 -65 -136t-145 -48q-62 0 -113 31t-81 88.5t-30 133.5q0 77 29.5 134.5t81 88t116.5 30.5q63 0 114.5 -28.5t85.5 -85.5l94 63q-47 78 -125.5 118.5t-167.5 40.5q-101 0 -180.5 -45t-124.5 -127t-45 -189t45.5 -189t124.5 -127t176 -45
q95 0 170 41t118 119t43 185q0 29 -2 44zM347 789h100l133 137h-119q-12 -14 -21 -23q-37 -41 -41 -49h-3q-6 10 -39 45q-8 9 -14 16t-10 11h-119z" />
    <glyph glyph-name="Gcircumflex" unicode="&#x11c;" horiz-adv-x="777" 
d="M727 378h-329v-97h210q-11 -88 -65 -136t-145 -48q-62 0 -113 31t-81 88.5t-30 133.5q0 77 29.5 134.5t81 88t116.5 30.5q63 0 114.5 -28.5t85.5 -85.5l94 63q-47 78 -125.5 118.5t-167.5 40.5q-101 0 -180.5 -45t-124.5 -127t-45 -189t45.5 -189t124.5 -127t176 -45
q95 0 170 41t118 119t43 185q0 29 -2 44zM215 789h119l17 19q36 40 45 54h3q5 -10 42 -49q7 -8 12.5 -14t8.5 -10h119l-133 138h-100z" />
    <glyph glyph-name="uni0122" unicode="&#x122;" horiz-adv-x="777" 
d="M727 378h-329v-97h210q-11 -88 -65 -136t-145 -48q-62 0 -113 31t-81 88.5t-30 133.5q0 77 29.5 134.5t81 88t116.5 30.5q63 0 114.5 -28.5t85.5 -85.5l94 63q-47 78 -125.5 118.5t-167.5 40.5q-101 0 -180.5 -45t-124.5 -127t-45 -189t45.5 -189t124.5 -127t176 -45
q95 0 170 41t118 119t43 185q0 29 -2 44zM468 -118q0 26 -19 42t-50 16t-50.5 -15.5t-19.5 -40.5q0 -19 13 -33t36 -19l-46 -62l56 -31l55 77q25 36 25 66z" />
    <glyph glyph-name="Gdotaccent" unicode="&#x120;" horiz-adv-x="777" 
d="M727 378h-329v-97h210q-11 -88 -65 -136t-145 -48q-62 0 -113 31t-81 88.5t-30 133.5q0 77 29.5 134.5t81 88t116.5 30.5q63 0 114.5 -28.5t85.5 -85.5l94 63q-47 78 -125.5 118.5t-167.5 40.5q-101 0 -180.5 -45t-124.5 -127t-45 -189t45.5 -189t124.5 -127t176 -45
q95 0 170 41t118 119t43 185q0 29 -2 44zM324 864q0 -32 21 -50.5t53 -18.5t52.5 18.5t20.5 50.5t-21 51t-52 19q-32 0 -53 -19t-21 -51z" />
    <glyph glyph-name="H" unicode="H" horiz-adv-x="739" 
d="M540 406v294h117v-700h-117v301h-341v-301h-116v700h116v-294h341z" />
    <glyph glyph-name="Hbar" unicode="&#x126;" horiz-adv-x="802" 
d="M688 590h76v-92h-76v-498h-117v301h-340v-301h-117v498h-76v92h76v110h117v-110h340v110h117v-110zM231 406h340v92h-340v-92z" />
    <glyph glyph-name="uni1E2A" unicode="&#x1e2a;" horiz-adv-x="739" 
d="M540 406h-341v294h-116v-700h116v301h341v-301h117v700h-117v-294zM193 -78q5 -66 51.5 -103.5t119.5 -37.5t119.5 37.5t51.5 103.5h-96q-7 -63 -75 -63t-75 63h-96z" />
    <glyph glyph-name="uni1E28" unicode="&#x1e28;" horiz-adv-x="739" 
d="M540 700h117v-700h-117v301h-341v-301h-36l25 -22q38 -34 38 -75q0 -33 -26 -56t-71 -23h-90v94h58q13 0 20.5 6t7.5 16q0 16 -15 31l-27 29v700h116v-294h341v294z" />
    <glyph glyph-name="Hcircumflex" unicode="&#x124;" horiz-adv-x="739" 
d="M540 406h-341v294h-116v-700h116v301h341v-301h117v700h-117v-294zM181 789h119l17 19q36 40 45 54h3q5 -10 42 -49q7 -8 12.5 -14t8.5 -10h119l-133 138h-100z" />
    <glyph glyph-name="uni1E24" unicode="&#x1e24;" horiz-adv-x="739" 
d="M540 406h-341v294h-116v-700h116v301h341v-301h117v700h-117v-294zM290 -129q0 -32 21 -51t52 -19q32 0 53 19t21 51q0 31 -21 50.5t-53 19.5q-31 0 -52 -19.5t-21 -50.5z" />
    <glyph glyph-name="I" unicode="I" horiz-adv-x="283" 
d="M83 700h117v-700h-117v700z" />
    <glyph glyph-name="Iacute" unicode="&#xcd;" horiz-adv-x="283" 
d="M83 700v-700h117v700h-117zM294 926h-125l-110 -137h108z" />
    <glyph glyph-name="Ibreve" unicode="&#x12c;" horiz-adv-x="283" 
d="M83 700v-700h117v700h-117zM-30 926q5 -66 51.5 -103.5t119.5 -37.5t119.5 37.5t51.5 103.5h-96q-7 -63 -75 -63t-75 63h-96z" />
    <glyph glyph-name="uni01CF" unicode="&#x1cf;" horiz-adv-x="283" 
d="M83 700v-700h117v700h-117zM91 789h100l133 137h-119q-12 -14 -21 -23q-37 -41 -41 -49h-3q-6 10 -39 45q-8 9 -14 16t-10 11h-119z" />
    <glyph glyph-name="Icircumflex" unicode="&#xce;" horiz-adv-x="283" 
d="M83 700v-700h117v700h-117zM-42 789h119l17 19q36 40 45 54h3q5 -10 42 -49q7 -8 12.5 -14t8.5 -10h119l-133 138h-100z" />
    <glyph glyph-name="Idieresis" unicode="&#xcf;" horiz-adv-x="283" 
d="M83 700v-700h117v700h-117zM-42 862q0 -31 20 -49.5t49 -18.5q30 0 49.5 18.5t19.5 49.5t-19.5 49t-49.5 18q-29 0 -49 -18t-20 -49zM186 862q0 -31 19.5 -49.5t49.5 -18.5q29 0 48.5 18.5t19.5 49.5t-19.5 49t-48.5 18q-30 0 -49.5 -18t-19.5 -49z" />
    <glyph glyph-name="Idotaccent" unicode="&#x130;" horiz-adv-x="283" 
d="M83 700v-700h117v700h-117zM68 864q0 -32 21 -50.5t53 -18.5t52.5 18.5t20.5 50.5t-21 51t-52 19q-32 0 -53 -19t-21 -51z" />
    <glyph glyph-name="uni1ECA" unicode="&#x1eca;" horiz-adv-x="283" 
d="M83 700v-700h117v700h-117zM67 -129q0 -32 21 -51t52 -19q32 0 53 19t21 51q0 31 -21 50.5t-53 19.5q-31 0 -52 -19.5t-21 -50.5z" />
    <glyph glyph-name="Igrave" unicode="&#xcc;" horiz-adv-x="283" 
d="M83 700v-700h117v700h-117zM223 789l-111 137h-124l126 -137h109z" />
    <glyph glyph-name="uni1EC8" unicode="&#x1ec8;" horiz-adv-x="283" 
d="M83 700v-700h117v700h-117zM119 763h88q39 44 39 86q0 36 -31 61.5t-79 25.5q-69 0 -107 -52l57 -51q9 10 20 15.5t21 5.5q28 0 28 -25q0 -12 -8.5 -27t-27.5 -39z" />
    <glyph glyph-name="Imacron" unicode="&#x12a;" horiz-adv-x="283" 
d="M83 700v-700h117v700h-117zM308 815v88h-334v-88h334z" />
    <glyph glyph-name="Iogonek" unicode="&#x12e;" horiz-adv-x="283" 
d="M217 -82v-94h-63q-46 0 -72 23t-26 56q0 40 39 75l25 22h-37v700h117v-700h-1l-27 -29q-15 -17 -15 -31q0 -10 8 -16t21 -6h31z" />
    <glyph glyph-name="Itilde" unicode="&#x128;" horiz-adv-x="283" 
d="M83 700v-700h117v700h-117zM125 821q22 -15 42 -23.5t47 -8.5q29 0 55 15.5t42 45.5t16 70h-90q0 -21 -8 -33t-21 -12q-9 0 -18 4.5t-23 13.5q-22 15 -42 23.5t-47 8.5q-29 0 -55 -16t-42 -46t-16 -70h91q0 22 7.5 34t21.5 12q9 0 17.5 -4.5t22.5 -13.5z" />
    <glyph glyph-name="J" unicode="J" horiz-adv-x="540" 
d="M102 28.5q-53 39.5 -82 107.5l94 51q16 -40 45.5 -65t72.5 -25q53 0 83.5 33t30.5 96v474h116v-479q0 -111 -62 -171.5t-165 -60.5q-80 0 -133 39.5z" />
    <glyph glyph-name="Jcircumflex" unicode="&#x134;" horiz-adv-x="540" 
d="M20 136q29 -68 82 -107.5t133 -39.5q103 0 165 60.5t62 171.5v479h-116v-474q0 -63 -30.5 -96t-83.5 -33q-43 0 -72.5 25t-45.5 65zM222 789h119l17 19q36 40 45 54h3q5 -10 42 -49q7 -8 12.5 -14t8.5 -10h119l-133 138h-100z" />
    <glyph glyph-name="K" unicode="K" horiz-adv-x="670" 
d="M328 356l341 -356h-157l-312 328v-328h-117v700h117v-327l294 327h151z" />
    <glyph glyph-name="uni0136" unicode="&#x136;" horiz-adv-x="670" 
d="M328 356l317 344h-151l-294 -327v327h-117v-700h117v328l312 -328h157zM411 -118q0 26 -19 42t-50 16t-50.5 -15.5t-19.5 -40.5q0 -19 13 -33t36 -19l-46 -62l56 -31l55 77q25 36 25 66z" />
    <glyph glyph-name="uni1E32" unicode="&#x1e32;" horiz-adv-x="670" 
d="M328 356l317 344h-151l-294 -327v327h-117v-700h117v328l312 -328h157zM268 -129q0 -32 21 -51t52 -19q32 0 53 19t21 51q0 31 -21 50.5t-53 19.5q-31 0 -52 -19.5t-21 -50.5z" />
    <glyph glyph-name="L" unicode="L" horiz-adv-x="568" 
d="M200 700v-595h336v-105h-453v700h117z" />
    <glyph glyph-name="uni01C7" unicode="&#x1c7;" horiz-adv-x="1081" 
d="M200 700h-117v-700h453v105h-336v595zM561 136q29 -68 82 -107.5t133 -39.5q103 0 165 60.5t62 171.5v479h-116v-474q0 -63 -30.5 -96t-83.5 -33q-43 0 -72.5 25t-45.5 65z" />
    <glyph glyph-name="Lacute" unicode="&#x139;" horiz-adv-x="568" 
d="M200 700h-117v-700h453v105h-336v595zM294 926h-125l-110 -137h108z" />
    <glyph glyph-name="Lcaron" unicode="&#x13d;" horiz-adv-x="568" 
d="M200 700h-117v-700h453v105h-336v595zM301 479h71l27 111v110h-98v-221z" />
    <glyph glyph-name="uni013B" unicode="&#x13b;" horiz-adv-x="568" 
d="M200 700h-117v-700h453v105h-336v595zM379 -118q0 26 -19 42t-50 16t-50.5 -15.5t-19.5 -40.5q0 -19 13 -33t36 -19l-46 -62l56 -31l55 77q25 36 25 66z" />
    <glyph glyph-name="Ldot" unicode="&#x13f;" horiz-adv-x="568" 
d="M200 700v-595h336v-105h-453v700h117zM368.5 317.5q-20.5 18.5 -20.5 50.5t21 51t52 19q32 0 53 -19t21 -51t-21 -50.5t-53 -18.5t-52.5 18.5z" />
    <glyph glyph-name="uni1E36" unicode="&#x1e36;" horiz-adv-x="568" 
d="M200 700h-117v-700h453v105h-336v595zM236 -129q0 -32 21 -51t52 -19q32 0 53 19t21 51q0 31 -21 50.5t-53 19.5q-31 0 -52 -19.5t-21 -50.5z" />
    <glyph glyph-name="uni1E38" unicode="&#x1e38;" horiz-adv-x="568" 
d="M200 700h-117v-700h453v105h-336v595zM308 815v88h-334v-88h334zM236 -129q0 -32 21 -51t52 -19q32 0 53 19t21 51q0 31 -21 50.5t-53 19.5q-31 0 -52 -19.5t-21 -50.5z" />
    <glyph glyph-name="uni01C8" unicode="&#x1c8;" horiz-adv-x="784" 
d="M200 700h-117v-700h453v105h-336v595zM711 -60v571h-111v-565q0 -59 -43 -59h-17v-104h34q63 0 100 41t37 116zM583 675q0 -32 21 -50.5t53 -18.5t52.5 18.5t20.5 50.5t-21 51t-52 19q-32 0 -53 -19t-21 -51z" />
    <glyph glyph-name="uni1E3A" unicode="&#x1e3a;" horiz-adv-x="568" 
d="M200 700h-117v-700h453v105h-336v595zM476 -155v89h-333v-89h333z" />
    <glyph glyph-name="Lslash" unicode="&#x141;" horiz-adv-x="604" 
d="M236 302v-197h336v-105h-453v274l-83 -26v103l83 25v324h117v-294l205 63v-103z" />
    <glyph glyph-name="M" unicode="M" horiz-adv-x="838" 
d="M421 384l225 316h109v-700h-116v423q0 82 6 103l-3 1q-9 -22 -54 -87l-158 -217h-21l-157 214q-50 71 -56 87l-3 -1q6 -21 6 -103v-420h-116v700h109z" />
    <glyph glyph-name="uni1E40" unicode="&#x1e40;" horiz-adv-x="838" 
d="M421 384l-229 316h-109v-700h116v420q0 82 -6 103l3 1q6 -16 56 -87l157 -214h21l158 217q45 65 54 87l3 -1q-6 -21 -6 -103v-423h116v700h-109zM346 864q0 -32 21 -50.5t53 -18.5t52.5 18.5t20.5 50.5t-21 51t-52 19q-32 0 -53 -19t-21 -51z" />
    <glyph glyph-name="uni1E42" unicode="&#x1e42;" horiz-adv-x="838" 
d="M421 384l-229 316h-109v-700h116v420q0 82 -6 103l3 1q6 -16 56 -87l157 -214h21l158 217q45 65 54 87l3 -1q-6 -21 -6 -103v-423h116v700h-109zM346 -129q0 -32 21 -51t52 -19q32 0 53 19t21 51q0 31 -21 50.5t-53 19.5q-31 0 -52 -19.5t-21 -50.5z" />
    <glyph glyph-name="N" unicode="N" horiz-adv-x="759" 
d="M559 700h117v-700h-107l-317 432q-48 67 -56 87l-3 -1q6 -21 6 -103v-415h-116v700h106l317 -432q20 -26 36 -51.5t20 -35.5l3 1q-6 21 -6 103v415z" />
    <glyph glyph-name="uni01CA" unicode="&#x1ca;" horiz-adv-x="1259" 
d="M559 700v-415q0 -82 6 -103l-3 -1q-4 10 -20 35.5t-36 51.5l-317 432h-106v-700h116v415q0 82 -6 103l3 1q8 -20 56 -87l317 -432h107v700h-117zM739 136q29 -68 82 -107.5t133 -39.5q103 0 165 60.5t62 171.5v479h-116v-474q0 -63 -30.5 -96t-83.5 -33q-43 0 -72.5 25
t-45.5 65z" />
    <glyph glyph-name="Nacute" unicode="&#x143;" horiz-adv-x="759" 
d="M559 700v-415q0 -82 6 -103l-3 -1q-4 10 -20 35.5t-36 51.5l-317 432h-106v-700h116v415q0 82 -6 103l3 1q8 -20 56 -87l317 -432h107v700h-117zM537 926h-125l-110 -137h108z" />
    <glyph glyph-name="Ncaron" unicode="&#x147;" horiz-adv-x="759" 
d="M559 700v-415q0 -82 6 -103l-3 -1q-4 10 -20 35.5t-36 51.5l-317 432h-106v-700h116v415q0 82 -6 103l3 1q8 -20 56 -87l317 -432h107v700h-117zM333 789h100l133 137h-119q-12 -14 -21 -23q-37 -41 -41 -49h-3q-6 10 -39 45q-8 9 -14 16t-10 11h-119z" />
    <glyph glyph-name="uni0145" unicode="&#x145;" horiz-adv-x="759" 
d="M559 700v-415q0 -82 6 -103l-3 -1q-4 10 -20 35.5t-36 51.5l-317 432h-106v-700h116v415q0 82 -6 103l3 1q8 -20 56 -87l317 -432h107v700h-117zM450 -118q0 26 -19 42t-50 16t-50.5 -15.5t-19.5 -40.5q0 -19 13 -33t36 -19l-46 -62l56 -31l55 77q25 36 25 66z" />
    <glyph glyph-name="uni1E44" unicode="&#x1e44;" horiz-adv-x="759" 
d="M559 700v-415q0 -82 6 -103l-3 -1q-4 10 -20 35.5t-36 51.5l-317 432h-106v-700h116v415q0 82 -6 103l3 1q8 -20 56 -87l317 -432h107v700h-117zM310 864q0 -32 21 -50.5t53 -18.5t52.5 18.5t20.5 50.5t-21 51t-52 19q-32 0 -53 -19t-21 -51z" />
    <glyph glyph-name="uni1E46" unicode="&#x1e46;" horiz-adv-x="759" 
d="M559 700v-415q0 -82 6 -103l-3 -1q-4 10 -20 35.5t-36 51.5l-317 432h-106v-700h116v415q0 82 -6 103l3 1q8 -20 56 -87l317 -432h107v700h-117zM307 -129q0 -32 21 -51t52 -19q32 0 53 19t21 51q0 31 -21 50.5t-53 19.5q-31 0 -52 -19.5t-21 -50.5z" />
    <glyph glyph-name="Eng" unicode="&#x14a;" horiz-adv-x="731" 
d="M536.5 677q55.5 -32 86.5 -92.5t31 -143.5v-457q0 -82 -44.5 -125.5t-117.5 -43.5q-79 0 -128 54l62 80q23 -26 57 -26q25 0 40 16t15 48v430q0 90 -44 137t-116 47q-51 0 -92 -23t-64 -65.5t-23 -99.5v-413h-116v700h116v-106q34 55 88.5 85t122.5 30q71 0 126.5 -32z
" />
    <glyph glyph-name="uni01CB" unicode="&#x1cb;" horiz-adv-x="974" 
d="M559 700v-415q0 -82 6 -103l-3 -1q-4 10 -20 35.5t-36 51.5l-317 432h-106v-700h116v415q0 82 -6 103l3 1q8 -20 56 -87l317 -432h107v700h-117zM902 -60v571h-111v-565q0 -59 -43 -59h-17v-104h34q63 0 100 41t37 116zM774 675q0 -32 21 -50.5t53 -18.5t52.5 18.5
t20.5 50.5t-21 51t-52 19q-32 0 -53 -19t-21 -51z" />
    <glyph glyph-name="uni1E48" unicode="&#x1e48;" horiz-adv-x="759" 
d="M559 700v-415q0 -82 6 -103l-3 -1q-4 10 -20 35.5t-36 51.5l-317 432h-106v-700h116v415q0 82 -6 103l3 1q8 -20 56 -87l317 -432h107v700h-117zM547 -155v89h-333v-89h333z" />
    <glyph glyph-name="Ntilde" unicode="&#xd1;" horiz-adv-x="759" 
d="M559 700v-415q0 -82 6 -103l-3 -1q-4 10 -20 35.5t-36 51.5l-317 432h-106v-700h116v415q0 82 -6 103l3 1q8 -20 56 -87l317 -432h107v700h-117zM367 821q22 -15 42 -23.5t47 -8.5q29 0 55 15.5t42 45.5t16 70h-90q0 -21 -8 -33t-21 -12q-9 0 -18 4.5t-23 13.5
q-22 15 -42 23.5t-47 8.5q-29 0 -55 -16t-42 -46t-16 -70h91q0 22 7.5 34t21.5 12q9 0 17.5 -4.5t22.5 -13.5z" />
    <glyph glyph-name="O" unicode="O" horiz-adv-x="811" 
d="M222 34.5q-81 45.5 -126 127.5t-45 188t45 188t126 127.5t184 45.5t183.5 -45.5t125.5 -127.5t45 -188t-45 -188t-125.5 -127.5t-183.5 -45.5t-184 45.5zM525.5 127.5q52.5 30.5 82.5 88t30 134.5t-30 134.5t-82.5 88t-119.5 30.5q-68 0 -120.5 -30.5t-82.5 -88
t-30 -134.5t30 -134.5t82.5 -88t120.5 -30.5q67 0 119.5 30.5z" />
    <glyph glyph-name="Oacute" unicode="&#xd3;" horiz-adv-x="811" 
d="M51 350q0 -106 45 -188t126 -127.5t184 -45.5t183.5 45.5t125.5 127.5t45 188t-45 188t-125.5 127.5t-183.5 45.5t-184 -45.5t-126 -127.5t-45 -188zM638 350q0 -77 -30 -134.5t-82.5 -88t-119.5 -30.5q-68 0 -120.5 30.5t-82.5 88t-30 134.5t30 134.5t82.5 88
t120.5 30.5q67 0 119.5 -30.5t82.5 -88t30 -134.5zM559 926h-125l-110 -137h108z" />
    <glyph glyph-name="Obreve" unicode="&#x14e;" horiz-adv-x="811" 
d="M51 350q0 -106 45 -188t126 -127.5t184 -45.5t183.5 45.5t125.5 127.5t45 188t-45 188t-125.5 127.5t-183.5 45.5t-184 -45.5t-126 -127.5t-45 -188zM638 350q0 -77 -30 -134.5t-82.5 -88t-119.5 -30.5q-68 0 -120.5 30.5t-82.5 88t-30 134.5t30 134.5t82.5 88
t120.5 30.5q67 0 119.5 -30.5t82.5 -88t30 -134.5zM235 926q5 -66 51.5 -103.5t119.5 -37.5t119.5 37.5t51.5 103.5h-96q-7 -63 -75 -63t-75 63h-96z" />
    <glyph glyph-name="uni01D1" unicode="&#x1d1;" horiz-adv-x="811" 
d="M51 350q0 -106 45 -188t126 -127.5t184 -45.5t183.5 45.5t125.5 127.5t45 188t-45 188t-125.5 127.5t-183.5 45.5t-184 -45.5t-126 -127.5t-45 -188zM638 350q0 -77 -30 -134.5t-82.5 -88t-119.5 -30.5q-68 0 -120.5 30.5t-82.5 88t-30 134.5t30 134.5t82.5 88
t120.5 30.5q67 0 119.5 -30.5t82.5 -88t30 -134.5zM356 789h100l133 137h-119q-12 -14 -21 -23q-37 -41 -41 -49h-3q-6 10 -39 45q-8 9 -14 16t-10 11h-119z" />
    <glyph glyph-name="Ocircumflex" unicode="&#xd4;" horiz-adv-x="811" 
d="M51 350q0 -106 45 -188t126 -127.5t184 -45.5t183.5 45.5t125.5 127.5t45 188t-45 188t-125.5 127.5t-183.5 45.5t-184 -45.5t-126 -127.5t-45 -188zM638 350q0 -77 -30 -134.5t-82.5 -88t-119.5 -30.5q-68 0 -120.5 30.5t-82.5 88t-30 134.5t30 134.5t82.5 88
t120.5 30.5q67 0 119.5 -30.5t82.5 -88t30 -134.5zM223 789h119l17 19q36 40 45 54h3q5 -10 42 -49q7 -8 12.5 -14t8.5 -10h119l-133 138h-100z" />
    <glyph glyph-name="uni1ED0" unicode="&#x1ed0;" horiz-adv-x="811" 
d="M51 350q0 -106 45 -188t126 -127.5t184 -45.5t183.5 45.5t125.5 127.5t45 188t-45 188t-125.5 127.5t-183.5 45.5t-184 -45.5t-126 -127.5t-45 -188zM638 350q0 -77 -30 -134.5t-82.5 -88t-119.5 -30.5q-68 0 -120.5 30.5t-82.5 88t-30 134.5t30 134.5t82.5 88
t120.5 30.5q67 0 119.5 -30.5t82.5 -88t30 -134.5zM224 774h119q4 4 10 11t14 16q34 38 39 45h3q3 -7 19.5 -25t20.5 -23l22 -24h119l-133 137h-99zM721 998h-119l-70 -124h100z" />
    <glyph glyph-name="uni1ED8" unicode="&#x1ed8;" horiz-adv-x="811" 
d="M51 350q0 -106 45 -188t126 -127.5t184 -45.5t183.5 45.5t125.5 127.5t45 188t-45 188t-125.5 127.5t-183.5 45.5t-184 -45.5t-126 -127.5t-45 -188zM638 350q0 -77 -30 -134.5t-82.5 -88t-119.5 -30.5q-68 0 -120.5 30.5t-82.5 88t-30 134.5t30 134.5t82.5 88
t120.5 30.5q67 0 119.5 -30.5t82.5 -88t30 -134.5zM223 789h119l17 19q36 40 45 54h3q5 -10 42 -49q7 -8 12.5 -14t8.5 -10h119l-133 138h-100zM332 -129q0 -32 21 -51t52 -19q32 0 53 19t21 51q0 31 -21 50.5t-53 19.5q-31 0 -52 -19.5t-21 -50.5z" />
    <glyph glyph-name="uni1ED2" unicode="&#x1ed2;" horiz-adv-x="811" 
d="M51 350q0 -106 45 -188t126 -127.5t184 -45.5t183.5 45.5t125.5 127.5t45 188t-45 188t-125.5 127.5t-183.5 45.5t-184 -45.5t-126 -127.5t-45 -188zM638 350q0 -77 -30 -134.5t-82.5 -88t-119.5 -30.5q-68 0 -120.5 30.5t-82.5 88t-30 134.5t30 134.5t82.5 88
t120.5 30.5q67 0 119.5 -30.5t82.5 -88t30 -134.5zM223 774h119q4 4 10 11t14 16q34 38 39 45h3q3 -7 19.5 -25t20.5 -23l22 -24h119l-133 137h-99zM659 874l-70 124h-119l89 -124h100z" />
    <glyph glyph-name="uni1ED4" unicode="&#x1ed4;" horiz-adv-x="811" 
d="M51 350q0 -106 45 -188t126 -127.5t184 -45.5t183.5 45.5t125.5 127.5t45 188t-45 188t-125.5 127.5t-183.5 45.5t-184 -45.5t-126 -127.5t-45 -188zM638 350q0 -77 -30 -134.5t-82.5 -88t-119.5 -30.5q-68 0 -120.5 30.5t-82.5 88t-30 134.5t30 134.5t82.5 88
t120.5 30.5q67 0 119.5 -30.5t82.5 -88t30 -134.5zM222 775h119q4 4 10 11t14 16q34 38 39 45h3q3 -7 19.5 -25t20.5 -23l22 -24h119l-133 137h-99zM519 884h88q39 44 39 86q0 36 -31 61t-79 25q-72 0 -107 -51l57 -52q9 10 20 16t21 6q28 0 28 -25q0 -12 -8.5 -27
t-27.5 -39z" />
    <glyph glyph-name="uni1ED6" unicode="&#x1ed6;" horiz-adv-x="811" 
d="M51 350q0 -106 45 -188t126 -127.5t184 -45.5t183.5 45.5t125.5 127.5t45 188t-45 188t-125.5 127.5t-183.5 45.5t-184 -45.5t-126 -127.5t-45 -188zM638 350q0 -77 -30 -134.5t-82.5 -88t-119.5 -30.5q-68 0 -120.5 30.5t-82.5 88t-30 134.5t30 134.5t82.5 88
t120.5 30.5q67 0 119.5 -30.5t82.5 -88t30 -134.5zM389 979q24 -12 43 -19t46 -7t52.5 14.5t41 41.5t15.5 62h-91q0 -17 -8 -27t-21 -10q-9 0 -19 4.5t-21 10.5q-24 12 -43 19t-46 7q-44 0 -76.5 -32.5t-32.5 -85.5h91q0 17 7.5 27t21.5 10q9 0 19 -4.5t21 -10.5zM223 774
h119q12 14 21 23q37 41 41 49h3q6 -10 39 -45q8 -9 14 -16t10 -11h119l-133 137h-100z" />
    <glyph glyph-name="Odieresis" unicode="&#xd6;" horiz-adv-x="811" 
d="M51 350q0 -106 45 -188t126 -127.5t184 -45.5t183.5 45.5t125.5 127.5t45 188t-45 188t-125.5 127.5t-183.5 45.5t-184 -45.5t-126 -127.5t-45 -188zM638 350q0 -77 -30 -134.5t-82.5 -88t-119.5 -30.5q-68 0 -120.5 30.5t-82.5 88t-30 134.5t30 134.5t82.5 88
t120.5 30.5q67 0 119.5 -30.5t82.5 -88t30 -134.5zM222 862q0 -31 20 -49.5t49 -18.5q30 0 49.5 18.5t19.5 49.5t-19.5 49t-49.5 18q-29 0 -49 -18t-20 -49zM450 862q0 -31 19.5 -49.5t49.5 -18.5q29 0 48.5 18.5t19.5 49.5t-19.5 49t-48.5 18q-30 0 -49.5 -18t-19.5 -49z
" />
    <glyph glyph-name="uni1ECC" unicode="&#x1ecc;" horiz-adv-x="811" 
d="M51 350q0 -106 45 -188t126 -127.5t184 -45.5t183.5 45.5t125.5 127.5t45 188t-45 188t-125.5 127.5t-183.5 45.5t-184 -45.5t-126 -127.5t-45 -188zM638 350q0 -77 -30 -134.5t-82.5 -88t-119.5 -30.5q-68 0 -120.5 30.5t-82.5 88t-30 134.5t30 134.5t82.5 88
t120.5 30.5q67 0 119.5 -30.5t82.5 -88t30 -134.5zM332 -129q0 -32 21 -51t52 -19q32 0 53 19t21 51q0 31 -21 50.5t-53 19.5q-31 0 -52 -19.5t-21 -50.5z" />
    <glyph glyph-name="Ograve" unicode="&#xd2;" horiz-adv-x="811" 
d="M51 350q0 -106 45 -188t126 -127.5t184 -45.5t183.5 45.5t125.5 127.5t45 188t-45 188t-125.5 127.5t-183.5 45.5t-184 -45.5t-126 -127.5t-45 -188zM638 350q0 -77 -30 -134.5t-82.5 -88t-119.5 -30.5q-68 0 -120.5 30.5t-82.5 88t-30 134.5t30 134.5t82.5 88
t120.5 30.5q67 0 119.5 -30.5t82.5 -88t30 -134.5zM487 789l-111 137h-124l126 -137h109z" />
    <glyph glyph-name="uni1ECE" unicode="&#x1ece;" horiz-adv-x="811" 
d="M51 350q0 -106 45 -188t126 -127.5t184 -45.5t183.5 45.5t125.5 127.5t45 188t-45 188t-125.5 127.5t-183.5 45.5t-184 -45.5t-126 -127.5t-45 -188zM638 350q0 -77 -30 -134.5t-82.5 -88t-119.5 -30.5q-68 0 -120.5 30.5t-82.5 88t-30 134.5t30 134.5t82.5 88
t120.5 30.5q67 0 119.5 -30.5t82.5 -88t30 -134.5zM384 763h88q39 44 39 86q0 36 -31 61.5t-79 25.5q-69 0 -107 -52l57 -51q9 10 20 15.5t21 5.5q28 0 28 -25q0 -12 -8.5 -27t-27.5 -39z" />
    <glyph glyph-name="Ohorn" unicode="&#x1a0;" horiz-adv-x="841" 
d="M695 790h112v-39q0 -71 -41 -110t-111 -39h-14q56 -47 86.5 -112t30.5 -143q0 -105 -44.5 -186.5t-124.5 -126.5t-183 -45t-184 45.5t-126 127.5t-45 188t45 188t126 127.5t184 45.5q48 0 94 -11h134q61 0 61 65v25zM525.5 127.5q52.5 30.5 82.5 88t30 134.5t-30 134.5
t-82.5 88t-119.5 30.5q-68 0 -120.5 -30.5t-82.5 -88t-30 -134.5t30 -134.5t82.5 -88t120.5 -30.5q67 0 119.5 30.5z" />
    <glyph glyph-name="uni1EDA" unicode="&#x1eda;" horiz-adv-x="841" 
d="M695 790v-25q0 -65 -61 -65h-134q-46 11 -94 11q-103 0 -184 -45.5t-126 -127.5t-45 -188t45 -188t126 -127.5t184 -45.5t183 45t124.5 126.5t44.5 186.5q0 78 -30.5 143t-86.5 112h14q70 0 111 39t41 110v39h-112zM638 350q0 -77 -30 -134.5t-82.5 -88t-119.5 -30.5
q-68 0 -120.5 30.5t-82.5 88t-30 134.5t30 134.5t82.5 88t120.5 30.5q67 0 119.5 -30.5t82.5 -88t30 -134.5zM559 926h-125l-110 -137h108z" />
    <glyph glyph-name="uni1EE2" unicode="&#x1ee2;" horiz-adv-x="841" 
d="M695 790v-25q0 -65 -61 -65h-134q-46 11 -94 11q-103 0 -184 -45.5t-126 -127.5t-45 -188t45 -188t126 -127.5t184 -45.5t183 45t124.5 126.5t44.5 186.5q0 78 -30.5 143t-86.5 112h14q70 0 111 39t41 110v39h-112zM638 350q0 -77 -30 -134.5t-82.5 -88t-119.5 -30.5
q-68 0 -120.5 30.5t-82.5 88t-30 134.5t30 134.5t82.5 88t120.5 30.5q67 0 119.5 -30.5t82.5 -88t30 -134.5zM332 -129q0 -32 21 -51t52 -19q32 0 53 19t21 51q0 31 -21 50.5t-53 19.5q-31 0 -52 -19.5t-21 -50.5z" />
    <glyph glyph-name="uni1EDC" unicode="&#x1edc;" horiz-adv-x="841" 
d="M695 790v-25q0 -65 -61 -65h-134q-46 11 -94 11q-103 0 -184 -45.5t-126 -127.5t-45 -188t45 -188t126 -127.5t184 -45.5t183 45t124.5 126.5t44.5 186.5q0 78 -30.5 143t-86.5 112h14q70 0 111 39t41 110v39h-112zM638 350q0 -77 -30 -134.5t-82.5 -88t-119.5 -30.5
q-68 0 -120.5 30.5t-82.5 88t-30 134.5t30 134.5t82.5 88t120.5 30.5q67 0 119.5 -30.5t82.5 -88t30 -134.5zM487 789l-111 137h-124l126 -137h109z" />
    <glyph glyph-name="uni1EDE" unicode="&#x1ede;" horiz-adv-x="841" 
d="M695 790v-25q0 -65 -61 -65h-134q-46 11 -94 11q-103 0 -184 -45.5t-126 -127.5t-45 -188t45 -188t126 -127.5t184 -45.5t183 45t124.5 126.5t44.5 186.5q0 78 -30.5 143t-86.5 112h14q70 0 111 39t41 110v39h-112zM638 350q0 -77 -30 -134.5t-82.5 -88t-119.5 -30.5
q-68 0 -120.5 30.5t-82.5 88t-30 134.5t30 134.5t82.5 88t120.5 30.5q67 0 119.5 -30.5t82.5 -88t30 -134.5zM384 763h88q39 44 39 86q0 36 -31 61.5t-79 25.5q-69 0 -107 -52l57 -51q9 10 20 15.5t21 5.5q28 0 28 -25q0 -12 -8.5 -27t-27.5 -39z" />
    <glyph glyph-name="uni1EE0" unicode="&#x1ee0;" horiz-adv-x="841" 
d="M695 790v-25q0 -65 -61 -65h-134q-46 11 -94 11q-103 0 -184 -45.5t-126 -127.5t-45 -188t45 -188t126 -127.5t184 -45.5t183 45t124.5 126.5t44.5 186.5q0 78 -30.5 143t-86.5 112h14q70 0 111 39t41 110v39h-112zM638 350q0 -77 -30 -134.5t-82.5 -88t-119.5 -30.5
q-68 0 -120.5 30.5t-82.5 88t-30 134.5t30 134.5t82.5 88t120.5 30.5q67 0 119.5 -30.5t82.5 -88t30 -134.5zM390 821q22 -15 42 -23.5t47 -8.5q29 0 55 15.5t42 45.5t16 70h-90q0 -21 -8 -33t-21 -12q-9 0 -18 4.5t-23 13.5q-22 15 -42 23.5t-47 8.5q-29 0 -55 -16t-42 -46
t-16 -70h91q0 22 7.5 34t21.5 12q9 0 17.5 -4.5t22.5 -13.5z" />
    <glyph glyph-name="Ohungarumlaut" unicode="&#x150;" horiz-adv-x="811" 
d="M51 350q0 -106 45 -188t126 -127.5t184 -45.5t183.5 45.5t125.5 127.5t45 188t-45 188t-125.5 127.5t-183.5 45.5t-184 -45.5t-126 -127.5t-45 -188zM638 350q0 -77 -30 -134.5t-82.5 -88t-119.5 -30.5q-68 0 -120.5 30.5t-82.5 88t-30 134.5t30 134.5t82.5 88
t120.5 30.5q67 0 119.5 -30.5t82.5 -88t30 -134.5zM675 926h-125l-113 -137h106zM466 926h-119l-109 -137h107z" />
    <glyph glyph-name="Omacron" unicode="&#x14c;" horiz-adv-x="811" 
d="M51 350q0 -106 45 -188t126 -127.5t184 -45.5t183.5 45.5t125.5 127.5t45 188t-45 188t-125.5 127.5t-183.5 45.5t-184 -45.5t-126 -127.5t-45 -188zM638 350q0 -77 -30 -134.5t-82.5 -88t-119.5 -30.5q-68 0 -120.5 30.5t-82.5 88t-30 134.5t30 134.5t82.5 88
t120.5 30.5q67 0 119.5 -30.5t82.5 -88t30 -134.5zM573 815v88h-334v-88h334z" />
    <glyph glyph-name="Oslash" unicode="&#xd8;" horiz-adv-x="811" 
d="M760 658l-72 -77q72 -95 72 -231q0 -106 -45 -188t-125.5 -127.5t-183.5 -45.5q-122 0 -212 63l-71 -75l-72 65l73 78q-36 45 -54.5 103.5t-18.5 126.5q0 106 45 188t126 127.5t184 45.5q121 0 212 -63l72 77zM207 208l332 356q-58 39 -133 39q-68 0 -120.5 -30.5
t-82.5 -88t-30 -134.5q0 -82 34 -142zM604 492l-332 -356q58 -39 134 -39q67 0 119.5 30.5t82.5 88t30 134.5q0 82 -34 142z" />
    <glyph glyph-name="Otilde" unicode="&#xd5;" horiz-adv-x="811" 
d="M51 350q0 -106 45 -188t126 -127.5t184 -45.5t183.5 45.5t125.5 127.5t45 188t-45 188t-125.5 127.5t-183.5 45.5t-184 -45.5t-126 -127.5t-45 -188zM638 350q0 -77 -30 -134.5t-82.5 -88t-119.5 -30.5q-68 0 -120.5 30.5t-82.5 88t-30 134.5t30 134.5t82.5 88
t120.5 30.5q67 0 119.5 -30.5t82.5 -88t30 -134.5zM390 821q22 -15 42 -23.5t47 -8.5q29 0 55 15.5t42 45.5t16 70h-90q0 -21 -8 -33t-21 -12q-9 0 -18 4.5t-23 13.5q-22 15 -42 23.5t-47 8.5q-29 0 -55 -16t-42 -46t-16 -70h91q0 22 7.5 34t21.5 12q9 0 17.5 -4.5
t22.5 -13.5z" />
    <glyph glyph-name="OE" unicode="&#x152;" horiz-adv-x="1175" 
d="M1119 595h-366v-188h325v-102h-325v-200h366v-105h-483v96q-43 -52 -103.5 -79.5t-133.5 -27.5q-101 0 -179.5 45.5t-123 127.5t-44.5 188t44.5 188t123 127.5t179.5 45.5q73 0 133.5 -27.5t103.5 -79.5v96h483v-105zM526.5 127.5q52.5 30.5 82 88t29.5 134.5
t-29.5 134.5t-82 88t-120.5 30.5q-67 0 -119.5 -30.5t-82.5 -88t-30 -134.5t30 -134.5t82.5 -88t119.5 -30.5q68 0 120.5 30.5z" />
    <glyph glyph-name="P" unicode="P" horiz-adv-x="649" 
d="M538.5 638.5q69.5 -61.5 69.5 -167.5q0 -105 -69.5 -165.5t-191.5 -60.5h-148v-245h-116v700h263q123 0 192.5 -61.5zM338 347q70 0 108.5 31.5t38.5 92.5t-38.5 92.5t-108.5 31.5h-139v-248h139z" />
    <glyph glyph-name="Thorn" unicode="&#xde;" horiz-adv-x="645" 
d="M335 577q124 0 193.5 -61t69.5 -168q0 -106 -69 -166t-193 -60h-137v-122h-116v700h116v-123h136zM328 224q71 0 109.5 31.5t38.5 92.5t-38.5 92.5t-109.5 31.5h-129v-248h129z" />
    <glyph glyph-name="Q" unicode="Q" horiz-adv-x="811" 
d="M733.5 202.5q-26.5 -67.5 -75.5 -116.5l92 -115l-85 -66l-95 119q-73 -35 -164 -35q-103 0 -184 45.5t-126 127.5t-45 188t45 188t126 127.5t184 45.5t183.5 -45.5t125.5 -127.5t45 -188q0 -80 -26.5 -147.5zM498 114l-79 99l85 66l80 -101q54 68 54 172q0 77 -30 134.5
t-82.5 88t-119.5 30.5q-68 0 -120.5 -30.5t-82.5 -88t-30 -134.5t30 -134.5t82.5 -88t120.5 -30.5q49 0 92 17z" />
    <glyph glyph-name="R" unicode="R" horiz-adv-x="681" 
d="M509 0l-195 261h-115v-261h-116v700h276q116 0 183.5 -59t67.5 -163q0 -79 -45.5 -133.5t-124.5 -74.5l210 -270h-141zM199 595v-234h153q65 0 100.5 30t35.5 87q0 58 -35.5 87.5t-100.5 29.5h-153z" />
    <glyph glyph-name="Racute" unicode="&#x154;" horiz-adv-x="681" 
d="M509 0h141l-210 270q79 20 124.5 74.5t45.5 133.5q0 104 -67.5 163t-183.5 59h-276v-700h116v261h115zM199 595h153q65 0 100.5 -29.5t35.5 -87.5q0 -57 -35.5 -87t-100.5 -30h-153v234zM474 926h-125l-110 -137h108z" />
    <glyph glyph-name="Rcaron" unicode="&#x158;" horiz-adv-x="681" 
d="M509 0h141l-210 270q79 20 124.5 74.5t45.5 133.5q0 104 -67.5 163t-183.5 59h-276v-700h116v261h115zM199 595h153q65 0 100.5 -29.5t35.5 -87.5q0 -57 -35.5 -87t-100.5 -30h-153v234zM271 789h100l133 137h-119q-12 -14 -21 -23q-37 -41 -41 -49h-3q-6 10 -39 45
q-8 9 -14 16t-10 11h-119z" />
    <glyph glyph-name="uni0156" unicode="&#x156;" horiz-adv-x="681" 
d="M509 0h141l-210 270q79 20 124.5 74.5t45.5 133.5q0 104 -67.5 163t-183.5 59h-276v-700h116v261h115zM199 595h153q65 0 100.5 -29.5t35.5 -87.5q0 -57 -35.5 -87t-100.5 -30h-153v234zM415 -118q0 26 -19 42t-50 16t-50.5 -15.5t-19.5 -40.5q0 -19 13 -33t36 -19
l-46 -62l56 -31l55 77q25 36 25 66z" />
    <glyph glyph-name="uni1E58" unicode="&#x1e58;" horiz-adv-x="681" 
d="M509 0h141l-210 270q79 20 124.5 74.5t45.5 133.5q0 104 -67.5 163t-183.5 59h-276v-700h116v261h115zM199 595h153q65 0 100.5 -29.5t35.5 -87.5q0 -57 -35.5 -87t-100.5 -30h-153v234zM247 864q0 -32 21 -50.5t53 -18.5t52.5 18.5t20.5 50.5t-21 51t-52 19
q-32 0 -53 -19t-21 -51z" />
    <glyph glyph-name="uni1E5A" unicode="&#x1e5a;" horiz-adv-x="681" 
d="M509 0h141l-210 270q79 20 124.5 74.5t45.5 133.5q0 104 -67.5 163t-183.5 59h-276v-700h116v261h115zM199 595h153q65 0 100.5 -29.5t35.5 -87.5q0 -57 -35.5 -87t-100.5 -30h-153v234zM271 -129q0 -32 21 -51t52 -19q32 0 53 19t21 51q0 31 -21 50.5t-53 19.5
q-31 0 -52 -19.5t-21 -50.5z" />
    <glyph glyph-name="uni1E5C" unicode="&#x1e5c;" horiz-adv-x="681" 
d="M509 0h141l-210 270q79 20 124.5 74.5t45.5 133.5q0 104 -67.5 163t-183.5 59h-276v-700h116v261h115zM199 595h153q65 0 100.5 -29.5t35.5 -87.5q0 -57 -35.5 -87t-100.5 -30h-153v234zM488 815v88h-334v-88h334zM271 -129q0 -32 21 -51t52 -19q32 0 53 19t21 51
q0 31 -21 50.5t-53 19.5q-31 0 -52 -19.5t-21 -50.5z" />
    <glyph glyph-name="uni1E5E" unicode="&#x1e5e;" horiz-adv-x="681" 
d="M509 0h141l-210 270q79 20 124.5 74.5t45.5 133.5q0 104 -67.5 163t-183.5 59h-276v-700h116v261h115zM199 595h153q65 0 100.5 -29.5t35.5 -87.5q0 -57 -35.5 -87t-100.5 -30h-153v234zM511 -155v89h-333v-89h333z" />
    <glyph glyph-name="S" unicode="S" horiz-adv-x="635" 
d="M149.5 32.5q-73.5 43.5 -107.5 121.5l97 53q21 -51 69.5 -82.5t113.5 -31.5q70 0 111.5 25t41.5 67q0 37 -33.5 60.5t-111.5 44.5l-80 22q-95 26 -142 75.5t-47 124.5q0 58 32.5 103t90.5 70.5t133 25.5q93 0 160 -38.5t100 -110.5l-97 -49q-43 94 -161 94
q-64 0 -101 -23.5t-37 -63.5q0 -39 29 -61t91 -39l80 -22q107 -28 159.5 -78.5t52.5 -125.5q0 -62 -33 -108t-94 -71.5t-144 -25.5q-99 0 -172.5 43.5z" />
    <glyph glyph-name="Sacute" unicode="&#x15a;" horiz-adv-x="635" 
d="M42 154q34 -78 107.5 -121.5t172.5 -43.5q83 0 144 25.5t94 71.5t33 108q0 75 -52.5 125.5t-159.5 78.5l-80 22q-62 17 -91 39t-29 61q0 40 37 63.5t101 23.5q118 0 161 -94l97 49q-33 72 -100 110.5t-160 38.5q-75 0 -133 -25.5t-90.5 -70.5t-32.5 -103q0 -75 47 -124.5
t142 -75.5l80 -22q78 -21 111.5 -44.5t33.5 -60.5q0 -42 -41.5 -67t-111.5 -25q-65 0 -113.5 31.5t-69.5 82.5zM473 926h-125l-110 -137h108z" />
    <glyph glyph-name="Scaron" unicode="&#x160;" horiz-adv-x="635" 
d="M42 154q34 -78 107.5 -121.5t172.5 -43.5q83 0 144 25.5t94 71.5t33 108q0 75 -52.5 125.5t-159.5 78.5l-80 22q-62 17 -91 39t-29 61q0 40 37 63.5t101 23.5q118 0 161 -94l97 49q-33 72 -100 110.5t-160 38.5q-75 0 -133 -25.5t-90.5 -70.5t-32.5 -103q0 -75 47 -124.5
t142 -75.5l80 -22q78 -21 111.5 -44.5t33.5 -60.5q0 -42 -41.5 -67t-111.5 -25q-65 0 -113.5 31.5t-69.5 82.5zM270 789h100l133 137h-119q-12 -14 -21 -23q-37 -41 -41 -49h-3q-6 10 -39 45q-8 9 -14 16t-10 11h-119z" />
    <glyph glyph-name="Scedilla" unicode="&#x15e;" horiz-adv-x="635" 
d="M534.5 57q-58.5 -54 -161.5 -65l16 -14q39 -35 39 -75q0 -33 -26.5 -56t-71.5 -23h-90v94h58q13 0 21 6t8 16q0 15 -16 31l-18 19q-88 6 -154 49t-97 115l97 53q21 -51 69.5 -82.5t113.5 -31.5q70 0 111.5 25t41.5 67q0 37 -33.5 60.5t-111.5 44.5l-80 22
q-95 26 -142 75.5t-47 124.5q0 58 32.5 103t90.5 70.5t133 25.5q93 0 160 -38.5t100 -110.5l-97 -49q-43 94 -161 94q-64 0 -101 -23.5t-37 -63.5q0 -39 29 -61t91 -39l80 -22q107 -28 159.5 -78.5t52.5 -125.5q0 -83 -58.5 -137z" />
    <glyph glyph-name="Scircumflex" unicode="&#x15c;" horiz-adv-x="635" 
d="M42 154q34 -78 107.5 -121.5t172.5 -43.5q83 0 144 25.5t94 71.5t33 108q0 75 -52.5 125.5t-159.5 78.5l-80 22q-62 17 -91 39t-29 61q0 40 37 63.5t101 23.5q118 0 161 -94l97 49q-33 72 -100 110.5t-160 38.5q-75 0 -133 -25.5t-90.5 -70.5t-32.5 -103q0 -75 47 -124.5
t142 -75.5l80 -22q78 -21 111.5 -44.5t33.5 -60.5q0 -42 -41.5 -67t-111.5 -25q-65 0 -113.5 31.5t-69.5 82.5zM137 789h119l17 19q36 40 45 54h3q5 -10 42 -49q7 -8 12.5 -14t8.5 -10h119l-133 138h-100z" />
    <glyph glyph-name="uni0218" unicode="&#x218;" horiz-adv-x="635" 
d="M42 154q34 -78 107.5 -121.5t172.5 -43.5q83 0 144 25.5t94 71.5t33 108q0 75 -52.5 125.5t-159.5 78.5l-80 22q-62 17 -91 39t-29 61q0 40 37 63.5t101 23.5q118 0 161 -94l97 49q-33 72 -100 110.5t-160 38.5q-75 0 -133 -25.5t-90.5 -70.5t-32.5 -103q0 -75 47 -124.5
t142 -75.5l80 -22q78 -21 111.5 -44.5t33.5 -60.5q0 -42 -41.5 -67t-111.5 -25q-65 0 -113.5 31.5t-69.5 82.5zM393 -118q0 26 -19 42t-50 16t-50.5 -15.5t-19.5 -40.5q0 -19 13 -33t36 -19l-46 -62l56 -31l55 77q25 36 25 66z" />
    <glyph glyph-name="uni1E62" unicode="&#x1e62;" horiz-adv-x="635" 
d="M42 154q34 -78 107.5 -121.5t172.5 -43.5q83 0 144 25.5t94 71.5t33 108q0 75 -52.5 125.5t-159.5 78.5l-80 22q-62 17 -91 39t-29 61q0 40 37 63.5t101 23.5q118 0 161 -94l97 49q-33 72 -100 110.5t-160 38.5q-75 0 -133 -25.5t-90.5 -70.5t-32.5 -103q0 -75 47 -124.5
t142 -75.5l80 -22q78 -21 111.5 -44.5t33.5 -60.5q0 -42 -41.5 -67t-111.5 -25q-65 0 -113.5 31.5t-69.5 82.5zM249 -129q0 -32 21 -51t52 -19q32 0 53 19t21 51q0 31 -21 50.5t-53 19.5q-31 0 -52 -19.5t-21 -50.5z" />
    <glyph glyph-name="uni1E9E" unicode="&#x1e9e;" horiz-adv-x="736" 
d="M488 394q91 -12 147 -64t56 -132q0 -65 -31.5 -112.5t-87 -72t-126.5 -24.5q-53 0 -92 11.5t-70 35.5l49 96q45 -39 109 -39q59 0 93.5 29.5t34.5 79.5t-40.5 79t-115.5 29h-67v72l153 164q-20 29 -56.5 45.5t-85.5 16.5q-77 0 -120.5 -43.5t-43.5 -117.5v-447h-117v453
q0 75 32.5 133.5t97 91.5t155.5 33q103 0 172.5 -42.5t109.5 -114.5z" />
    <glyph glyph-name="uni018F" unicode="&#x18f;" horiz-adv-x="777" 
d="M553 666q81 -45 127 -127t46 -189t-46 -189t-125 -127t-176 -45q-99 0 -174 42.5t-116 120t-41 179.5q0 15 2 47h553q-5 70 -37 121t-83 78.5t-114 27.5q-65 0 -119 -32t-88 -93l-85 73q46 73 123.5 115.5t168.5 42.5q103 0 184 -45zM518.5 145q60.5 50 78.5 136h-427
q11 -88 66 -137t143 -49q79 0 139.5 50z" />
    <glyph glyph-name="T" unicode="T" horiz-adv-x="619" 
d="M32 700h555v-105h-219v-595h-117v595h-219v105z" />
    <glyph glyph-name="Tbar" unicode="&#x166;" horiz-adv-x="619" 
d="M587 700v-105h-219v-220h120v-95h-120v-280h-117v280h-119v95h119v220h-219v105h555z" />
    <glyph glyph-name="Tcaron" unicode="&#x164;" horiz-adv-x="619" 
d="M32 700v-105h219v-595h117v595h219v105h-555zM262 789h100l133 137h-119q-12 -14 -21 -23q-37 -41 -41 -49h-3q-6 10 -39 45q-8 9 -14 16t-10 11h-119z" />
    <glyph glyph-name="uni0162" unicode="&#x162;" horiz-adv-x="619" 
d="M368 595v-595h-27l25 -22q39 -35 39 -75q0 -33 -26.5 -56t-71.5 -23h-90v94h58q13 0 21 6t8 16q0 15 -16 31l-27 29h-10v595h-219v105h555v-105h-219z" />
    <glyph glyph-name="uni021A" unicode="&#x21a;" horiz-adv-x="619" 
d="M32 700v-105h219v-595h117v595h219v105h-555zM379 -118q0 26 -19 42t-50 16t-50.5 -15.5t-19.5 -40.5q0 -19 13 -33t36 -19l-46 -62l56 -31l55 77q25 36 25 66z" />
    <glyph glyph-name="uni1E6C" unicode="&#x1e6c;" horiz-adv-x="619" 
d="M32 700v-105h219v-595h117v595h219v105h-555zM236 -129q0 -32 21 -51t52 -19q32 0 53 19t21 51q0 31 -21 50.5t-53 19.5q-31 0 -52 -19.5t-21 -50.5z" />
    <glyph glyph-name="uni1E6E" unicode="&#x1e6e;" horiz-adv-x="619" 
d="M32 700v-105h219v-595h117v595h219v105h-555zM476 -155v89h-333v-89h333z" />
    <glyph glyph-name="U" unicode="U" horiz-adv-x="725" 
d="M650 287q0 -95 -36 -162t-101 -101.5t-150 -34.5q-86 0 -151 34.5t-101 101.5t-36 162v413h118v-407q0 -97 46 -146.5t124 -49.5t124 49.5t46 146.5v407h117v-413z" />
    <glyph glyph-name="Uacute" unicode="&#xda;" horiz-adv-x="725" 
d="M650 287v413h-117v-407q0 -97 -46 -146.5t-124 -49.5t-124 49.5t-46 146.5v407h-118v-413q0 -95 36 -162t101 -101.5t151 -34.5q85 0 150 34.5t101 101.5t36 162zM516 926h-125l-110 -137h108z" />
    <glyph glyph-name="Ubreve" unicode="&#x16c;" horiz-adv-x="725" 
d="M650 287v413h-117v-407q0 -97 -46 -146.5t-124 -49.5t-124 49.5t-46 146.5v407h-118v-413q0 -95 36 -162t101 -101.5t151 -34.5q85 0 150 34.5t101 101.5t36 162zM192 926q5 -66 51.5 -103.5t119.5 -37.5t119.5 37.5t51.5 103.5h-96q-7 -63 -75 -63t-75 63h-96z" />
    <glyph glyph-name="uni01D3" unicode="&#x1d3;" horiz-adv-x="725" 
d="M650 287v413h-117v-407q0 -97 -46 -146.5t-124 -49.5t-124 49.5t-46 146.5v407h-118v-413q0 -95 36 -162t101 -101.5t151 -34.5q85 0 150 34.5t101 101.5t36 162zM313 789h100l133 137h-119q-12 -14 -21 -23q-37 -41 -41 -49h-3q-6 10 -39 45q-8 9 -14 16t-10 11h-119z
" />
    <glyph glyph-name="Ucircumflex" unicode="&#xdb;" horiz-adv-x="725" 
d="M650 287v413h-117v-407q0 -97 -46 -146.5t-124 -49.5t-124 49.5t-46 146.5v407h-118v-413q0 -95 36 -162t101 -101.5t151 -34.5q85 0 150 34.5t101 101.5t36 162zM180 789h119l17 19q36 40 45 54h3q5 -10 42 -49q7 -8 12.5 -14t8.5 -10h119l-133 138h-100z" />
    <glyph glyph-name="Udieresis" unicode="&#xdc;" horiz-adv-x="725" 
d="M650 287v413h-117v-407q0 -97 -46 -146.5t-124 -49.5t-124 49.5t-46 146.5v407h-118v-413q0 -95 36 -162t101 -101.5t151 -34.5q85 0 150 34.5t101 101.5t36 162zM180 862q0 -31 20 -49.5t49 -18.5q30 0 49.5 18.5t19.5 49.5t-19.5 49t-49.5 18q-29 0 -49 -18t-20 -49z
M408 862q0 -31 19.5 -49.5t49.5 -18.5q29 0 48.5 18.5t19.5 49.5t-19.5 49t-48.5 18q-30 0 -49.5 -18t-19.5 -49z" />
    <glyph glyph-name="uni01D7" unicode="&#x1d7;" horiz-adv-x="725" 
d="M650 287v413h-117v-407q0 -97 -46 -146.5t-124 -49.5t-124 49.5t-46 146.5v407h-118v-413q0 -95 36 -162t101 -101.5t151 -34.5q85 0 150 34.5t101 101.5t36 162zM411 955l105 138h-125l-88 -138h108zM180 843q0 -31 20 -49.5t49 -18.5q30 0 49.5 18.5t19.5 49.5
t-19.5 49t-49.5 18q-29 0 -49 -18t-20 -49zM408 843q0 -31 19.5 -49.5t49.5 -18.5q29 0 48.5 18.5t19.5 49.5t-19.5 49t-48.5 18q-30 0 -49.5 -18t-19.5 -49z" />
    <glyph glyph-name="uni01D9" unicode="&#x1d9;" horiz-adv-x="725" 
d="M650 287v413h-117v-407q0 -97 -46 -146.5t-124 -49.5t-124 49.5t-46 146.5v407h-118v-413q0 -95 36 -162t101 -101.5t151 -34.5q85 0 150 34.5t101 101.5t36 162zM314 955h100l133 138h-119l-17 -19q-36 -40 -45 -54h-3q-5 10 -42 49q-7 8 -12.5 14t-8.5 10h-119z
M181 843q0 -31 19.5 -49.5t49.5 -18.5q29 0 48.5 18.5t19.5 49.5t-19.5 49t-48.5 18q-30 0 -49.5 -18t-19.5 -49zM409 843q0 -31 19.5 -49.5t49.5 -18.5q29 0 48.5 18.5t19.5 49.5t-19.5 49t-48.5 18q-30 0 -49.5 -18t-19.5 -49z" />
    <glyph glyph-name="uni01DB" unicode="&#x1db;" horiz-adv-x="725" 
d="M650 287v413h-117v-407q0 -97 -46 -146.5t-124 -49.5t-124 49.5t-46 146.5v407h-118v-413q0 -95 36 -162t101 -101.5t151 -34.5q85 0 150 34.5t101 101.5t36 162zM434 955l-89 138h-124l104 -138h109zM180 843q0 -31 20 -49.5t49 -18.5q30 0 49.5 18.5t19.5 49.5
t-19.5 49t-49.5 18q-29 0 -49 -18t-20 -49zM408 843q0 -31 19.5 -49.5t49.5 -18.5q29 0 48.5 18.5t19.5 49.5t-19.5 49t-48.5 18q-30 0 -49.5 -18t-19.5 -49z" />
    <glyph glyph-name="uni01D5" unicode="&#x1d5;" horiz-adv-x="725" 
d="M650 287v413h-117v-407q0 -97 -46 -146.5t-124 -49.5t-124 49.5t-46 146.5v407h-118v-413q0 -95 36 -162t101 -101.5t151 -34.5q85 0 150 34.5t101 101.5t36 162zM530 962v88h-334v-88h334zM180 843q0 -31 20 -49.5t49 -18.5q30 0 49.5 18.5t19.5 49.5t-19.5 49t-49.5 18
q-29 0 -49 -18t-20 -49zM408 843q0 -31 19.5 -49.5t49.5 -18.5q29 0 48.5 18.5t19.5 49.5t-19.5 49t-48.5 18q-30 0 -49.5 -18t-19.5 -49z" />
    <glyph glyph-name="uni1EE4" unicode="&#x1ee4;" horiz-adv-x="725" 
d="M650 287v413h-117v-407q0 -97 -46 -146.5t-124 -49.5t-124 49.5t-46 146.5v407h-118v-413q0 -95 36 -162t101 -101.5t151 -34.5q85 0 150 34.5t101 101.5t36 162zM288 -129q0 -32 21 -51t52 -19q32 0 53 19t21 51q0 31 -21 50.5t-53 19.5q-31 0 -52 -19.5t-21 -50.5z" />
    <glyph glyph-name="Ugrave" unicode="&#xd9;" horiz-adv-x="725" 
d="M650 287v413h-117v-407q0 -97 -46 -146.5t-124 -49.5t-124 49.5t-46 146.5v407h-118v-413q0 -95 36 -162t101 -101.5t151 -34.5q85 0 150 34.5t101 101.5t36 162zM445 789l-111 137h-124l126 -137h109z" />
    <glyph glyph-name="uni1EE6" unicode="&#x1ee6;" horiz-adv-x="725" 
d="M650 287v413h-117v-407q0 -97 -46 -146.5t-124 -49.5t-124 49.5t-46 146.5v407h-118v-413q0 -95 36 -162t101 -101.5t151 -34.5q85 0 150 34.5t101 101.5t36 162zM341 763h88q39 44 39 86q0 36 -31 61.5t-79 25.5q-69 0 -107 -52l57 -51q9 10 20 15.5t21 5.5q28 0 28 -25
q0 -12 -8.5 -27t-27.5 -39z" />
    <glyph glyph-name="Uhorn" unicode="&#x1af;" horiz-adv-x="864" 
d="M736 790h112v-39q0 -72 -41 -110.5t-111 -38.5h-46v-315q0 -95 -36 -162t-101 -101.5t-150 -34.5q-86 0 -151 34.5t-101 101.5t-36 162v413h118v-407q0 -97 46 -146.5t124 -49.5t124 49.5t46 146.5v407h142q61 0 61 65v25z" />
    <glyph glyph-name="uni1EE8" unicode="&#x1ee8;" horiz-adv-x="864" 
d="M736 790v-25q0 -65 -61 -65h-142v-407q0 -97 -46 -146.5t-124 -49.5t-124 49.5t-46 146.5v407h-118v-413q0 -95 36 -162t101 -101.5t151 -34.5q85 0 150 34.5t101 101.5t36 162v315h46q70 0 111 38.5t41 110.5v39h-112zM516 926h-125l-110 -137h108z" />
    <glyph glyph-name="uni1EF0" unicode="&#x1ef0;" horiz-adv-x="864" 
d="M736 790v-25q0 -65 -61 -65h-142v-407q0 -97 -46 -146.5t-124 -49.5t-124 49.5t-46 146.5v407h-118v-413q0 -95 36 -162t101 -101.5t151 -34.5q85 0 150 34.5t101 101.5t36 162v315h46q70 0 111 38.5t41 110.5v39h-112zM288 -129q0 -32 21 -51t52 -19q32 0 53 19t21 51
q0 31 -21 50.5t-53 19.5q-31 0 -52 -19.5t-21 -50.5z" />
    <glyph glyph-name="uni1EEA" unicode="&#x1eea;" horiz-adv-x="864" 
d="M736 790v-25q0 -65 -61 -65h-142v-407q0 -97 -46 -146.5t-124 -49.5t-124 49.5t-46 146.5v407h-118v-413q0 -95 36 -162t101 -101.5t151 -34.5q85 0 150 34.5t101 101.5t36 162v315h46q70 0 111 38.5t41 110.5v39h-112zM445 789l-111 137h-124l126 -137h109z" />
    <glyph glyph-name="uni1EEC" unicode="&#x1eec;" horiz-adv-x="864" 
d="M736 790v-25q0 -65 -61 -65h-142v-407q0 -97 -46 -146.5t-124 -49.5t-124 49.5t-46 146.5v407h-118v-413q0 -95 36 -162t101 -101.5t151 -34.5q85 0 150 34.5t101 101.5t36 162v315h46q70 0 111 38.5t41 110.5v39h-112zM341 763h88q39 44 39 86q0 36 -31 61.5t-79 25.5
q-69 0 -107 -52l57 -51q9 10 20 15.5t21 5.5q28 0 28 -25q0 -12 -8.5 -27t-27.5 -39z" />
    <glyph glyph-name="uni1EEE" unicode="&#x1eee;" horiz-adv-x="864" 
d="M736 790v-25q0 -65 -61 -65h-142v-407q0 -97 -46 -146.5t-124 -49.5t-124 49.5t-46 146.5v407h-118v-413q0 -95 36 -162t101 -101.5t151 -34.5q85 0 150 34.5t101 101.5t36 162v315h46q70 0 111 38.5t41 110.5v39h-112zM347 821q22 -15 42 -23.5t47 -8.5q29 0 55 15.5
t42 45.5t16 70h-90q0 -21 -8 -33t-21 -12q-9 0 -18 4.5t-23 13.5q-22 15 -42 23.5t-47 8.5q-29 0 -55 -16t-42 -46t-16 -70h91q0 22 7.5 34t21.5 12q9 0 17.5 -4.5t22.5 -13.5z" />
    <glyph glyph-name="Uhungarumlaut" unicode="&#x170;" horiz-adv-x="725" 
d="M650 287v413h-117v-407q0 -97 -46 -146.5t-124 -49.5t-124 49.5t-46 146.5v407h-118v-413q0 -95 36 -162t101 -101.5t151 -34.5q85 0 150 34.5t101 101.5t36 162zM632 926h-125l-113 -137h106zM423 926h-119l-109 -137h107z" />
    <glyph glyph-name="Umacron" unicode="&#x16a;" horiz-adv-x="725" 
d="M650 287v413h-117v-407q0 -97 -46 -146.5t-124 -49.5t-124 49.5t-46 146.5v407h-118v-413q0 -95 36 -162t101 -101.5t151 -34.5q85 0 150 34.5t101 101.5t36 162zM530 815v88h-334v-88h334z" />
    <glyph glyph-name="Uogonek" unicode="&#x172;" horiz-adv-x="725" 
d="M533 700h117v-413q0 -116 -53.5 -190t-147.5 -98l-26 -28q-15 -17 -15 -31q0 -10 8 -16t21 -6h31v-94h-63q-46 0 -72 23t-26 56q0 41 39 75l13 11q-85 1 -149 36t-99.5 101.5t-35.5 160.5v413h118v-407q0 -97 46 -146.5t124 -49.5t124 49.5t46 146.5v407z" />
    <glyph glyph-name="Uring" unicode="&#x16e;" horiz-adv-x="725" 
d="M650 287v413h-117v-407q0 -97 -46 -146.5t-124 -49.5t-124 49.5t-46 146.5v407h-118v-413q0 -95 36 -162t101 -101.5t151 -34.5q85 0 150 34.5t101 101.5t36 162zM229 878q0 -48 37.5 -79t96.5 -31t96 31t37 79t-37 79t-96 31t-96.5 -31t-37.5 -79zM421 878
q0 -20 -15 -32.5t-43 -12.5t-43 12.5t-15 32.5t15 32.5t43 12.5t43 -12.5t15 -32.5z" />
    <glyph glyph-name="Utilde" unicode="&#x168;" horiz-adv-x="725" 
d="M650 287v413h-117v-407q0 -97 -46 -146.5t-124 -49.5t-124 49.5t-46 146.5v407h-118v-413q0 -95 36 -162t101 -101.5t151 -34.5q85 0 150 34.5t101 101.5t36 162zM347 821q22 -15 42 -23.5t47 -8.5q29 0 55 15.5t42 45.5t16 70h-90q0 -21 -8 -33t-21 -12q-9 0 -18 4.5
t-23 13.5q-22 15 -42 23.5t-47 8.5q-29 0 -55 -16t-42 -46t-16 -70h91q0 22 7.5 34t21.5 12q9 0 17.5 -4.5t22.5 -13.5z" />
    <glyph glyph-name="V" unicode="V" horiz-adv-x="691" 
d="M319 235q26 -74 26 -92h4q0 18 26 92l172 465h121l-266 -700h-113l-266 700h124z" />
    <glyph glyph-name="W" unicode="W" horiz-adv-x="1017" 
d="M697 277q28 -86 28 -105h4q0 10 6.5 40.5t16.5 65.5l121 422h118l-207 -700h-109l-139 421q-26 80 -26 99h-4q0 -19 -26 -99l-138 -421h-109l-207 700h121l119 -423q24 -85 24 -106h3q2 24 28 105l136 424h104z" />
    <glyph glyph-name="Wacute" unicode="&#x1e82;" horiz-adv-x="1017" 
d="M697 277l-136 423h-104l-136 -424q-26 -81 -28 -105h-3q0 21 -24 106l-119 423h-121l207 -700h109l138 421q26 80 26 99h4q0 -19 26 -99l139 -421h109l207 700h-118l-121 -422q-10 -35 -16.5 -65.5t-6.5 -40.5h-4q0 19 -28 105zM662 926h-125l-110 -137h108z" />
    <glyph glyph-name="Wcircumflex" unicode="&#x174;" horiz-adv-x="1017" 
d="M697 277l-136 423h-104l-136 -424q-26 -81 -28 -105h-3q0 21 -24 106l-119 423h-121l207 -700h109l138 421q26 80 26 99h4q0 -19 26 -99l139 -421h109l207 700h-118l-121 -422q-10 -35 -16.5 -65.5t-6.5 -40.5h-4q0 19 -28 105zM326 789h119l17 19q36 40 45 54h3
q5 -10 42 -49q7 -8 12.5 -14t8.5 -10h119l-133 138h-100z" />
    <glyph glyph-name="Wdieresis" unicode="&#x1e84;" horiz-adv-x="1017" 
d="M697 277l-136 423h-104l-136 -424q-26 -81 -28 -105h-3q0 21 -24 106l-119 423h-121l207 -700h109l138 421q26 80 26 99h4q0 -19 26 -99l139 -421h109l207 700h-118l-121 -422q-10 -35 -16.5 -65.5t-6.5 -40.5h-4q0 19 -28 105zM325 862q0 -31 20 -49.5t49 -18.5
q30 0 49.5 18.5t19.5 49.5t-19.5 49t-49.5 18q-29 0 -49 -18t-20 -49zM553 862q0 -31 19.5 -49.5t49.5 -18.5q29 0 48.5 18.5t19.5 49.5t-19.5 49t-48.5 18q-30 0 -49.5 -18t-19.5 -49z" />
    <glyph glyph-name="uni1E88" unicode="&#x1e88;" horiz-adv-x="1017" 
d="M697 277l-136 423h-104l-136 -424q-26 -81 -28 -105h-3q0 21 -24 106l-119 423h-121l207 -700h109l138 421q26 80 26 99h4q0 -19 26 -99l139 -421h109l207 700h-118l-121 -422q-10 -35 -16.5 -65.5t-6.5 -40.5h-4q0 19 -28 105zM435 -129q0 -32 21 -51t52 -19q32 0 53 19
t21 51q0 31 -21 50.5t-53 19.5q-31 0 -52 -19.5t-21 -50.5z" />
    <glyph glyph-name="Wgrave" unicode="&#x1e80;" horiz-adv-x="1017" 
d="M697 277l-136 423h-104l-136 -424q-26 -81 -28 -105h-3q0 21 -24 106l-119 423h-121l207 -700h109l138 421q26 80 26 99h4q0 -19 26 -99l139 -421h109l207 700h-118l-121 -422q-10 -35 -16.5 -65.5t-6.5 -40.5h-4q0 19 -28 105zM590 789l-111 137h-124l126 -137h109z" />
    <glyph glyph-name="X" unicode="X" horiz-adv-x="677" 
d="M407 356l257 -356h-136l-133 182q-20 27 -37.5 53t-18.5 35h-4q-4 -17 -55 -88l-134 -182h-134l258 354l-250 346h136l128 -174q52 -75 54 -88h4q3 19 53 88l128 174h134z" />
    <glyph glyph-name="Y" unicode="Y" horiz-adv-x="716" 
d="M555 700h132l-270 -372v-328h-117v328l-274 372h137l196 -260z" />
    <glyph glyph-name="Yacute" unicode="&#xdd;" horiz-adv-x="716" 
d="M555 700l-196 -260l-196 260h-137l274 -372v-328h117v328l270 372h-132zM512 926h-125l-110 -137h108z" />
    <glyph glyph-name="Ycircumflex" unicode="&#x176;" horiz-adv-x="716" 
d="M555 700l-196 -260l-196 260h-137l274 -372v-328h117v328l270 372h-132zM176 789h119l17 19q36 40 45 54h3q5 -10 42 -49q7 -8 12.5 -14t8.5 -10h119l-133 138h-100z" />
    <glyph glyph-name="Ydieresis" unicode="&#x178;" horiz-adv-x="716" 
d="M555 700l-196 -260l-196 260h-137l274 -372v-328h117v328l270 372h-132zM176 862q0 -31 20 -49.5t49 -18.5q30 0 49.5 18.5t19.5 49.5t-19.5 49t-49.5 18q-29 0 -49 -18t-20 -49zM404 862q0 -31 19.5 -49.5t49.5 -18.5q29 0 48.5 18.5t19.5 49.5t-19.5 49t-48.5 18
q-30 0 -49.5 -18t-19.5 -49z" />
    <glyph glyph-name="uni1EF4" unicode="&#x1ef4;" horiz-adv-x="716" 
d="M555 700l-196 -260l-196 260h-137l274 -372v-328h117v328l270 372h-132zM284 -129q0 -32 21 -51t52 -19q32 0 53 19t21 51q0 31 -21 50.5t-53 19.5q-31 0 -52 -19.5t-21 -50.5z" />
    <glyph glyph-name="Ygrave" unicode="&#x1ef2;" horiz-adv-x="716" 
d="M555 700l-196 -260l-196 260h-137l274 -372v-328h117v328l270 372h-132zM441 789l-111 137h-124l126 -137h109z" />
    <glyph glyph-name="uni1EF6" unicode="&#x1ef6;" horiz-adv-x="716" 
d="M555 700l-196 -260l-196 260h-137l274 -372v-328h117v328l270 372h-132zM337 763h88q39 44 39 86q0 36 -31 61.5t-79 25.5q-69 0 -107 -52l57 -51q9 10 20 15.5t21 5.5q28 0 28 -25q0 -12 -8.5 -27t-27.5 -39z" />
    <glyph glyph-name="uni0232" unicode="&#x232;" horiz-adv-x="716" 
d="M555 700l-196 -260l-196 260h-137l274 -372v-328h117v328l270 372h-132zM526 815v88h-334v-88h334z" />
    <glyph glyph-name="uni1EF8" unicode="&#x1ef8;" horiz-adv-x="716" 
d="M555 700l-196 -260l-196 260h-137l274 -372v-328h117v328l270 372h-132zM343 821q22 -15 42 -23.5t47 -8.5q29 0 55 15.5t42 45.5t16 70h-90q0 -21 -8 -33t-21 -12q-9 0 -18 4.5t-23 13.5q-22 15 -42 23.5t-47 8.5q-29 0 -55 -16t-42 -46t-16 -70h91q0 22 7.5 34t21.5 12
q9 0 17.5 -4.5t22.5 -13.5z" />
    <glyph glyph-name="Z" unicode="Z" horiz-adv-x="609" 
d="M43 0v91l329 451q33 47 52 58l-1 3q-17 -8 -78 -8h-294v105h510v-91l-329 -451q-33 -47 -52 -58l1 -3q17 8 78 8h305v-105h-521z" />
    <glyph glyph-name="Zacute" unicode="&#x179;" horiz-adv-x="609" 
d="M43 0h521v105h-305q-61 0 -78 -8l-1 3q19 11 52 58l329 451v91h-510v-105h294q61 0 78 8l1 -3q-19 -11 -52 -58l-329 -451v-91zM458 926h-125l-110 -137h108z" />
    <glyph glyph-name="Zcaron" unicode="&#x17d;" horiz-adv-x="609" 
d="M43 0h521v105h-305q-61 0 -78 -8l-1 3q19 11 52 58l329 451v91h-510v-105h294q61 0 78 8l1 -3q-19 -11 -52 -58l-329 -451v-91zM255 789h100l133 137h-119q-12 -14 -21 -23q-37 -41 -41 -49h-3q-6 10 -39 45q-8 9 -14 16t-10 11h-119z" />
    <glyph glyph-name="Zdotaccent" unicode="&#x17b;" horiz-adv-x="609" 
d="M43 0h521v105h-305q-61 0 -78 -8l-1 3q19 11 52 58l329 451v91h-510v-105h294q61 0 78 8l1 -3q-19 -11 -52 -58l-329 -451v-91zM231 864q0 -32 21 -50.5t53 -18.5t52.5 18.5t20.5 50.5t-21 51t-52 19q-32 0 -53 -19t-21 -51z" />
    <glyph glyph-name="uni1E92" unicode="&#x1e92;" horiz-adv-x="609" 
d="M43 0h521v105h-305q-61 0 -78 -8l-1 3q19 11 52 58l329 451v91h-510v-105h294q61 0 78 8l1 -3q-19 -11 -52 -58l-329 -451v-91zM230 -129q0 -32 21 -51t52 -19q32 0 53 19t21 51q0 31 -21 50.5t-53 19.5q-31 0 -52 -19.5t-21 -50.5z" />
    <glyph glyph-name="uni1E94" unicode="&#x1e94;" horiz-adv-x="609" 
d="M43 0h521v105h-305q-61 0 -78 -8l-1 3q19 11 52 58l329 451v91h-510v-105h294q61 0 78 8l1 -3q-19 -11 -52 -58l-329 -451v-91zM470 -155v89h-333v-89h333z" />
    <glyph glyph-name="uni1E96.case" horiz-adv-x="739" 
d="M540 406h-341v294h-116v-700h116v301h341v-301h117v700h-117v-294zM530 -155v89h-333v-89h333z" />
    <glyph glyph-name="uni013B.latnMAH" horiz-adv-x="568" 
d="M536 105v-105h-195l25 -22q38 -34 38 -75q0 -33 -26 -56t-72 -23h-89v94h58q13 0 20.5 6t7.5 16q0 14 -15 31l-27 29h-178v700h117v-595h336z" />
    <glyph glyph-name="uni0145.latnMAH" horiz-adv-x="759" 
d="M559 700v-415q0 -82 6 -103l-3 -1q-4 10 -20 35.5t-36 51.5l-317 432h-106v-700h116v415q0 82 -6 103l3 1q8 -20 56 -87l317 -432h107v700h-117zM288 -176h90q45 0 71 23t26 56q0 41 -38 75l-33 29l-72 -7l27 -29q15 -15 15 -31q0 -10 -7.5 -16t-20.5 -6h-58v-94z" />
    <glyph glyph-name="Aogonek.latnNAV" horiz-adv-x="708" 
d="M689 0l-278 700h-113l-277 -700h121l73 192h276l73 -192h125zM252 290l73 193q26 71 26 89h4q0 -18 26 -89l73 -193h-202zM372 -176h63v94h-31q-13 0 -21 6t-8 16q0 14 15 31l27 29l-71 7l-33 -29q-39 -35 -39 -75q0 -33 26 -56t72 -23z" />
    <glyph glyph-name="Eogonek.latnNAV" horiz-adv-x="621" 
d="M566 595h-366v-188h325v-102h-325v-200h366v-105h-171l-27 -29q-15 -15 -15 -31q0 -10 7.5 -16t20.5 -6h31v-94h-63q-45 0 -71.5 23t-26.5 56q0 40 39 75l25 22h-232v700h483v-105z" />
    <glyph glyph-name="J.latnNLD" horiz-adv-x="540" 
d="M20 136q29 -68 82 -107.5t133 -39.5q103 0 165 60.5t62 171.5v479h-116v-474q0 -63 -30.5 -96t-83.5 -33q-43 0 -72.5 25t-45.5 65zM558 926h-125l-110 -137h108z" />
    <glyph glyph-name="Eng.latnNSM" horiz-adv-x="754" 
d="M559 700h117v-715q0 -76 -42 -120t-119 -44h-66v104h53q31 0 44 19t13 57v14l-307 417q-48 67 -56 87l-3 -1q6 -21 6 -103v-415h-116v700h106l317 -432q20 -26 36 -51.5t20 -35.5l3 1q-6 21 -6 103v415z" />
    <glyph glyph-name="a" unicode="a" horiz-adv-x="569" 
d="M384 499.5q53 -22.5 85 -68t32 -112.5v-319h-104v50q-23 -30 -62.5 -45.5t-92.5 -15.5q-88 0 -144 42.5t-56 115.5t57.5 116t149.5 43q47 0 83 -13t59 -37v53q0 56 -34.5 85t-92.5 29q-41 0 -72.5 -17t-49.5 -48l-79 62q31 51 84.5 76.5t120.5 25.5q63 0 116 -22.5z
M360.5 92q32.5 20 32.5 56q0 37 -32.5 57t-85.5 20t-86 -20t-33 -57q0 -36 33 -56t86 -20t85.5 20z" />
    <glyph glyph-name="aacute" unicode="&#xe1;" horiz-adv-x="569" 
d="M501 319q0 67 -32 112.5t-85 68t-116 22.5q-67 0 -120.5 -25.5t-84.5 -76.5l79 -62q18 31 49.5 48t72.5 17q58 0 92.5 -29t34.5 -85v-53q-23 24 -59 37t-83 13q-92 0 -149.5 -43t-57.5 -116t56 -115.5t144 -42.5q53 0 92.5 15.5t62.5 45.5v-50h104v319zM393 148
q0 -36 -32.5 -56t-85.5 -20t-86 20t-33 56q0 37 33 57t86 20t85.5 -20t32.5 -57zM433 737h-125l-110 -137h108z" />
    <glyph glyph-name="abreve" unicode="&#x103;" horiz-adv-x="569" 
d="M501 319q0 67 -32 112.5t-85 68t-116 22.5q-67 0 -120.5 -25.5t-84.5 -76.5l79 -62q18 31 49.5 48t72.5 17q58 0 92.5 -29t34.5 -85v-53q-23 24 -59 37t-83 13q-92 0 -149.5 -43t-57.5 -116t56 -115.5t144 -42.5q53 0 92.5 15.5t62.5 45.5v-50h104v319zM108 737
q5 -66 51.5 -103.5t119.5 -37.5t119.5 37.5t51.5 103.5h-96q-7 -63 -75 -63t-75 63h-96zM393 148q0 -36 -32.5 -56t-85.5 -20t-86 20t-33 56q0 37 33 57t86 20t85.5 -20t32.5 -57z" />
    <glyph glyph-name="uni1EAF" unicode="&#x1eaf;" horiz-adv-x="569" 
d="M501 319q0 67 -32 112.5t-85 68t-116 22.5q-67 0 -120.5 -25.5t-84.5 -76.5l79 -62q18 31 49.5 48t72.5 17q58 0 92.5 -29t34.5 -85v-53q-23 24 -59 37t-83 13q-92 0 -149.5 -43t-57.5 -116t56 -115.5t144 -42.5q53 0 92.5 15.5t62.5 45.5v-50h104v319zM108 725
q4 -66 51 -104t119 -38q73 0 120 37.5t51 104.5h-96q-3 -32 -22.5 -48t-52.5 -16q-32 0 -51.5 16t-22.5 48h-96zM393 148q0 -36 -32.5 -56t-85.5 -20t-86 20t-33 56q0 37 33 57t86 20t85.5 -20t32.5 -57zM313 752l89 110h-125l-70 -110h106z" />
    <glyph glyph-name="uni1EB7" unicode="&#x1eb7;" horiz-adv-x="569" 
d="M501 319q0 67 -32 112.5t-85 68t-116 22.5q-67 0 -120.5 -25.5t-84.5 -76.5l79 -62q18 31 49.5 48t72.5 17q58 0 92.5 -29t34.5 -85v-53q-23 24 -59 37t-83 13q-92 0 -149.5 -43t-57.5 -116t56 -115.5t144 -42.5q53 0 92.5 15.5t62.5 45.5v-50h104v319zM108 737
q5 -66 51.5 -103.5t119.5 -37.5t119.5 37.5t51.5 103.5h-96q-7 -63 -75 -63t-75 63h-96zM393 148q0 -36 -32.5 -56t-85.5 -20t-86 20t-33 56q0 37 33 57t86 20t85.5 -20t32.5 -57zM208 -129q0 -32 21 -51t52 -19q32 0 53 19t21 51q0 31 -21 50.5t-53 19.5q-31 0 -52 -19.5
t-21 -50.5z" />
    <glyph glyph-name="uni1EB1" unicode="&#x1eb1;" horiz-adv-x="569" 
d="M501 319q0 67 -32 112.5t-85 68t-116 22.5q-67 0 -120.5 -25.5t-84.5 -76.5l79 -62q18 31 49.5 48t72.5 17q58 0 92.5 -29t34.5 -85v-53q-23 24 -59 37t-83 13q-92 0 -149.5 -43t-57.5 -116t56 -115.5t144 -42.5q53 0 92.5 15.5t62.5 45.5v-50h104v319zM108 725
q4 -66 51 -104t119 -38q73 0 120 37.5t51 104.5h-96q-3 -32 -22.5 -48t-52.5 -16q-32 0 -51.5 16t-22.5 48h-96zM393 148q0 -36 -32.5 -56t-85.5 -20t-86 20t-33 56q0 37 33 57t86 20t85.5 -20t32.5 -57zM352 752l-70 110h-125l89 -110h106z" />
    <glyph glyph-name="uni1EB3" unicode="&#x1eb3;" horiz-adv-x="569" 
d="M501 319q0 67 -32 112.5t-85 68t-116 22.5q-67 0 -120.5 -25.5t-84.5 -76.5l79 -62q18 31 49.5 48t72.5 17q58 0 92.5 -29t34.5 -85v-53q-23 24 -59 37t-83 13q-92 0 -149.5 -43t-57.5 -116t56 -115.5t144 -42.5q53 0 92.5 15.5t62.5 45.5v-50h104v319zM109 725
q4 -66 51 -104t119 -38q73 0 120 37.5t51 104.5h-96q-3 -32 -22.5 -48t-52.5 -16q-32 0 -51.5 16t-22.5 48h-96zM393 148q0 -36 -32.5 -56t-85.5 -20t-86 20t-33 56q0 37 33 57t86 20t85.5 -20t32.5 -57zM247 760h88q39 46 39 87q0 36 -31 61t-79 25q-69 0 -107 -51l58 -52
q8 10 19 16t22 6q13 0 20.5 -7t7.5 -18t-8.5 -26.5t-28.5 -40.5z" />
    <glyph glyph-name="uni1EB5" unicode="&#x1eb5;" horiz-adv-x="569" 
d="M501 319q0 67 -32 112.5t-85 68t-116 22.5q-67 0 -120.5 -25.5t-84.5 -76.5l79 -62q18 31 49.5 48t72.5 17q58 0 92.5 -29t34.5 -85v-53q-23 24 -59 37t-83 13q-92 0 -149.5 -43t-57.5 -116t56 -115.5t144 -42.5q53 0 92.5 15.5t62.5 45.5v-50h104v319zM108 725
q4 -67 51 -104.5t120 -37.5q72 0 119 38t51 104h-96q-6 -64 -74 -64t-75 64h-96zM261 791q23 -12 42 -18.5t46 -6.5q43 0 75.5 32t32.5 84h-90q0 -17 -8 -27t-21 -10q-9 0 -19.5 4.5t-21.5 10.5q-21 12 -41 19t-47 7q-43 0 -75.5 -32t-32.5 -84h90q0 16 8 26t21 10
q9 0 19.5 -4.5t21.5 -10.5zM393 148q0 -36 -32.5 -56t-85.5 -20t-86 20t-33 56q0 37 33 57t86 20t85.5 -20t32.5 -57z" />
    <glyph glyph-name="uni01CE" unicode="&#x1ce;" horiz-adv-x="569" 
d="M501 319q0 67 -32 112.5t-85 68t-116 22.5q-67 0 -120.5 -25.5t-84.5 -76.5l79 -62q18 31 49.5 48t72.5 17q58 0 92.5 -29t34.5 -85v-53q-23 24 -59 37t-83 13q-92 0 -149.5 -43t-57.5 -116t56 -115.5t144 -42.5q53 0 92.5 15.5t62.5 45.5v-50h104v319zM393 148
q0 -36 -32.5 -56t-85.5 -20t-86 20t-33 56q0 37 33 57t86 20t85.5 -20t32.5 -57zM230 600h100l133 137h-119q-12 -14 -21 -23q-37 -41 -41 -49h-3q-6 10 -39 45q-8 9 -14 16t-10 11h-119z" />
    <glyph glyph-name="acircumflex" unicode="&#xe2;" horiz-adv-x="569" 
d="M501 319q0 67 -32 112.5t-85 68t-116 22.5q-67 0 -120.5 -25.5t-84.5 -76.5l79 -62q18 31 49.5 48t72.5 17q58 0 92.5 -29t34.5 -85v-53q-23 24 -59 37t-83 13q-92 0 -149.5 -43t-57.5 -116t56 -115.5t144 -42.5q53 0 92.5 15.5t62.5 45.5v-50h104v319zM393 148
q0 -36 -32.5 -56t-85.5 -20t-86 20t-33 56q0 37 33 57t86 20t85.5 -20t32.5 -57zM97 600h119l17 19q36 40 45 54h3q5 -10 42 -49q7 -8 12.5 -14t8.5 -10h119l-133 138h-100z" />
    <glyph glyph-name="uni1EA5" unicode="&#x1ea5;" horiz-adv-x="569" 
d="M501 319q0 67 -32 112.5t-85 68t-116 22.5q-67 0 -120.5 -25.5t-84.5 -76.5l79 -62q18 31 49.5 48t72.5 17q58 0 92.5 -29t34.5 -85v-53q-23 24 -59 37t-83 13q-92 0 -149.5 -43t-57.5 -116t56 -115.5t144 -42.5q53 0 92.5 15.5t62.5 45.5v-50h104v319zM393 148
q0 -36 -32.5 -56t-85.5 -20t-86 20t-33 56q0 37 33 57t86 20t85.5 -20t32.5 -57zM98 585h119q4 4 10 11t14 16q34 38 39 45h3q3 -7 19.5 -25t20.5 -23l22 -24h119l-133 137h-99zM595 809h-119l-70 -124h100z" />
    <glyph glyph-name="uni1EAD" unicode="&#x1ead;" horiz-adv-x="569" 
d="M501 319q0 67 -32 112.5t-85 68t-116 22.5q-67 0 -120.5 -25.5t-84.5 -76.5l79 -62q18 31 49.5 48t72.5 17q58 0 92.5 -29t34.5 -85v-53q-23 24 -59 37t-83 13q-92 0 -149.5 -43t-57.5 -116t56 -115.5t144 -42.5q53 0 92.5 15.5t62.5 45.5v-50h104v319zM393 148
q0 -36 -32.5 -56t-85.5 -20t-86 20t-33 56q0 37 33 57t86 20t85.5 -20t32.5 -57zM97 600h119l17 19q36 40 45 54h3q5 -10 42 -49q7 -8 12.5 -14t8.5 -10h119l-133 138h-100zM208 -129q0 -32 21 -51t52 -19q32 0 53 19t21 51q0 31 -21 50.5t-53 19.5q-31 0 -52 -19.5
t-21 -50.5z" />
    <glyph glyph-name="uni1EA7" unicode="&#x1ea7;" horiz-adv-x="569" 
d="M501 319q0 67 -32 112.5t-85 68t-116 22.5q-67 0 -120.5 -25.5t-84.5 -76.5l79 -62q18 31 49.5 48t72.5 17q58 0 92.5 -29t34.5 -85v-53q-23 24 -59 37t-83 13q-92 0 -149.5 -43t-57.5 -116t56 -115.5t144 -42.5q53 0 92.5 15.5t62.5 45.5v-50h104v319zM393 148
q0 -36 -32.5 -56t-85.5 -20t-86 20t-33 56q0 37 33 57t86 20t85.5 -20t32.5 -57zM97 585h119q4 4 10 11t14 16q34 38 39 45h3q3 -7 19.5 -25t20.5 -23l22 -24h119l-133 137h-99zM533 685l-70 124h-119l89 -124h100z" />
    <glyph glyph-name="uni1EA9" unicode="&#x1ea9;" horiz-adv-x="569" 
d="M501 319q0 67 -32 112.5t-85 68t-116 22.5q-67 0 -120.5 -25.5t-84.5 -76.5l79 -62q18 31 49.5 48t72.5 17q58 0 92.5 -29t34.5 -85v-53q-23 24 -59 37t-83 13q-92 0 -149.5 -43t-57.5 -116t56 -115.5t144 -42.5q53 0 92.5 15.5t62.5 45.5v-50h104v319zM393 148
q0 -36 -32.5 -56t-85.5 -20t-86 20t-33 56q0 37 33 57t86 20t85.5 -20t32.5 -57zM96 585h119q4 4 10 11t14 16q34 38 39 45h3q3 -7 19.5 -25t20.5 -23l22 -24h119l-133 137h-99zM393 694h88q39 44 39 86q0 36 -31 61t-79 25q-72 0 -107 -51l57 -52q9 10 20 16t21 6
q28 0 28 -25q0 -12 -8.5 -27t-27.5 -39z" />
    <glyph glyph-name="uni1EAB" unicode="&#x1eab;" horiz-adv-x="569" 
d="M501 319q0 67 -32 112.5t-85 68t-116 22.5q-67 0 -120.5 -25.5t-84.5 -76.5l79 -62q18 31 49.5 48t72.5 17q58 0 92.5 -29t34.5 -85v-53q-23 24 -59 37t-83 13q-92 0 -149.5 -43t-57.5 -116t56 -115.5t144 -42.5q53 0 92.5 15.5t62.5 45.5v-50h104v319zM262 790
q24 -12 43 -19t46 -7t52.5 14.5t41 41.5t15.5 62h-91q0 -17 -8 -27t-21 -10q-9 0 -19 4.5t-21 10.5q-24 12 -43 19t-46 7q-44 0 -76.5 -32.5t-32.5 -85.5h91q0 17 7.5 27t21.5 10q9 0 19 -4.5t21 -10.5zM393 148q0 -36 -32.5 -56t-85.5 -20t-86 20t-33 56q0 37 33 57t86 20
t85.5 -20t32.5 -57zM96 585h119q12 14 21 23q37 41 41 49h3q6 -10 39 -45q8 -9 14 -16t10 -11h119l-133 137h-100z" />
    <glyph glyph-name="adieresis" unicode="&#xe4;" horiz-adv-x="569" 
d="M501 319q0 67 -32 112.5t-85 68t-116 22.5q-67 0 -120.5 -25.5t-84.5 -76.5l79 -62q18 31 49.5 48t72.5 17q58 0 92.5 -29t34.5 -85v-53q-23 24 -59 37t-83 13q-92 0 -149.5 -43t-57.5 -116t56 -115.5t144 -42.5q53 0 92.5 15.5t62.5 45.5v-50h104v319zM393 148
q0 -36 -32.5 -56t-85.5 -20t-86 20t-33 56q0 37 33 57t86 20t85.5 -20t32.5 -57zM96 673q0 -31 20 -49.5t49 -18.5q30 0 49.5 18.5t19.5 49.5t-19.5 49t-49.5 18q-29 0 -49 -18t-20 -49zM324 673q0 -31 19.5 -49.5t49.5 -18.5q29 0 48.5 18.5t19.5 49.5t-19.5 49t-48.5 18
q-30 0 -49.5 -18t-19.5 -49z" />
    <glyph glyph-name="uni1EA1" unicode="&#x1ea1;" horiz-adv-x="569" 
d="M501 319q0 67 -32 112.5t-85 68t-116 22.5q-67 0 -120.5 -25.5t-84.5 -76.5l79 -62q18 31 49.5 48t72.5 17q58 0 92.5 -29t34.5 -85v-53q-23 24 -59 37t-83 13q-92 0 -149.5 -43t-57.5 -116t56 -115.5t144 -42.5q53 0 92.5 15.5t62.5 45.5v-50h104v319zM393 148
q0 -36 -32.5 -56t-85.5 -20t-86 20t-33 56q0 37 33 57t86 20t85.5 -20t32.5 -57zM208 -129q0 -32 21 -51t52 -19q32 0 53 19t21 51q0 31 -21 50.5t-53 19.5q-31 0 -52 -19.5t-21 -50.5z" />
    <glyph glyph-name="agrave" unicode="&#xe0;" horiz-adv-x="569" 
d="M501 319q0 67 -32 112.5t-85 68t-116 22.5q-67 0 -120.5 -25.5t-84.5 -76.5l79 -62q18 31 49.5 48t72.5 17q58 0 92.5 -29t34.5 -85v-53q-23 24 -59 37t-83 13q-92 0 -149.5 -43t-57.5 -116t56 -115.5t144 -42.5q53 0 92.5 15.5t62.5 45.5v-50h104v319zM393 148
q0 -36 -32.5 -56t-85.5 -20t-86 20t-33 56q0 37 33 57t86 20t85.5 -20t32.5 -57zM361 600l-111 137h-124l126 -137h109z" />
    <glyph glyph-name="uni1EA3" unicode="&#x1ea3;" horiz-adv-x="569" 
d="M501 319q0 67 -32 112.5t-85 68t-116 22.5q-67 0 -120.5 -25.5t-84.5 -76.5l79 -62q18 31 49.5 48t72.5 17q58 0 92.5 -29t34.5 -85v-53q-23 24 -59 37t-83 13q-92 0 -149.5 -43t-57.5 -116t56 -115.5t144 -42.5q53 0 92.5 15.5t62.5 45.5v-50h104v319zM393 148
q0 -36 -32.5 -56t-85.5 -20t-86 20t-33 56q0 37 33 57t86 20t85.5 -20t32.5 -57zM257 588h88q39 44 39 86q0 36 -31 61.5t-79 25.5q-69 0 -107 -52l57 -51q9 10 20 15.5t21 5.5q28 0 28 -25q0 -12 -8.5 -27t-27.5 -39z" />
    <glyph glyph-name="amacron" unicode="&#x101;" horiz-adv-x="569" 
d="M501 319q0 67 -32 112.5t-85 68t-116 22.5q-67 0 -120.5 -25.5t-84.5 -76.5l79 -62q18 31 49.5 48t72.5 17q58 0 92.5 -29t34.5 -85v-53q-23 24 -59 37t-83 13q-92 0 -149.5 -43t-57.5 -116t56 -115.5t144 -42.5q53 0 92.5 15.5t62.5 45.5v-50h104v319zM393 148
q0 -36 -32.5 -56t-85.5 -20t-86 20t-33 56q0 37 33 57t86 20t85.5 -20t32.5 -57zM446 626v88h-334v-88h334z" />
    <glyph glyph-name="aogonek" unicode="&#x105;" horiz-adv-x="569" 
d="M519 -82v-94h-63q-46 0 -72 23t-26 56q0 40 39 75l25 22h-25v50q-23 -30 -62.5 -45.5t-92.5 -15.5q-88 0 -144 42.5t-56 115.5t57.5 116t149.5 43q47 0 83 -13t59 -37v53q0 56 -34.5 85t-92.5 29q-41 0 -72.5 -17t-49.5 -48l-79 62q31 51 84.5 76.5t120.5 25.5
q63 0 116 -22.5t85 -68t32 -112.5v-319l-27 -29q-15 -17 -15 -31q0 -10 8 -16t21 -6h31zM360.5 92q32.5 20 32.5 56q0 37 -32.5 57t-85.5 20t-86 -20t-33 -57q0 -36 33 -56t86 -20t85.5 20z" />
    <glyph glyph-name="aring" unicode="&#xe5;" horiz-adv-x="569" 
d="M501 319q0 67 -32 112.5t-85 68t-116 22.5q-67 0 -120.5 -25.5t-84.5 -76.5l79 -62q18 31 49.5 48t72.5 17q58 0 92.5 -29t34.5 -85v-53q-23 24 -59 37t-83 13q-92 0 -149.5 -43t-57.5 -116t56 -115.5t144 -42.5q53 0 92.5 15.5t62.5 45.5v-50h104v319zM146 689
q0 -48 37.5 -79t96.5 -31t96 31t37 79t-37 79t-96 31t-96.5 -31t-37.5 -79zM393 148q0 -36 -32.5 -56t-85.5 -20t-86 20t-33 56q0 37 33 57t86 20t85.5 -20t32.5 -57zM338 689q0 -20 -15 -32.5t-43 -12.5t-43 12.5t-15 32.5t15 32.5t43 12.5t43 -12.5t15 -32.5z" />
    <glyph glyph-name="atilde" unicode="&#xe3;" horiz-adv-x="569" 
d="M501 319q0 67 -32 112.5t-85 68t-116 22.5q-67 0 -120.5 -25.5t-84.5 -76.5l79 -62q18 31 49.5 48t72.5 17q58 0 92.5 -29t34.5 -85v-53q-23 24 -59 37t-83 13q-92 0 -149.5 -43t-57.5 -116t56 -115.5t144 -42.5q53 0 92.5 15.5t62.5 45.5v-50h104v319zM263 632
q22 -15 42 -23.5t47 -8.5q29 0 55 15.5t42 45.5t16 70h-90q0 -21 -8 -33t-21 -12q-9 0 -18 4.5t-23 13.5q-22 15 -42 23.5t-47 8.5q-29 0 -55 -16t-42 -46t-16 -70h91q0 22 7.5 34t21.5 12q9 0 17.5 -4.5t22.5 -13.5zM393 148q0 -36 -32.5 -56t-85.5 -20t-86 20t-33 56
q0 37 33 57t86 20t85.5 -20t32.5 -57z" />
    <glyph glyph-name="ae" unicode="&#xe6;" horiz-adv-x="922" 
d="M874 229h-372q6 -71 45 -107.5t100 -36.5q91 0 137 67l77 -64q-38 -51 -93.5 -75t-121.5 -24q-61 0 -110 23t-82 66q-25 -43 -76.5 -66t-116.5 -23q-99 0 -159 42t-60 116q0 73 57.5 116t149.5 43q47 0 83 -13t59 -37v53q0 56 -34.5 85t-92.5 29q-41 0 -72.5 -17.5
t-49.5 -48.5l-78 63q31 51 83 76.5t117 25.5q60 0 109.5 -23t77.5 -67q32 43 79.5 66.5t106.5 23.5q69 0 123 -33t84.5 -93t30.5 -137q0 -21 -1 -30zM549 399q-34 -31 -44 -91h257q-9 60 -42.5 91t-83.5 31q-53 0 -87 -31zM360.5 92q32.5 20 32.5 56q0 37 -32.5 57t-85.5 20
t-86 -20t-33 -57q0 -36 33 -56t86 -20t85.5 20z" />
    <glyph glyph-name="uni01E3" unicode="&#x1e3;" horiz-adv-x="922" 
d="M874 229q1 9 1 30q0 77 -30.5 137t-84.5 93t-123 33q-59 0 -106.5 -23.5t-79.5 -66.5q-28 44 -77.5 67t-109.5 23q-65 0 -117 -25.5t-83 -76.5l78 -63q18 31 49.5 48.5t72.5 17.5q58 0 92.5 -29t34.5 -85v-53q-23 24 -59 37t-83 13q-92 0 -149.5 -43t-57.5 -116
q0 -74 60 -116t159 -42q65 0 116.5 23t76.5 66q33 -43 82 -66t110 -23q66 0 121.5 24t93.5 75l-77 64q-46 -67 -137 -67q-61 0 -100 36.5t-45 107.5h372zM393 148q0 -36 -32.5 -56t-85.5 -20t-86 20t-33 56q0 37 33 57t86 20t85.5 -20t32.5 -57zM622 626v88h-334v-88h334z
M505 308q10 60 44 91t87 31q50 0 83.5 -31t42.5 -91h-257z" />
    <glyph glyph-name="b" unicode="b" horiz-adv-x="632" 
d="M468 487.5q53 -34.5 83.5 -95t30.5 -136.5t-30.5 -137t-83.5 -95.5t-118 -34.5q-110 0 -167 95v-84h-111v750h111v-323q26 44 68 69.5t99 25.5q65 0 118 -34.5zM429.5 133q39.5 45 39.5 123t-39.5 122t-104.5 44q-64 0 -104 -44.5t-40 -121.5q0 -78 40 -123t104 -45
q65 0 104.5 45z" />
    <glyph glyph-name="c" unicode="c" horiz-adv-x="571" 
d="M175.5 22.5q-58.5 33.5 -92.5 94.5t-34 139q0 77 34 138t92.5 94.5t131.5 33.5q77 0 137.5 -32.5t92.5 -99.5l-92 -53q-40 86 -138 86q-61 0 -102.5 -44t-41.5 -123q0 -80 41.5 -124t102.5 -44q98 0 138 87l92 -54q-32 -67 -92.5 -99.5t-137.5 -32.5q-73 0 -131.5 33.5z
" />
    <glyph glyph-name="cacute" unicode="&#x107;" horiz-adv-x="571" 
d="M49 256q0 -78 34 -139t92.5 -94.5t131.5 -33.5q77 0 137.5 32.5t92.5 99.5l-92 54q-40 -87 -138 -87q-61 0 -102.5 44t-41.5 124q0 79 41.5 123t102.5 44q98 0 138 -86l92 53q-32 67 -92.5 99.5t-137.5 32.5q-73 0 -131.5 -33.5t-92.5 -94.5t-34 -138zM469 737h-125
l-110 -137h108z" />
    <glyph glyph-name="ccaron" unicode="&#x10d;" horiz-adv-x="571" 
d="M49 256q0 -78 34 -139t92.5 -94.5t131.5 -33.5q77 0 137.5 32.5t92.5 99.5l-92 54q-40 -87 -138 -87q-61 0 -102.5 44t-41.5 124q0 79 41.5 123t102.5 44q98 0 138 -86l92 53q-32 67 -92.5 99.5t-137.5 32.5q-73 0 -131.5 -33.5t-92.5 -94.5t-34 -138zM265 600h100
l133 137h-119q-12 -14 -21 -23q-37 -41 -41 -49h-3q-6 10 -39 45q-8 9 -14 16t-10 11h-119z" />
    <glyph glyph-name="ccedilla" unicode="&#xe7;" horiz-adv-x="571" 
d="M445 175l92 -54q-27 -57 -76 -89t-112 -40l16 -14q38 -34 38 -75q0 -33 -26 -56t-71 -23h-90v94h58q13 0 20.5 6t7.5 16q0 16 -15 31l-19 21q-63 8 -113 43.5t-78 92.5t-28 128q0 77 34 138t92.5 94.5t131.5 33.5q77 0 137.5 -32.5t92.5 -99.5l-92 -53q-40 86 -138 86
q-61 0 -102.5 -44t-41.5 -123q0 -80 41.5 -124t102.5 -44q98 0 138 87z" />
    <glyph glyph-name="ccircumflex" unicode="&#x109;" horiz-adv-x="571" 
d="M49 256q0 -78 34 -139t92.5 -94.5t131.5 -33.5q77 0 137.5 32.5t92.5 99.5l-92 54q-40 -87 -138 -87q-61 0 -102.5 44t-41.5 124q0 79 41.5 123t102.5 44q98 0 138 -86l92 53q-32 67 -92.5 99.5t-137.5 32.5q-73 0 -131.5 -33.5t-92.5 -94.5t-34 -138zM133 600h119l17 19
q36 40 45 54h3q5 -10 42 -49q7 -8 12.5 -14t8.5 -10h119l-133 138h-100z" />
    <glyph glyph-name="cdotaccent" unicode="&#x10b;" horiz-adv-x="571" 
d="M49 256q0 -78 34 -139t92.5 -94.5t131.5 -33.5q77 0 137.5 32.5t92.5 99.5l-92 54q-40 -87 -138 -87q-61 0 -102.5 44t-41.5 124q0 79 41.5 123t102.5 44q98 0 138 -86l92 53q-32 67 -92.5 99.5t-137.5 32.5q-73 0 -131.5 -33.5t-92.5 -94.5t-34 -138zM242 675
q0 -32 21 -50.5t53 -18.5t52.5 18.5t20.5 50.5t-21 51t-52 19q-32 0 -53 -19t-21 -51z" />
    <glyph glyph-name="d" unicode="d" horiz-adv-x="632" 
d="M449 750h110v-750h-110v84q-26 -44 -68 -69.5t-99 -25.5q-66 0 -119 34.5t-83 95.5t-30 137t30 136.5t83 95t119 34.5q57 0 99 -25.5t68 -69.5v323zM411 133q40 45 40 123q0 77 -40 121.5t-104 44.5q-65 0 -105 -44.5t-40 -121.5q0 -78 40 -123t105 -45q64 0 104 45z" />
    <glyph glyph-name="eth" unicode="&#xf0;" horiz-adv-x="607" 
d="M501 425q57 -91 57 -182q0 -72 -33 -130t-91 -91t-130 -33t-130.5 33.5t-91.5 92t-33 130.5q0 70 30 126t84.5 88.5t123.5 32.5q31 0 59 -10l-49 77h-166v76h118l-73 115h130l69 -115h155v-76h-109zM406 130q40 42 40 112t-40 112t-102 42t-102 -42t-40 -112t40 -112
t102 -42t102 42z" />
    <glyph glyph-name="dcaron" unicode="&#x10f;" horiz-adv-x="691" 
d="M449 750v-323q-26 44 -68 69.5t-99 25.5q-66 0 -119 -34.5t-83 -95t-30 -136.5t30 -137t83 -95.5t119 -34.5q57 0 99 25.5t68 69.5v-84h110v750h-110zM451 256q0 -78 -40 -123t-104 -45q-65 0 -105 45t-40 123q0 77 40 121.5t105 44.5q64 0 104 -44.5t40 -121.5zM608 529
h71l27 111v110h-98v-221z" />
    <glyph glyph-name="dcroat" unicode="&#x111;" horiz-adv-x="631" 
d="M622 655v-81h-63v-574h-110v84q-26 -44 -68 -69.5t-99 -25.5q-66 0 -119 34.5t-83 95.5t-30 137t30 136.5t83 95t119 34.5q57 0 99 -25.5t68 -69.5v147h-125v81h125v95h110v-95h63zM411 133q40 45 40 123q0 77 -40 121.5t-104 44.5q-65 0 -105 -44.5t-40 -121.5
q0 -78 40 -123t105 -45q64 0 104 45z" />
    <glyph glyph-name="uni1E0D" unicode="&#x1e0d;" horiz-adv-x="632" 
d="M449 750v-323q-26 44 -68 69.5t-99 25.5q-66 0 -119 -34.5t-83 -95t-30 -136.5t30 -137t83 -95.5t119 -34.5q57 0 99 25.5t68 69.5v-84h110v750h-110zM451 256q0 -78 -40 -123t-104 -45q-65 0 -105 45t-40 123q0 77 40 121.5t105 44.5q64 0 104 -44.5t40 -121.5z
M253 -129q0 -32 21 -51t52 -19q32 0 53 19t21 51q0 31 -21 50.5t-53 19.5q-31 0 -52 -19.5t-21 -50.5z" />
    <glyph glyph-name="uni1E0F" unicode="&#x1e0f;" horiz-adv-x="632" 
d="M449 750v-323q-26 44 -68 69.5t-99 25.5q-66 0 -119 -34.5t-83 -95t-30 -136.5t30 -137t83 -95.5t119 -34.5q57 0 99 25.5t68 69.5v-84h110v750h-110zM451 256q0 -78 -40 -123t-104 -45q-65 0 -105 45t-40 123q0 77 40 121.5t105 44.5q64 0 104 -44.5t40 -121.5z
M493 -155v89h-333v-89h333z" />
    <glyph glyph-name="uni01F3" unicode="&#x1f3;" horiz-adv-x="1103" 
d="M449 750v-323q-26 44 -68 69.5t-99 25.5q-66 0 -119 -34.5t-83 -95t-30 -136.5t30 -137t83 -95.5t119 -34.5q57 0 99 25.5t68 69.5v-84h110v750h-110zM826 149l226 279v83h-405v-97h193q64 0 81 8l1 -3q-16 -8 -57 -58l-229 -281v-80h421v96h-205q-63 0 -81 -7l-1 3
q17 8 56 57zM451 256q0 -78 -40 -123t-104 -45q-65 0 -105 45t-40 123q0 77 40 121.5t105 44.5q64 0 104 -44.5t40 -121.5z" />
    <glyph glyph-name="uni01C6" unicode="&#x1c6;" horiz-adv-x="1103" 
d="M449 750v-323q-26 44 -68 69.5t-99 25.5q-66 0 -119 -34.5t-83 -95t-30 -136.5t30 -137t83 -95.5t119 -34.5q57 0 99 25.5t68 69.5v-84h110v750h-110zM826 149l226 279v83h-405v-97h193q64 0 81 8l1 -3q-16 -8 -57 -58l-229 -281v-80h421v96h-205q-63 0 -81 -7l-1 3
q17 8 56 57zM451 256q0 -78 -40 -123t-104 -45q-65 0 -105 45t-40 123q0 77 40 121.5t105 44.5q64 0 104 -44.5t40 -121.5zM801 600h100l133 137h-119q-12 -14 -21 -23q-37 -41 -41 -49h-3q-6 10 -39 45q-8 9 -14 16t-10 11h-119z" />
    <glyph glyph-name="e" unicode="e" horiz-adv-x="582" 
d="M534 229h-372q7 -71 45.5 -107.5t99.5 -36.5q91 0 137 67l77 -64q-38 -51 -93.5 -75t-121.5 -24q-74 0 -132.5 33.5t-91 94t-32.5 139.5t31.5 139.5t87.5 93.5t128 33q69 0 123 -33t84.5 -93t30.5 -137q0 -21 -1 -30zM209 399q-34 -31 -44 -91h256q-9 61 -42 91.5
t-83 30.5q-53 0 -87 -31z" />
    <glyph glyph-name="eacute" unicode="&#xe9;" horiz-adv-x="582" 
d="M534 229q1 9 1 30q0 77 -30.5 137t-84.5 93t-123 33q-72 0 -128 -33t-87.5 -93.5t-31.5 -139.5t32.5 -139.5t91 -94t132.5 -33.5q66 0 121.5 24t93.5 75l-77 64q-46 -67 -137 -67q-61 0 -99.5 36.5t-45.5 107.5h372zM165 308q10 60 44 91t87 31q50 0 83 -30.5t42 -91.5
h-256zM450 737h-125l-110 -137h108z" />
    <glyph glyph-name="ebreve" unicode="&#x115;" horiz-adv-x="582" 
d="M534 229q1 9 1 30q0 77 -30.5 137t-84.5 93t-123 33q-72 0 -128 -33t-87.5 -93.5t-31.5 -139.5t32.5 -139.5t91 -94t132.5 -33.5q66 0 121.5 24t93.5 75l-77 64q-46 -67 -137 -67q-61 0 -99.5 36.5t-45.5 107.5h372zM126 737q5 -66 51.5 -103.5t119.5 -37.5t119.5 37.5
t51.5 103.5h-96q-7 -63 -75 -63t-75 63h-96zM165 308q10 60 44 91t87 31q50 0 83 -30.5t42 -91.5h-256z" />
    <glyph glyph-name="ecaron" unicode="&#x11b;" horiz-adv-x="582" 
d="M534 229q1 9 1 30q0 77 -30.5 137t-84.5 93t-123 33q-72 0 -128 -33t-87.5 -93.5t-31.5 -139.5t32.5 -139.5t91 -94t132.5 -33.5q66 0 121.5 24t93.5 75l-77 64q-46 -67 -137 -67q-61 0 -99.5 36.5t-45.5 107.5h372zM247 600h100l133 137h-119q-12 -14 -21 -23
q-37 -41 -41 -49h-3q-6 10 -39 45q-8 9 -14 16t-10 11h-119zM165 308q10 60 44 91t87 31q50 0 83 -30.5t42 -91.5h-256z" />
    <glyph glyph-name="ecircumflex" unicode="&#xea;" horiz-adv-x="582" 
d="M534 229q1 9 1 30q0 77 -30.5 137t-84.5 93t-123 33q-72 0 -128 -33t-87.5 -93.5t-31.5 -139.5t32.5 -139.5t91 -94t132.5 -33.5q66 0 121.5 24t93.5 75l-77 64q-46 -67 -137 -67q-61 0 -99.5 36.5t-45.5 107.5h372zM114 600h119l17 19q36 40 45 54h3q5 -10 42 -49
q7 -8 12.5 -14t8.5 -10h119l-133 138h-100zM165 308q10 60 44 91t87 31q50 0 83 -30.5t42 -91.5h-256z" />
    <glyph glyph-name="uni1EBF" unicode="&#x1ebf;" horiz-adv-x="582" 
d="M534 229q1 9 1 30q0 77 -30.5 137t-84.5 93t-123 33q-72 0 -128 -33t-87.5 -93.5t-31.5 -139.5t32.5 -139.5t91 -94t132.5 -33.5q66 0 121.5 24t93.5 75l-77 64q-46 -67 -137 -67q-61 0 -99.5 36.5t-45.5 107.5h372zM115 585h119q4 4 10 11t14 16q34 38 39 45h3
q3 -7 19.5 -25t20.5 -23l22 -24h119l-133 137h-99zM165 308q10 60 44 91t87 31q50 0 83 -30.5t42 -91.5h-256zM612 809h-119l-70 -124h100z" />
    <glyph glyph-name="uni1EC7" unicode="&#x1ec7;" horiz-adv-x="582" 
d="M534 229q1 9 1 30q0 77 -30.5 137t-84.5 93t-123 33q-72 0 -128 -33t-87.5 -93.5t-31.5 -139.5t32.5 -139.5t91 -94t132.5 -33.5q66 0 121.5 24t93.5 75l-77 64q-46 -67 -137 -67q-61 0 -99.5 36.5t-45.5 107.5h372zM114 600h119l17 19q36 40 45 54h3q5 -10 42 -49
q7 -8 12.5 -14t8.5 -10h119l-133 138h-100zM165 308q10 60 44 91t87 31q50 0 83 -30.5t42 -91.5h-256zM218 -129q0 -32 21 -51t52 -19q32 0 53 19t21 51q0 31 -21 50.5t-53 19.5q-31 0 -52 -19.5t-21 -50.5z" />
    <glyph glyph-name="uni1EC1" unicode="&#x1ec1;" horiz-adv-x="582" 
d="M534 229q1 9 1 30q0 77 -30.5 137t-84.5 93t-123 33q-72 0 -128 -33t-87.5 -93.5t-31.5 -139.5t32.5 -139.5t91 -94t132.5 -33.5q66 0 121.5 24t93.5 75l-77 64q-46 -67 -137 -67q-61 0 -99.5 36.5t-45.5 107.5h372zM114 585h119q4 4 10 11t14 16q34 38 39 45h3
q3 -7 19.5 -25t20.5 -23l22 -24h119l-133 137h-99zM165 308q10 60 44 91t87 31q50 0 83 -30.5t42 -91.5h-256zM550 685l-70 124h-119l89 -124h100z" />
    <glyph glyph-name="uni1EC3" unicode="&#x1ec3;" horiz-adv-x="582" 
d="M534 229q1 9 1 30q0 77 -30.5 137t-84.5 93t-123 33q-72 0 -128 -33t-87.5 -93.5t-31.5 -139.5t32.5 -139.5t91 -94t132.5 -33.5q66 0 121.5 24t93.5 75l-77 64q-46 -67 -137 -67q-61 0 -99.5 36.5t-45.5 107.5h372zM113 585h119q4 4 10 11t14 16q34 38 39 45h3
q3 -7 19.5 -25t20.5 -23l22 -24h119l-133 137h-99zM165 308q10 60 44 91t87 31q50 0 83 -30.5t42 -91.5h-256zM410 694h88q39 44 39 86q0 36 -31 61t-79 25q-72 0 -107 -51l57 -52q9 10 20 16t21 6q28 0 28 -25q0 -12 -8.5 -27t-27.5 -39z" />
    <glyph glyph-name="uni1EC5" unicode="&#x1ec5;" horiz-adv-x="582" 
d="M534 229q1 9 1 30q0 77 -30.5 137t-84.5 93t-123 33q-72 0 -128 -33t-87.5 -93.5t-31.5 -139.5t32.5 -139.5t91 -94t132.5 -33.5q66 0 121.5 24t93.5 75l-77 64q-46 -67 -137 -67q-61 0 -99.5 36.5t-45.5 107.5h372zM280 790q24 -12 43 -19t46 -7t52.5 14.5t41 41.5
t15.5 62h-91q0 -17 -8 -27t-21 -10q-9 0 -19 4.5t-21 10.5q-24 12 -43 19t-46 7q-44 0 -76.5 -32.5t-32.5 -85.5h91q0 17 7.5 27t21.5 10q9 0 19 -4.5t21 -10.5zM114 585h119q12 14 21 23q37 41 41 49h3q6 -10 39 -45q8 -9 14 -16t10 -11h119l-133 137h-100zM165 308
q10 60 44 91t87 31q50 0 83 -30.5t42 -91.5h-256z" />
    <glyph glyph-name="edieresis" unicode="&#xeb;" horiz-adv-x="582" 
d="M534 229q1 9 1 30q0 77 -30.5 137t-84.5 93t-123 33q-72 0 -128 -33t-87.5 -93.5t-31.5 -139.5t32.5 -139.5t91 -94t132.5 -33.5q66 0 121.5 24t93.5 75l-77 64q-46 -67 -137 -67q-61 0 -99.5 36.5t-45.5 107.5h372zM165 308q10 60 44 91t87 31q50 0 83 -30.5t42 -91.5
h-256zM114 673q0 -31 20 -49.5t49 -18.5q30 0 49.5 18.5t19.5 49.5t-19.5 49t-49.5 18q-29 0 -49 -18t-20 -49zM342 673q0 -31 19.5 -49.5t49.5 -18.5q29 0 48.5 18.5t19.5 49.5t-19.5 49t-48.5 18q-30 0 -49.5 -18t-19.5 -49z" />
    <glyph glyph-name="edotaccent" unicode="&#x117;" horiz-adv-x="582" 
d="M534 229q1 9 1 30q0 77 -30.5 137t-84.5 93t-123 33q-72 0 -128 -33t-87.5 -93.5t-31.5 -139.5t32.5 -139.5t91 -94t132.5 -33.5q66 0 121.5 24t93.5 75l-77 64q-46 -67 -137 -67q-61 0 -99.5 36.5t-45.5 107.5h372zM165 308q10 60 44 91t87 31q50 0 83 -30.5t42 -91.5
h-256zM224 675q0 -32 21 -50.5t53 -18.5t52.5 18.5t20.5 50.5t-21 51t-52 19q-32 0 -53 -19t-21 -51z" />
    <glyph glyph-name="uni1EB9" unicode="&#x1eb9;" horiz-adv-x="582" 
d="M534 229q1 9 1 30q0 77 -30.5 137t-84.5 93t-123 33q-72 0 -128 -33t-87.5 -93.5t-31.5 -139.5t32.5 -139.5t91 -94t132.5 -33.5q66 0 121.5 24t93.5 75l-77 64q-46 -67 -137 -67q-61 0 -99.5 36.5t-45.5 107.5h372zM165 308q10 60 44 91t87 31q50 0 83 -30.5t42 -91.5
h-256zM218 -129q0 -32 21 -51t52 -19q32 0 53 19t21 51q0 31 -21 50.5t-53 19.5q-31 0 -52 -19.5t-21 -50.5z" />
    <glyph glyph-name="egrave" unicode="&#xe8;" horiz-adv-x="582" 
d="M534 229q1 9 1 30q0 77 -30.5 137t-84.5 93t-123 33q-72 0 -128 -33t-87.5 -93.5t-31.5 -139.5t32.5 -139.5t91 -94t132.5 -33.5q66 0 121.5 24t93.5 75l-77 64q-46 -67 -137 -67q-61 0 -99.5 36.5t-45.5 107.5h372zM165 308q10 60 44 91t87 31q50 0 83 -30.5t42 -91.5
h-256zM379 600l-111 137h-124l126 -137h109z" />
    <glyph glyph-name="uni1EBB" unicode="&#x1ebb;" horiz-adv-x="582" 
d="M534 229q1 9 1 30q0 77 -30.5 137t-84.5 93t-123 33q-72 0 -128 -33t-87.5 -93.5t-31.5 -139.5t32.5 -139.5t91 -94t132.5 -33.5q66 0 121.5 24t93.5 75l-77 64q-46 -67 -137 -67q-61 0 -99.5 36.5t-45.5 107.5h372zM165 308q10 60 44 91t87 31q50 0 83 -30.5t42 -91.5
h-256zM275 588h88q39 44 39 86q0 36 -31 61.5t-79 25.5q-69 0 -107 -52l57 -51q9 10 20 15.5t21 5.5q28 0 28 -25q0 -12 -8.5 -27t-27.5 -39z" />
    <glyph glyph-name="emacron" unicode="&#x113;" horiz-adv-x="582" 
d="M534 229q1 9 1 30q0 77 -30.5 137t-84.5 93t-123 33q-72 0 -128 -33t-87.5 -93.5t-31.5 -139.5t32.5 -139.5t91 -94t132.5 -33.5q66 0 121.5 24t93.5 75l-77 64q-46 -67 -137 -67q-61 0 -99.5 36.5t-45.5 107.5h372zM464 626v88h-334v-88h334zM165 308q10 60 44 91t87 31
q50 0 83 -30.5t42 -91.5h-256z" />
    <glyph glyph-name="eogonek" unicode="&#x119;" horiz-adv-x="582" 
d="M534 229h-372q7 -71 45.5 -107.5t99.5 -36.5q91 0 137 67l77 -64q-23 -31 -51 -50l-34 -46q-18 -23 -23.5 -33t-5.5 -19q0 -22 28 -22h31v-94h-63q-46 0 -72 22t-26 54q0 19 11 39.5t37 49.5l3 4q-21 -4 -50 -4q-74 0 -132.5 33.5t-91 94t-32.5 139.5t31.5 139.5
t87.5 93.5t128 33q69 0 123 -33t84.5 -93t30.5 -137q0 -21 -1 -30zM209 399q-34 -31 -44 -91h256q-9 61 -42 91.5t-83 30.5q-53 0 -87 -31z" />
    <glyph glyph-name="uni1EBD" unicode="&#x1ebd;" horiz-adv-x="582" 
d="M534 229q1 9 1 30q0 77 -30.5 137t-84.5 93t-123 33q-72 0 -128 -33t-87.5 -93.5t-31.5 -139.5t32.5 -139.5t91 -94t132.5 -33.5q66 0 121.5 24t93.5 75l-77 64q-46 -67 -137 -67q-61 0 -99.5 36.5t-45.5 107.5h372zM281 632q22 -15 42 -23.5t47 -8.5q29 0 55 15.5
t42 45.5t16 70h-90q0 -21 -8 -33t-21 -12q-9 0 -18 4.5t-23 13.5q-22 15 -42 23.5t-47 8.5q-29 0 -55 -16t-42 -46t-16 -70h91q0 22 7.5 34t21.5 12q9 0 17.5 -4.5t22.5 -13.5zM165 308q10 60 44 91t87 31q50 0 83 -30.5t42 -91.5h-256z" />
    <glyph glyph-name="uni0259" unicode="&#x259;" horiz-adv-x="582" 
d="M408.5 488.5q58.5 -33.5 91 -94t32.5 -139.5t-31.5 -139.5t-87.5 -93.5t-128 -33q-69 0 -123 33t-84.5 93t-30.5 137q0 21 1 30h372q-7 71 -45.5 107.5t-99.5 36.5q-91 0 -137 -67l-77 64q38 51 93.5 75t121.5 24q74 0 132.5 -33.5zM373 112q34 31 44 91h-256
q9 -61 42 -91.5t83 -30.5q53 0 87 31z" />
    <glyph glyph-name="f" unicode="f" horiz-adv-x="376" 
d="M293 662q-63 0 -63 -75v-76h116v-91h-116v-420h-111v420h-82v91h82v81q0 77 42 122t119 45h66v-97h-53z" />
    <glyph glyph-name="florin" unicode="&#x192;" horiz-adv-x="376" 
d="M293 662q-64 0 -64 -75v-76h117v-91h-117v-473q0 -82 -44.5 -125.5t-115.5 -43.5q-79 0 -128 54l57 73q25 -31 62 -31q26 0 42.5 17t16.5 50v479h-82v91h82v81q0 77 42 122t119 45h66v-97h-53z" />
    <glyph glyph-name="g" unicode="g" horiz-adv-x="619" 
d="M437 511h111v-486q0 -77 -32.5 -133t-91 -85t-134.5 -29q-63 0 -121 26t-96 80l75 66q26 -35 63 -54.5t81 -19.5q63 0 104 37t41 106v86q-25 -42 -65 -66t-95 -24q-66 0 -117.5 32.5t-80.5 90.5t-29 130q0 73 29 131t80.5 90.5t117.5 32.5q105 0 160 -91v80zM400.5 157
q38.5 43 38.5 111t-38.5 111.5t-99.5 43.5t-99.5 -42t-38.5 -113q0 -70 38.5 -112t99.5 -42t99.5 43z" />
    <glyph glyph-name="gbreve" unicode="&#x11f;" horiz-adv-x="619" 
d="M437 511v-80q-55 91 -160 91q-66 0 -117.5 -32.5t-80.5 -90.5t-29 -131q0 -72 29 -130t80.5 -90.5t117.5 -32.5q55 0 95 24t65 66v-86q0 -69 -41 -106t-104 -37q-44 0 -81 19.5t-63 54.5l-75 -66q38 -54 96 -80t121 -26q76 0 134.5 29t91 85t32.5 133v486h-111zM439 268
q0 -68 -38.5 -111t-99.5 -43t-99.5 42t-38.5 112q0 71 38.5 113t99.5 42t99.5 -43.5t38.5 -111.5zM139 737q5 -66 51.5 -103.5t119.5 -37.5t119.5 37.5t51.5 103.5h-96q-7 -63 -75 -63t-75 63h-96z" />
    <glyph glyph-name="gcaron" unicode="&#x1e7;" horiz-adv-x="619" 
d="M437 511v-80q-55 91 -160 91q-66 0 -117.5 -32.5t-80.5 -90.5t-29 -131q0 -72 29 -130t80.5 -90.5t117.5 -32.5q55 0 95 24t65 66v-86q0 -69 -41 -106t-104 -37q-44 0 -81 19.5t-63 54.5l-75 -66q38 -54 96 -80t121 -26q76 0 134.5 29t91 85t32.5 133v486h-111zM439 268
q0 -68 -38.5 -111t-99.5 -43t-99.5 42t-38.5 112q0 71 38.5 113t99.5 42t99.5 -43.5t38.5 -111.5zM260 600h100l133 137h-119q-12 -14 -21 -23q-37 -41 -41 -49h-3q-6 10 -39 45q-8 9 -14 16t-10 11h-119z" />
    <glyph glyph-name="gcircumflex" unicode="&#x11d;" horiz-adv-x="619" 
d="M437 511v-80q-55 91 -160 91q-66 0 -117.5 -32.5t-80.5 -90.5t-29 -131q0 -72 29 -130t80.5 -90.5t117.5 -32.5q55 0 95 24t65 66v-86q0 -69 -41 -106t-104 -37q-44 0 -81 19.5t-63 54.5l-75 -66q38 -54 96 -80t121 -26q76 0 134.5 29t91 85t32.5 133v486h-111zM439 268
q0 -68 -38.5 -111t-99.5 -43t-99.5 42t-38.5 112q0 71 38.5 113t99.5 42t99.5 -43.5t38.5 -111.5zM127 600h119l17 19q36 40 45 54h3q5 -10 42 -49q7 -8 12.5 -14t8.5 -10h119l-133 138h-100z" />
    <glyph glyph-name="uni0123" unicode="&#x123;" horiz-adv-x="619" 
d="M437 511v-80q-55 91 -160 91q-66 0 -117.5 -32.5t-80.5 -90.5t-29 -131q0 -72 29 -130t80.5 -90.5t117.5 -32.5q55 0 95 24t65 66v-86q0 -69 -41 -106t-104 -37q-44 0 -81 19.5t-63 54.5l-75 -66q38 -54 96 -80t121 -26q76 0 134.5 29t91 85t32.5 133v486h-111zM439 268
q0 -68 -38.5 -111t-99.5 -43t-99.5 42t-38.5 112q0 71 38.5 113t99.5 42t99.5 -43.5t38.5 -111.5zM332 699l47 62l-57 32l-56 -79q-26 -36 -26 -66q0 -25 19.5 -41t50.5 -16t50 15.5t19 40.5q0 19 -12.5 33t-34.5 19z" />
    <glyph glyph-name="gdotaccent" unicode="&#x121;" horiz-adv-x="619" 
d="M437 511v-80q-55 91 -160 91q-66 0 -117.5 -32.5t-80.5 -90.5t-29 -131q0 -72 29 -130t80.5 -90.5t117.5 -32.5q55 0 95 24t65 66v-86q0 -69 -41 -106t-104 -37q-44 0 -81 19.5t-63 54.5l-75 -66q38 -54 96 -80t121 -26q76 0 134.5 29t91 85t32.5 133v486h-111zM439 268
q0 -68 -38.5 -111t-99.5 -43t-99.5 42t-38.5 112q0 71 38.5 113t99.5 42t99.5 -43.5t38.5 -111.5zM236 675q0 -32 21 -50.5t53 -18.5t52.5 18.5t20.5 50.5t-21 51t-52 19q-32 0 -53 -19t-21 -51z" />
    <glyph glyph-name="h" unicode="h" horiz-adv-x="582" 
d="M425 497.5q42 -24.5 66 -69.5t24 -103v-325h-111v307q0 54 -28.5 85.5t-74.5 31.5q-53 0 -85.5 -33t-32.5 -89v-302h-111v750h111v-311q23 42 61.5 62.5t85.5 20.5q53 0 95 -24.5z" />
    <glyph glyph-name="hbar" unicode="&#x127;" horiz-adv-x="582" 
d="M425 497.5q42 -24.5 66 -69.5t24 -103v-325h-111v307q0 54 -28.5 85.5t-74.5 31.5q-53 0 -85.5 -33t-32.5 -89v-302h-111v574h-64v81h64v95h111v-95h123v-81h-123v-135q23 42 61.5 62.5t85.5 20.5q53 0 95 -24.5z" />
    <glyph glyph-name="uni1E2B" unicode="&#x1e2b;" horiz-adv-x="582" 
d="M515 325q0 58 -24 103t-66 69.5t-95 24.5q-47 0 -85.5 -20.5t-61.5 -62.5v311h-111v-750h111v302q0 56 32.5 89t85.5 33q46 0 74.5 -31.5t28.5 -85.5v-307h111v325zM123 -70q5 -66 51.5 -103.5t119.5 -37.5t119.5 37.5t51.5 103.5h-96q-7 -63 -75 -63t-75 63h-96z" />
    <glyph glyph-name="uni1E29" unicode="&#x1e29;" horiz-adv-x="582" 
d="M425 497.5q42 -24.5 66 -69.5t24 -103v-325h-111v307q0 54 -28.5 85.5t-74.5 31.5q-53 0 -85.5 -33t-32.5 -89v-302h-31l25 -22q38 -34 38 -75q0 -33 -26 -56t-71 -23h-90v94h58q13 0 20.5 6t7.5 16q0 16 -15 31l-27 29v750h111v-311q23 42 61.5 62.5t85.5 20.5
q53 0 95 -24.5z" />
    <glyph glyph-name="hcircumflex" unicode="&#x125;" horiz-adv-x="582" 
d="M515 325q0 58 -24 103t-66 69.5t-95 24.5q-47 0 -85.5 -20.5t-61.5 -62.5v311h-111v-750h111v302q0 56 32.5 89t85.5 33q46 0 74.5 -31.5t28.5 -85.5v-307h111v325zM112 829h119l17 19q36 40 45 54h3q5 -10 42 -49q7 -8 12.5 -14t8.5 -10h119l-133 138h-100z" />
    <glyph glyph-name="uni1E25" unicode="&#x1e25;" horiz-adv-x="582" 
d="M515 325q0 58 -24 103t-66 69.5t-95 24.5q-47 0 -85.5 -20.5t-61.5 -62.5v311h-111v-750h111v302q0 56 32.5 89t85.5 33q46 0 74.5 -31.5t28.5 -85.5v-307h111v325zM221 -129q0 -32 21 -51t52 -19q32 0 53 19t21 51q0 31 -21 50.5t-53 19.5q-31 0 -52 -19.5t-21 -50.5z
" />
    <glyph glyph-name="uni1E96" unicode="&#x1e96;" horiz-adv-x="582" 
d="M515 325q0 58 -24 103t-66 69.5t-95 24.5q-47 0 -85.5 -20.5t-61.5 -62.5v311h-111v-750h111v302q0 56 32.5 89t85.5 33q46 0 74.5 -31.5t28.5 -85.5v-307h111v325zM461 -155v89h-333v-89h333z" />
    <glyph glyph-name="i" unicode="i" horiz-adv-x="255" 
d="M72 511v-511h111v511h-111zM55 675q0 -32 21 -50.5t53 -18.5t52.5 18.5t20.5 50.5t-21 51t-52 19q-32 0 -53 -19t-21 -51z" />
    <glyph glyph-name="dotlessi" unicode="&#x131;" horiz-adv-x="255" 
d="M72 511h111v-511h-111v511z" />
    <glyph glyph-name="iacute" unicode="&#xed;" horiz-adv-x="255" 
d="M72 511v-511h111v511h-111zM281 737h-125l-110 -137h108z" />
    <glyph glyph-name="ibreve" unicode="&#x12d;" horiz-adv-x="255" 
d="M72 511v-511h111v511h-111zM-43 737q5 -66 51.5 -103.5t119.5 -37.5t119.5 37.5t51.5 103.5h-96q-7 -63 -75 -63t-75 63h-96z" />
    <glyph glyph-name="uni01D0" unicode="&#x1d0;" horiz-adv-x="255" 
d="M72 511v-511h111v511h-111zM78 600h100l133 137h-119q-12 -14 -21 -23q-37 -41 -41 -49h-3q-6 10 -39 45q-8 9 -14 16t-10 11h-119z" />
    <glyph glyph-name="icircumflex" unicode="&#xee;" horiz-adv-x="255" 
d="M72 511v-511h111v511h-111zM-55 600h119l17 19q36 40 45 54h3q5 -10 42 -49q7 -8 12.5 -14t8.5 -10h119l-133 138h-100z" />
    <glyph glyph-name="idieresis" unicode="&#xef;" horiz-adv-x="255" 
d="M-18.5 623.5q-19.5 18.5 -19.5 49.5t19.5 49t49.5 18q29 0 48.5 -18t19.5 -49t-19.5 -49.5t-48.5 -18.5q-30 0 -49.5 18.5zM175.5 623.5q-19.5 18.5 -19.5 49.5t19.5 49t49.5 18q29 0 48.5 -18t19.5 -49t-19.5 -49.5t-48.5 -18.5q-30 0 -49.5 18.5zM72 511h111v-511h-111
v511z" />
    <glyph glyph-name="uni1ECB" unicode="&#x1ecb;" horiz-adv-x="255" 
d="M72 511v-511h111v511h-111zM55 -129q0 -32 21 -51t52 -19q32 0 53 19t21 51q0 31 -21 50.5t-53 19.5q-31 0 -52 -19.5t-21 -50.5zM55 675q0 -32 21 -50.5t53 -18.5t52.5 18.5t20.5 50.5t-21 51t-52 19q-32 0 -53 -19t-21 -51z" />
    <glyph glyph-name="igrave" unicode="&#xec;" horiz-adv-x="255" 
d="M72 511v-511h111v511h-111zM210 600l-111 137h-124l126 -137h109z" />
    <glyph glyph-name="uni1EC9" unicode="&#x1ec9;" horiz-adv-x="255" 
d="M72 511v-511h111v511h-111zM106 588h88q39 44 39 86q0 36 -31 61.5t-79 25.5q-69 0 -107 -52l57 -51q9 10 20 15.5t21 5.5q28 0 28 -25q0 -12 -8.5 -27t-27.5 -39z" />
    <glyph glyph-name="imacron" unicode="&#x12b;" horiz-adv-x="255" 
d="M72 511v-511h111v511h-111zM295 626v88h-334v-88h334z" />
    <glyph glyph-name="iogonek" unicode="&#x12f;" horiz-adv-x="255" 
d="M76 624.5q-21 18.5 -21 50.5t21 51t53 19q31 0 52 -19t21 -51t-20.5 -50.5t-52.5 -18.5t-53 18.5zM149 -76q8 -6 21 -6h31v-94h-63q-46 0 -72 23t-26 56q0 40 39 75l25 22h-32v511h111v-511l-27 -29q-15 -17 -15 -31q0 -10 8 -16z" />
    <glyph glyph-name="itilde" unicode="&#x129;" horiz-adv-x="255" 
d="M72 511v-511h111v511h-111zM112 632q22 -15 42 -23.5t47 -8.5q29 0 55 15.5t42 45.5t16 70h-90q0 -21 -8 -33t-21 -12q-9 0 -18 4.5t-23 13.5q-22 15 -42 23.5t-47 8.5q-29 0 -55 -16t-42 -46t-16 -70h91q0 22 7.5 34t21.5 12q9 0 17.5 -4.5t22.5 -13.5z" />
    <glyph glyph-name="j" unicode="j" horiz-adv-x="255" 
d="M183 -60v571h-111v-565q0 -59 -43 -59h-17v-104h34q63 0 100 41t37 116zM55 675q0 -32 21 -50.5t53 -18.5t52.5 18.5t20.5 50.5t-21 51t-52 19q-32 0 -53 -19t-21 -51z" />
    <glyph glyph-name="uni0237" unicode="&#x237;" horiz-adv-x="255" 
d="M183 -60q0 -75 -37 -116t-100 -41h-34v104h17q43 0 43 59v565h111v-571z" />
    <glyph glyph-name="jcircumflex" unicode="&#x135;" horiz-adv-x="255" 
d="M183 -60v571h-111v-565q0 -59 -43 -59h-17v-104h34q63 0 100 41t37 116zM-55 600h119l17 19q36 40 45 54h3q5 -10 42 -49q7 -8 12.5 -14t8.5 -10h119l-133 138h-100z" />
    <glyph glyph-name="k" unicode="k" horiz-adv-x="535" 
d="M301 271l224 -271h-136l-205 255v-255h-112v750h112v-468l199 229h136z" />
    <glyph glyph-name="uni0137" unicode="&#x137;" horiz-adv-x="535" 
d="M301 271l218 240h-136l-199 -229v468h-112v-750h112v255l205 -255h136zM352 -118q0 26 -19 42t-50 16t-50.5 -15.5t-19.5 -40.5q0 -19 13 -33t36 -19l-46 -62l56 -31l55 77q25 36 25 66z" />
    <glyph glyph-name="uni1E33" unicode="&#x1e33;" horiz-adv-x="535" 
d="M301 271l218 240h-136l-199 -229v468h-112v-750h112v255l205 -255h136zM209 -129q0 -32 21 -51t52 -19q32 0 53 19t21 51q0 31 -21 50.5t-53 19.5q-31 0 -52 -19.5t-21 -50.5z" />
    <glyph glyph-name="l" unicode="l" horiz-adv-x="303" 
d="M215 0q-69 0 -105.5 39t-36.5 106v605h111v-598q0 -56 50 -56h39v-96h-58z" />
    <glyph glyph-name="lacute" unicode="&#x13a;" horiz-adv-x="303" 
d="M215 0h58v96h-39q-50 0 -50 56v598h-111v-605q0 -67 36.5 -106t105.5 -39zM282 966h-125l-110 -137h108z" />
    <glyph glyph-name="lcaron" unicode="&#x13e;" horiz-adv-x="343" 
d="M215 0h58v96h-39q-50 0 -50 56v598h-111v-605q0 -67 36.5 -106t105.5 -39zM232 529h71l27 111v110h-98v-221z" />
    <glyph glyph-name="uni013C" unicode="&#x13c;" horiz-adv-x="303" 
d="M215 0h58v96h-39q-50 0 -50 56v598h-111v-605q0 -67 36.5 -106t105.5 -39zM251 -118q0 26 -19 42t-50 16t-50.5 -15.5t-19.5 -40.5q0 -19 13 -33t36 -19l-46 -62l56 -31l55 77q25 36 25 66z" />
    <glyph glyph-name="ldot" unicode="&#x140;" horiz-adv-x="410" 
d="M215 0q-69 0 -105.5 39t-36.5 106v605h111v-598q0 -56 50 -56h39v-96h-58zM282 316.5q-20 18.5 -20 48.5t20 49t51 19t51.5 -19t20.5 -49t-20.5 -48.5t-51.5 -18.5t-51 18.5z" />
    <glyph glyph-name="uni1E37" unicode="&#x1e37;" horiz-adv-x="303" 
d="M215 0h58v96h-39q-50 0 -50 56v598h-111v-605q0 -67 36.5 -106t105.5 -39zM108 -129q0 -32 21 -51t52 -19q32 0 53 19t21 51q0 31 -21 50.5t-53 19.5q-31 0 -52 -19.5t-21 -50.5z" />
    <glyph glyph-name="uni1E39" unicode="&#x1e39;" horiz-adv-x="303" 
d="M215 0h58v96h-39q-50 0 -50 56v598h-111v-605q0 -67 36.5 -106t105.5 -39zM296 855v88h-334v-88h334zM108 -129q0 -32 21 -51t52 -19q32 0 53 19t21 51q0 31 -21 50.5t-53 19.5q-31 0 -52 -19.5t-21 -50.5z" />
    <glyph glyph-name="uni01C9" unicode="&#x1c9;" horiz-adv-x="518" 
d="M215 0h58v96h-39q-50 0 -50 56v598h-111v-605q0 -67 36.5 -106t105.5 -39zM446 -60v571h-111v-565q0 -59 -43 -59h-17v-104h34q63 0 100 41t37 116zM318 675q0 -32 21 -50.5t53 -18.5t52.5 18.5t20.5 50.5t-21 51t-52 19q-32 0 -53 -19t-21 -51z" />
    <glyph glyph-name="uni1E3B" unicode="&#x1e3b;" horiz-adv-x="303" 
d="M215 0h58v96h-39q-50 0 -50 56v598h-111v-605q0 -67 36.5 -106t105.5 -39zM348 -155v89h-333v-89h333z" />
    <glyph glyph-name="lslash" unicode="&#x142;" horiz-adv-x="372" 
d="M319 96v-96h-59q-68 0 -105 39t-37 106v172l-76 -24v97l76 23v337h112v-309l84 26v-97l-84 -26v-192q0 -56 49 -56h40z" />
    <glyph glyph-name="m" unicode="m" horiz-adv-x="864" 
d="M710.5 497.5q40.5 -23.5 63.5 -66t23 -98.5v-333h-111v312q0 52 -25 82t-66 30q-47 0 -76 -31t-29 -85v-308h-111v312q0 52 -25 82t-66 30q-47 0 -76 -31t-29 -85v-308h-111v511h111v-68q43 78 135 78q49 0 88.5 -23.5t61.5 -65.5q22 45 61.5 67t89.5 22q51 0 91.5 -23.5
z" />
    <glyph glyph-name="uni1E41" unicode="&#x1e41;" horiz-adv-x="864" 
d="M797 333q0 56 -23 98.5t-63.5 66t-91.5 23.5q-50 0 -89.5 -22t-61.5 -67q-22 42 -61.5 65.5t-88.5 23.5q-92 0 -135 -78v68h-111v-511h111v308q0 54 29 85t76 31q41 0 66 -30t25 -82v-312h111v308q0 54 29 85t76 31q41 0 66 -30t25 -82v-312h111v333zM373 675
q0 -32 21 -50.5t53 -18.5t52.5 18.5t20.5 50.5t-21 51t-52 19q-32 0 -53 -19t-21 -51z" />
    <glyph glyph-name="uni1E43" unicode="&#x1e43;" horiz-adv-x="864" 
d="M797 333q0 56 -23 98.5t-63.5 66t-91.5 23.5q-50 0 -89.5 -22t-61.5 -67q-22 42 -61.5 65.5t-88.5 23.5q-92 0 -135 -78v68h-111v-511h111v308q0 54 29 85t76 31q41 0 66 -30t25 -82v-312h111v308q0 54 29 85t76 31q41 0 66 -30t25 -82v-312h111v333zM361 -129
q0 -32 21 -51t52 -19q32 0 53 19t21 51q0 31 -21 50.5t-53 19.5q-31 0 -52 -19.5t-21 -50.5z" />
    <glyph glyph-name="n" unicode="n" horiz-adv-x="582" 
d="M425 497.5q42 -24.5 66 -69.5t24 -103v-325h-111v307q0 54 -28.5 85.5t-74.5 31.5q-53 0 -85.5 -33t-32.5 -89v-302h-111v511h111v-72q23 42 61.5 62.5t85.5 20.5q53 0 95 -24.5z" />
    <glyph glyph-name="nacute" unicode="&#x144;" horiz-adv-x="582" 
d="M515 325q0 58 -24 103t-66 69.5t-95 24.5q-47 0 -85.5 -20.5t-61.5 -62.5v72h-111v-511h111v302q0 56 32.5 89t85.5 33q46 0 74.5 -31.5t28.5 -85.5v-307h111v325zM452 737h-125l-110 -137h108z" />
    <glyph glyph-name="ncaron" unicode="&#x148;" horiz-adv-x="582" 
d="M515 325q0 58 -24 103t-66 69.5t-95 24.5q-47 0 -85.5 -20.5t-61.5 -62.5v72h-111v-511h111v302q0 56 32.5 89t85.5 33q46 0 74.5 -31.5t28.5 -85.5v-307h111v325zM249 600h100l133 137h-119q-12 -14 -21 -23q-37 -41 -41 -49h-3q-6 10 -39 45q-8 9 -14 16t-10 11h-119z
" />
    <glyph glyph-name="uni0146" unicode="&#x146;" horiz-adv-x="582" 
d="M515 325q0 58 -24 103t-66 69.5t-95 24.5q-47 0 -85.5 -20.5t-61.5 -62.5v72h-111v-511h111v302q0 56 32.5 89t85.5 33q46 0 74.5 -31.5t28.5 -85.5v-307h111v325zM364 -118q0 26 -19 42t-50 16t-50.5 -15.5t-19.5 -40.5q0 -19 13 -33t36 -19l-46 -62l56 -31l55 77
q25 36 25 66z" />
    <glyph glyph-name="uni1E45" unicode="&#x1e45;" horiz-adv-x="582" 
d="M515 325q0 58 -24 103t-66 69.5t-95 24.5q-47 0 -85.5 -20.5t-61.5 -62.5v72h-111v-511h111v302q0 56 32.5 89t85.5 33q46 0 74.5 -31.5t28.5 -85.5v-307h111v325zM226 675q0 -32 21 -50.5t53 -18.5t52.5 18.5t20.5 50.5t-21 51t-52 19q-32 0 -53 -19t-21 -51z" />
    <glyph glyph-name="uni1E47" unicode="&#x1e47;" horiz-adv-x="582" 
d="M515 325q0 58 -24 103t-66 69.5t-95 24.5q-47 0 -85.5 -20.5t-61.5 -62.5v72h-111v-511h111v302q0 56 32.5 89t85.5 33q46 0 74.5 -31.5t28.5 -85.5v-307h111v325zM221 -129q0 -32 21 -51t52 -19q32 0 53 19t21 51q0 31 -21 50.5t-53 19.5q-31 0 -52 -19.5t-21 -50.5z
" />
    <glyph glyph-name="eng" unicode="&#x14b;" horiz-adv-x="582" 
d="M425 497.5q42 -24.5 66 -69.5t24 -103v-385q0 -75 -37 -116t-100 -41h-34v104h17q43 0 43 59v361q0 54 -28.5 85.5t-74.5 31.5q-53 0 -85.5 -33t-32.5 -89v-302h-111v511h111v-72q23 42 61.5 62.5t85.5 20.5q53 0 95 -24.5z" />
    <glyph glyph-name="uni01CC" unicode="&#x1cc;" horiz-adv-x="797" 
d="M515 325q0 58 -24 103t-66 69.5t-95 24.5q-47 0 -85.5 -20.5t-61.5 -62.5v72h-111v-511h111v302q0 56 32.5 89t85.5 33q46 0 74.5 -31.5t28.5 -85.5v-307h111v325zM725 -60v571h-111v-565q0 -59 -43 -59h-17v-104h34q63 0 100 41t37 116zM597 675q0 -32 21 -50.5
t53 -18.5t52.5 18.5t20.5 50.5t-21 51t-52 19q-32 0 -53 -19t-21 -51z" />
    <glyph glyph-name="uni1E49" unicode="&#x1e49;" horiz-adv-x="582" 
d="M515 325q0 58 -24 103t-66 69.5t-95 24.5q-47 0 -85.5 -20.5t-61.5 -62.5v72h-111v-511h111v302q0 56 32.5 89t85.5 33q46 0 74.5 -31.5t28.5 -85.5v-307h111v325zM461 -155v89h-333v-89h333z" />
    <glyph glyph-name="ntilde" unicode="&#xf1;" horiz-adv-x="582" 
d="M515 325q0 58 -24 103t-66 69.5t-95 24.5q-47 0 -85.5 -20.5t-61.5 -62.5v72h-111v-511h111v302q0 56 32.5 89t85.5 33q46 0 74.5 -31.5t28.5 -85.5v-307h111v325zM283 632q22 -15 42 -23.5t47 -8.5q29 0 55 15.5t42 45.5t16 70h-90q0 -21 -8 -33t-21 -12q-9 0 -18 4.5
t-23 13.5q-22 15 -42 23.5t-47 8.5q-29 0 -55 -16t-42 -46t-16 -70h91q0 22 7.5 34t21.5 12q9 0 17.5 -4.5t22.5 -13.5z" />
    <glyph glyph-name="o" unicode="o" horiz-adv-x="620" 
d="M176.5 23q-59.5 34 -93.5 94.5t-34 138.5q0 77 34 137.5t93.5 94.5t133.5 34t133.5 -34t93.5 -94.5t34 -137.5q0 -78 -34 -138.5t-93.5 -94.5t-133.5 -34t-133.5 34zM416.5 133q41.5 45 41.5 123q0 77 -41.5 121.5t-106.5 44.5t-106 -44.5t-41 -121.5q0 -78 41 -123
t106 -45t106.5 45z" />
    <glyph glyph-name="oacute" unicode="&#xf3;" horiz-adv-x="620" 
d="M49 256q0 -78 34 -138.5t93.5 -94.5t133.5 -34t133.5 34t93.5 94.5t34 138.5q0 77 -34 137.5t-93.5 94.5t-133.5 34t-133.5 -34t-93.5 -94.5t-34 -137.5zM458 256q0 -78 -41.5 -123t-106.5 -45t-106 45t-41 123q0 77 41 121.5t106 44.5t106.5 -44.5t41.5 -121.5zM464 737
h-125l-110 -137h108z" />
    <glyph glyph-name="obreve" unicode="&#x14f;" horiz-adv-x="620" 
d="M49 256q0 -78 34 -138.5t93.5 -94.5t133.5 -34t133.5 34t93.5 94.5t34 138.5q0 77 -34 137.5t-93.5 94.5t-133.5 34t-133.5 -34t-93.5 -94.5t-34 -137.5zM458 256q0 -78 -41.5 -123t-106.5 -45t-106 45t-41 123q0 77 41 121.5t106 44.5t106.5 -44.5t41.5 -121.5zM139 737
q5 -66 51.5 -103.5t119.5 -37.5t119.5 37.5t51.5 103.5h-96q-7 -63 -75 -63t-75 63h-96z" />
    <glyph glyph-name="uni01D2" unicode="&#x1d2;" horiz-adv-x="620" 
d="M49 256q0 -78 34 -138.5t93.5 -94.5t133.5 -34t133.5 34t93.5 94.5t34 138.5q0 77 -34 137.5t-93.5 94.5t-133.5 34t-133.5 -34t-93.5 -94.5t-34 -137.5zM458 256q0 -78 -41.5 -123t-106.5 -45t-106 45t-41 123q0 77 41 121.5t106 44.5t106.5 -44.5t41.5 -121.5zM260 600
h100l133 137h-119q-12 -14 -21 -23q-37 -41 -41 -49h-3q-6 10 -39 45q-8 9 -14 16t-10 11h-119z" />
    <glyph glyph-name="ocircumflex" unicode="&#xf4;" horiz-adv-x="620" 
d="M49 256q0 -78 34 -138.5t93.5 -94.5t133.5 -34t133.5 34t93.5 94.5t34 138.5q0 77 -34 137.5t-93.5 94.5t-133.5 34t-133.5 -34t-93.5 -94.5t-34 -137.5zM458 256q0 -78 -41.5 -123t-106.5 -45t-106 45t-41 123q0 77 41 121.5t106 44.5t106.5 -44.5t41.5 -121.5zM128 600
h119l17 19q36 40 45 54h3q5 -10 42 -49q7 -8 12.5 -14t8.5 -10h119l-133 138h-100z" />
    <glyph glyph-name="uni1ED1" unicode="&#x1ed1;" horiz-adv-x="620" 
d="M49 256q0 -78 34 -138.5t93.5 -94.5t133.5 -34t133.5 34t93.5 94.5t34 138.5q0 77 -34 137.5t-93.5 94.5t-133.5 34t-133.5 -34t-93.5 -94.5t-34 -137.5zM458 256q0 -78 -41.5 -123t-106.5 -45t-106 45t-41 123q0 77 41 121.5t106 44.5t106.5 -44.5t41.5 -121.5zM128 585
h119q4 4 10 11t14 16q34 38 39 45h3q3 -7 19.5 -25t20.5 -23l22 -24h119l-133 137h-99zM625 809h-119l-70 -124h100z" />
    <glyph glyph-name="uni1ED9" unicode="&#x1ed9;" horiz-adv-x="620" 
d="M49 256q0 -78 34 -138.5t93.5 -94.5t133.5 -34t133.5 34t93.5 94.5t34 138.5q0 77 -34 137.5t-93.5 94.5t-133.5 34t-133.5 -34t-93.5 -94.5t-34 -137.5zM458 256q0 -78 -41.5 -123t-106.5 -45t-106 45t-41 123q0 77 41 121.5t106 44.5t106.5 -44.5t41.5 -121.5zM128 600
h119l17 19q36 40 45 54h3q5 -10 42 -49q7 -8 12.5 -14t8.5 -10h119l-133 138h-100zM236 -129q0 -32 21 -51t52 -19q32 0 53 19t21 51q0 31 -21 50.5t-53 19.5q-31 0 -52 -19.5t-21 -50.5z" />
    <glyph glyph-name="uni1ED3" unicode="&#x1ed3;" horiz-adv-x="620" 
d="M49 256q0 -78 34 -138.5t93.5 -94.5t133.5 -34t133.5 34t93.5 94.5t34 138.5q0 77 -34 137.5t-93.5 94.5t-133.5 34t-133.5 -34t-93.5 -94.5t-34 -137.5zM458 256q0 -78 -41.5 -123t-106.5 -45t-106 45t-41 123q0 77 41 121.5t106 44.5t106.5 -44.5t41.5 -121.5zM127 585
h119q4 4 10 11t14 16q34 38 39 45h3q3 -7 19.5 -25t20.5 -23l22 -24h119l-133 137h-99zM563 685l-70 124h-119l89 -124h100z" />
    <glyph glyph-name="uni1ED5" unicode="&#x1ed5;" horiz-adv-x="620" 
d="M49 256q0 -78 34 -138.5t93.5 -94.5t133.5 -34t133.5 34t93.5 94.5t34 138.5q0 77 -34 137.5t-93.5 94.5t-133.5 34t-133.5 -34t-93.5 -94.5t-34 -137.5zM458 256q0 -78 -41.5 -123t-106.5 -45t-106 45t-41 123q0 77 41 121.5t106 44.5t106.5 -44.5t41.5 -121.5zM127 585
h119q4 4 10 11t14 16q34 38 39 45h3q3 -7 19.5 -25t20.5 -23l22 -24h119l-133 137h-99zM424 694h88q39 44 39 86q0 36 -31 61t-79 25q-72 0 -107 -51l57 -52q9 10 20 16t21 6q28 0 28 -25q0 -12 -8.5 -27t-27.5 -39z" />
    <glyph glyph-name="uni1ED7" unicode="&#x1ed7;" horiz-adv-x="620" 
d="M49 256q0 -78 34 -138.5t93.5 -94.5t133.5 -34t133.5 34t93.5 94.5t34 138.5q0 77 -34 137.5t-93.5 94.5t-133.5 34t-133.5 -34t-93.5 -94.5t-34 -137.5zM458 256q0 -78 -41.5 -123t-106.5 -45t-106 45t-41 123q0 77 41 121.5t106 44.5t106.5 -44.5t41.5 -121.5zM293 790
q24 -12 43 -19t46 -7t52.5 14.5t41 41.5t15.5 62h-91q0 -17 -8 -27t-21 -10q-9 0 -19 4.5t-21 10.5q-24 12 -43 19t-46 7q-44 0 -76.5 -32.5t-32.5 -85.5h91q0 17 7.5 27t21.5 10q9 0 19 -4.5t21 -10.5zM127 585h119q12 14 21 23q37 41 41 49h3q6 -10 39 -45q8 -9 14 -16
t10 -11h119l-133 137h-100z" />
    <glyph glyph-name="odieresis" unicode="&#xf6;" horiz-adv-x="620" 
d="M49 256q0 -78 34 -138.5t93.5 -94.5t133.5 -34t133.5 34t93.5 94.5t34 138.5q0 77 -34 137.5t-93.5 94.5t-133.5 34t-133.5 -34t-93.5 -94.5t-34 -137.5zM458 256q0 -78 -41.5 -123t-106.5 -45t-106 45t-41 123q0 77 41 121.5t106 44.5t106.5 -44.5t41.5 -121.5zM127 673
q0 -31 20 -49.5t49 -18.5q30 0 49.5 18.5t19.5 49.5t-19.5 49t-49.5 18q-29 0 -49 -18t-20 -49zM355 673q0 -31 19.5 -49.5t49.5 -18.5q29 0 48.5 18.5t19.5 49.5t-19.5 49t-48.5 18q-30 0 -49.5 -18t-19.5 -49z" />
    <glyph glyph-name="uni1ECD" unicode="&#x1ecd;" horiz-adv-x="620" 
d="M49 256q0 -78 34 -138.5t93.5 -94.5t133.5 -34t133.5 34t93.5 94.5t34 138.5q0 77 -34 137.5t-93.5 94.5t-133.5 34t-133.5 -34t-93.5 -94.5t-34 -137.5zM458 256q0 -78 -41.5 -123t-106.5 -45t-106 45t-41 123q0 77 41 121.5t106 44.5t106.5 -44.5t41.5 -121.5z
M236 -129q0 -32 21 -51t52 -19q32 0 53 19t21 51q0 31 -21 50.5t-53 19.5q-31 0 -52 -19.5t-21 -50.5z" />
    <glyph glyph-name="ograve" unicode="&#xf2;" horiz-adv-x="620" 
d="M49 256q0 -78 34 -138.5t93.5 -94.5t133.5 -34t133.5 34t93.5 94.5t34 138.5q0 77 -34 137.5t-93.5 94.5t-133.5 34t-133.5 -34t-93.5 -94.5t-34 -137.5zM458 256q0 -78 -41.5 -123t-106.5 -45t-106 45t-41 123q0 77 41 121.5t106 44.5t106.5 -44.5t41.5 -121.5zM392 600
l-111 137h-124l126 -137h109z" />
    <glyph glyph-name="uni1ECF" unicode="&#x1ecf;" horiz-adv-x="620" 
d="M49 256q0 -78 34 -138.5t93.5 -94.5t133.5 -34t133.5 34t93.5 94.5t34 138.5q0 77 -34 137.5t-93.5 94.5t-133.5 34t-133.5 -34t-93.5 -94.5t-34 -137.5zM458 256q0 -78 -41.5 -123t-106.5 -45t-106 45t-41 123q0 77 41 121.5t106 44.5t106.5 -44.5t41.5 -121.5zM288 588
h88q39 44 39 86q0 36 -31 61.5t-79 25.5q-69 0 -107 -52l57 -51q9 10 20 15.5t21 5.5q28 0 28 -25q0 -12 -8.5 -27t-27.5 -39z" />
    <glyph glyph-name="ohorn" unicode="&#x1a1;" horiz-adv-x="678" 
d="M556 600h100v-44q0 -63 -34.5 -96.5t-94.5 -33.5h-33q76 -68 76 -174q0 -75 -33.5 -135t-93 -94t-133.5 -34t-133.5 34t-93.5 94.5t-34 138.5q0 77 34 137.5t93.5 94.5t133.5 34q40 0 78 -11h115q53 0 53 62v27zM416.5 133q41.5 45 41.5 123q0 77 -41.5 121.5
t-106.5 44.5t-106 -44.5t-41 -121.5q0 -78 41 -123t106 -45t106.5 45z" />
    <glyph glyph-name="uni1EDB" unicode="&#x1edb;" horiz-adv-x="678" 
d="M556 600v-27q0 -62 -53 -62h-115q-38 11 -78 11q-74 0 -133.5 -34t-93.5 -94.5t-34 -137.5q0 -78 34 -138.5t93.5 -94.5t133.5 -34t133.5 34t93 94t33.5 135q0 106 -76 174h33q60 0 94.5 33.5t34.5 96.5v44h-100zM458 256q0 -78 -41.5 -123t-106.5 -45t-106 45t-41 123
q0 77 41 121.5t106 44.5t106.5 -44.5t41.5 -121.5zM459 737h-125l-110 -137h108z" />
    <glyph glyph-name="uni1EE3" unicode="&#x1ee3;" horiz-adv-x="678" 
d="M556 600v-27q0 -62 -53 -62h-115q-38 11 -78 11q-74 0 -133.5 -34t-93.5 -94.5t-34 -137.5q0 -78 34 -138.5t93.5 -94.5t133.5 -34t133.5 34t93 94t33.5 135q0 106 -76 174h33q60 0 94.5 33.5t34.5 96.5v44h-100zM458 256q0 -78 -41.5 -123t-106.5 -45t-106 45t-41 123
q0 77 41 121.5t106 44.5t106.5 -44.5t41.5 -121.5zM232 -129q0 -32 21 -51t52 -19q32 0 53 19t21 51q0 31 -21 50.5t-53 19.5q-31 0 -52 -19.5t-21 -50.5z" />
    <glyph glyph-name="uni1EDD" unicode="&#x1edd;" horiz-adv-x="678" 
d="M556 600v-27q0 -62 -53 -62h-115q-38 11 -78 11q-74 0 -133.5 -34t-93.5 -94.5t-34 -137.5q0 -78 34 -138.5t93.5 -94.5t133.5 -34t133.5 34t93 94t33.5 135q0 106 -76 174h33q60 0 94.5 33.5t34.5 96.5v44h-100zM458 256q0 -78 -41.5 -123t-106.5 -45t-106 45t-41 123
q0 77 41 121.5t106 44.5t106.5 -44.5t41.5 -121.5zM387 600l-111 137h-124l126 -137h109z" />
    <glyph glyph-name="uni1EDF" unicode="&#x1edf;" horiz-adv-x="678" 
d="M556 600v-27q0 -62 -53 -62h-115q-38 11 -78 11q-74 0 -133.5 -34t-93.5 -94.5t-34 -137.5q0 -78 34 -138.5t93.5 -94.5t133.5 -34t133.5 34t93 94t33.5 135q0 106 -76 174h33q60 0 94.5 33.5t34.5 96.5v44h-100zM458 256q0 -78 -41.5 -123t-106.5 -45t-106 45t-41 123
q0 77 41 121.5t106 44.5t106.5 -44.5t41.5 -121.5zM283 588h88q39 44 39 86q0 36 -31 61.5t-79 25.5q-69 0 -107 -52l57 -51q9 10 20 15.5t21 5.5q28 0 28 -25q0 -12 -8.5 -27t-27.5 -39z" />
    <glyph glyph-name="uni1EE1" unicode="&#x1ee1;" horiz-adv-x="678" 
d="M556 600v-27q0 -62 -53 -62h-115q-38 11 -78 11q-74 0 -133.5 -34t-93.5 -94.5t-34 -137.5q0 -78 34 -138.5t93.5 -94.5t133.5 -34t133.5 34t93 94t33.5 135q0 106 -76 174h33q60 0 94.5 33.5t34.5 96.5v44h-100zM458 256q0 -78 -41.5 -123t-106.5 -45t-106 45t-41 123
q0 77 41 121.5t106 44.5t106.5 -44.5t41.5 -121.5zM289 632q22 -15 42 -23.5t47 -8.5q29 0 55 15.5t42 45.5t16 70h-90q0 -21 -8 -33t-21 -12q-9 0 -18 4.5t-23 13.5q-22 15 -42 23.5t-47 8.5q-29 0 -55 -16t-42 -46t-16 -70h91q0 22 7.5 34t21.5 12q9 0 17.5 -4.5
t22.5 -13.5z" />
    <glyph glyph-name="ohungarumlaut" unicode="&#x151;" horiz-adv-x="620" 
d="M49 256q0 -78 34 -138.5t93.5 -94.5t133.5 -34t133.5 34t93.5 94.5t34 138.5q0 77 -34 137.5t-93.5 94.5t-133.5 34t-133.5 -34t-93.5 -94.5t-34 -137.5zM458 256q0 -78 -41.5 -123t-106.5 -45t-106 45t-41 123q0 77 41 121.5t106 44.5t106.5 -44.5t41.5 -121.5zM579 737
h-125l-113 -137h106zM370 737h-119l-109 -137h107z" />
    <glyph glyph-name="omacron" unicode="&#x14d;" horiz-adv-x="620" 
d="M49 256q0 -78 34 -138.5t93.5 -94.5t133.5 -34t133.5 34t93.5 94.5t34 138.5q0 77 -34 137.5t-93.5 94.5t-133.5 34t-133.5 -34t-93.5 -94.5t-34 -137.5zM458 256q0 -78 -41.5 -123t-106.5 -45t-106 45t-41 123q0 77 41 121.5t106 44.5t106.5 -44.5t41.5 -121.5zM477 626
v88h-334v-88h334z" />
    <glyph glyph-name="oslash" unicode="&#xf8;" horiz-adv-x="620" 
d="M571 467l-48 -50q48 -69 48 -161q0 -78 -34 -138.5t-93.5 -94.5t-133.5 -34q-87 0 -153 46l-48 -50l-60 59l49 50q-49 68 -49 162q0 77 34 137.5t93.5 94.5t133.5 34q86 0 153 -46l49 51zM202 379.5q-42 -45.5 -42 -123.5q0 -47 15 -82l218 228q-37 23 -83 23
q-66 0 -108 -45.5zM418.5 132q42.5 46 42.5 124q0 47 -15 81l-217 -228q35 -23 81 -23q66 0 108.5 46z" />
    <glyph glyph-name="otilde" unicode="&#xf5;" horiz-adv-x="620" 
d="M49 256q0 -78 34 -138.5t93.5 -94.5t133.5 -34t133.5 34t93.5 94.5t34 138.5q0 77 -34 137.5t-93.5 94.5t-133.5 34t-133.5 -34t-93.5 -94.5t-34 -137.5zM458 256q0 -78 -41.5 -123t-106.5 -45t-106 45t-41 123q0 77 41 121.5t106 44.5t106.5 -44.5t41.5 -121.5zM294 632
q22 -15 42 -23.5t47 -8.5q29 0 55 15.5t42 45.5t16 70h-90q0 -21 -8 -33t-21 -12q-9 0 -18 4.5t-23 13.5q-22 15 -42 23.5t-47 8.5q-29 0 -55 -16t-42 -46t-16 -70h91q0 22 7.5 34t21.5 12q9 0 17.5 -4.5t22.5 -13.5z" />
    <glyph glyph-name="oe" unicode="&#x153;" horiz-adv-x="991" 
d="M942 229h-371q6 -71 44.5 -107.5t99.5 -36.5q91 0 137 67l77 -64q-38 -51 -93.5 -75t-121.5 -24q-67 0 -119.5 28t-85.5 80q-32 -51 -84.5 -79.5t-118.5 -28.5q-73 0 -132 34t-92 94.5t-33 138.5q0 77 33 137.5t92 94.5t132 34q65 0 117.5 -28t85.5 -79q31 51 81.5 79
t114.5 28q69 0 123 -33t84.5 -93t30.5 -137q0 -21 -1 -30zM617.5 399q-33.5 -31 -43.5 -91h256q-10 61 -43 91.5t-82 30.5q-54 0 -87.5 -31zM416.5 133q41.5 45 41.5 123q0 77 -41.5 121.5t-106.5 44.5t-106 -44.5t-41 -121.5q0 -78 41 -123t106 -45t106.5 45z" />
    <glyph glyph-name="p" unicode="p" horiz-adv-x="632" 
d="M468 487.5q53 -34.5 83.5 -95t30.5 -136.5t-30.5 -137t-83.5 -95.5t-118 -34.5q-57 0 -99 25.5t-68 69.5v-292h-111v719h111v-84q57 95 167 95q65 0 118 -34.5zM429.5 132.5q39.5 44.5 39.5 122.5t-39.5 122.5t-104.5 44.5q-64 0 -104 -44.5t-40 -122.5t40 -122.5
t104 -44.5q65 0 104.5 44.5z" />
    <glyph glyph-name="thorn" unicode="&#xfe;" horiz-adv-x="632" 
d="M468 487q53 -34 83.5 -95t30.5 -137t-30.5 -137t-83.5 -95t-118 -34q-57 0 -99 25.5t-68 69.5v-292h-111v958h111v-323q56 94 167 94q65 0 118 -34zM429.5 132.5q39.5 44.5 39.5 122.5t-39.5 122.5t-104.5 44.5q-64 0 -104 -44.5t-40 -122.5t40 -122.5t104 -44.5
q65 0 104.5 44.5z" />
    <glyph glyph-name="q" unicode="q" horiz-adv-x="632" 
d="M449 511h110v-719h-110v292q-26 -44 -68 -69.5t-99 -25.5q-66 0 -119 34t-83 95t-30 137t30 137t83 95t119 34q57 0 99 -25.5t68 -69.5v85zM411 132.5q40 44.5 40 122.5t-40 122.5t-104 44.5q-65 0 -105 -44.5t-40 -122.5t40 -122.5t105 -44.5q64 0 104 44.5z" />
    <glyph glyph-name="r" unicode="r" horiz-adv-x="379" 
d="M346 522v-118h-52q-49 0 -80 -36t-31 -97v-271h-111v511h111v-80q21 46 56 68.5t79 22.5h28z" />
    <glyph glyph-name="racute" unicode="&#x155;" horiz-adv-x="379" 
d="M346 522h-28q-44 0 -79 -22.5t-56 -68.5v80h-111v-511h111v271q0 61 31 97t80 36h52v118zM364 737h-125l-110 -137h108z" />
    <glyph glyph-name="rcaron" unicode="&#x159;" horiz-adv-x="379" 
d="M346 522h-28q-44 0 -79 -22.5t-56 -68.5v80h-111v-511h111v271q0 61 31 97t80 36h52v118zM160 600h100l133 137h-119q-12 -14 -21 -23q-37 -41 -41 -49h-3q-6 10 -39 45q-8 9 -14 16t-10 11h-119z" />
    <glyph glyph-name="uni0157" unicode="&#x157;" horiz-adv-x="379" 
d="M346 522h-28q-44 0 -79 -22.5t-56 -68.5v80h-111v-511h111v271q0 61 31 97t80 36h52v118zM198 -118q0 26 -19 42t-50 16t-50.5 -15.5t-19.5 -40.5q0 -19 13 -33t36 -19l-46 -62l56 -31l55 77q25 36 25 66z" />
    <glyph glyph-name="uni1E59" unicode="&#x1e59;" horiz-adv-x="379" 
d="M346 522h-28q-44 0 -79 -22.5t-56 -68.5v80h-111v-511h111v271q0 61 31 97t80 36h52v118zM137 675q0 -32 21 -50.5t53 -18.5t52.5 18.5t20.5 50.5t-21 51t-52 19q-32 0 -53 -19t-21 -51z" />
    <glyph glyph-name="uni1E5B" unicode="&#x1e5b;" horiz-adv-x="379" 
d="M346 522h-28q-44 0 -79 -22.5t-56 -68.5v80h-111v-511h111v271q0 61 31 97t80 36h52v118zM55 -129q0 -32 21 -51t52 -19q32 0 53 19t21 51q0 31 -21 50.5t-53 19.5q-31 0 -52 -19.5t-21 -50.5z" />
    <glyph glyph-name="uni1E5D" unicode="&#x1e5d;" horiz-adv-x="379" 
d="M346 522h-28q-44 0 -79 -22.5t-56 -68.5v80h-111v-511h111v271q0 61 31 97t80 36h52v118zM377 626v88h-334v-88h334zM55 -129q0 -32 21 -51t52 -19q32 0 53 19t21 51q0 31 -21 50.5t-53 19.5q-31 0 -52 -19.5t-21 -50.5z" />
    <glyph glyph-name="uni1E5F" unicode="&#x1e5f;" horiz-adv-x="379" 
d="M346 522h-28q-44 0 -79 -22.5t-56 -68.5v80h-111v-511h111v271q0 61 31 97t80 36h52v118zM295 -155v89h-333v-89h333z" />
    <glyph glyph-name="s" unicode="s" horiz-adv-x="518" 
d="M123 19.5q-57 30.5 -82 90.5l83 48q40 -78 132 -78q50 0 79 16t29 43q0 25 -23 39t-77 27l-51 13q-82 21 -119.5 59t-37.5 96q0 66 54 107t143 41q76 0 130 -31t81 -90l-89 -43q-17 36 -49 54t-73 18q-42 0 -66.5 -15t-24.5 -39q0 -26 24 -40t75 -27l50 -12
q81 -20 120.5 -58t39.5 -95q0 -45 -26.5 -80t-75 -54.5t-112.5 -19.5q-77 0 -134 30.5z" />
    <glyph glyph-name="sacute" unicode="&#x15b;" horiz-adv-x="518" 
d="M41 110q25 -60 82 -90.5t134 -30.5q64 0 112.5 19.5t75 54.5t26.5 80q0 57 -39.5 95t-120.5 58l-50 12q-51 13 -75 27t-24 40q0 24 24.5 39t66.5 15q41 0 73 -18t49 -54l89 43q-27 59 -81 90t-130 31q-89 0 -143 -41t-54 -107q0 -58 37.5 -96t119.5 -59l51 -13
q54 -13 77 -27t23 -39q0 -27 -29 -43t-79 -16q-92 0 -132 78zM413 737h-125l-110 -137h108z" />
    <glyph glyph-name="scaron" unicode="&#x161;" horiz-adv-x="518" 
d="M41 110q25 -60 82 -90.5t134 -30.5q64 0 112.5 19.5t75 54.5t26.5 80q0 57 -39.5 95t-120.5 58l-50 12q-51 13 -75 27t-24 40q0 24 24.5 39t66.5 15q41 0 73 -18t49 -54l89 43q-27 59 -81 90t-130 31q-89 0 -143 -41t-54 -107q0 -58 37.5 -96t119.5 -59l51 -13
q54 -13 77 -27t23 -39q0 -27 -29 -43t-79 -16q-92 0 -132 78zM210 600h100l133 137h-119q-12 -14 -21 -23q-37 -41 -41 -49h-3q-6 10 -39 45q-8 9 -14 16t-10 11h-119z" />
    <glyph glyph-name="scedilla" unicode="&#x15f;" horiz-adv-x="518" 
d="M426 43q-45 -41 -121 -51l16 -14q38 -34 38 -75q0 -33 -26 -56t-71 -23h-90v94h58q13 0 20.5 6t7.5 16q0 16 -15 31l-18 19q-66 6 -114 36t-70 84l83 48q40 -78 132 -78q50 0 79 16t29 43q0 25 -23 39t-77 27l-51 13q-82 21 -119.5 59t-37.5 96q0 66 54 107t143 41
q76 0 130 -31t81 -90l-89 -43q-17 36 -49 54t-73 18q-42 0 -66.5 -15t-24.5 -39q0 -26 24 -40t75 -27l50 -12q81 -20 120.5 -58t39.5 -95q0 -59 -45 -100z" />
    <glyph glyph-name="scircumflex" unicode="&#x15d;" horiz-adv-x="518" 
d="M41 110q25 -60 82 -90.5t134 -30.5q64 0 112.5 19.5t75 54.5t26.5 80q0 57 -39.5 95t-120.5 58l-50 12q-51 13 -75 27t-24 40q0 24 24.5 39t66.5 15q41 0 73 -18t49 -54l89 43q-27 59 -81 90t-130 31q-89 0 -143 -41t-54 -107q0 -58 37.5 -96t119.5 -59l51 -13
q54 -13 77 -27t23 -39q0 -27 -29 -43t-79 -16q-92 0 -132 78zM77 600h119l17 19q36 40 45 54h3q5 -10 42 -49q7 -8 12.5 -14t8.5 -10h119l-133 138h-100z" />
    <glyph glyph-name="uni0219" unicode="&#x219;" horiz-adv-x="518" 
d="M41 110q25 -60 82 -90.5t134 -30.5q64 0 112.5 19.5t75 54.5t26.5 80q0 57 -39.5 95t-120.5 58l-50 12q-51 13 -75 27t-24 40q0 24 24.5 39t66.5 15q41 0 73 -18t49 -54l89 43q-27 59 -81 90t-130 31q-89 0 -143 -41t-54 -107q0 -58 37.5 -96t119.5 -59l51 -13
q54 -13 77 -27t23 -39q0 -27 -29 -43t-79 -16q-92 0 -132 78zM325 -118q0 26 -19 42t-50 16t-50.5 -15.5t-19.5 -40.5q0 -19 13 -33t36 -19l-46 -62l56 -31l55 77q25 36 25 66z" />
    <glyph glyph-name="uni1E63" unicode="&#x1e63;" horiz-adv-x="518" 
d="M41 110q25 -60 82 -90.5t134 -30.5q64 0 112.5 19.5t75 54.5t26.5 80q0 57 -39.5 95t-120.5 58l-50 12q-51 13 -75 27t-24 40q0 24 24.5 39t66.5 15q41 0 73 -18t49 -54l89 43q-27 59 -81 90t-130 31q-89 0 -143 -41t-54 -107q0 -58 37.5 -96t119.5 -59l51 -13
q54 -13 77 -27t23 -39q0 -27 -29 -43t-79 -16q-92 0 -132 78zM182 -129q0 -32 21 -51t52 -19q32 0 53 19t21 51q0 31 -21 50.5t-53 19.5q-31 0 -52 -19.5t-21 -50.5z" />
    <glyph glyph-name="germandbls" unicode="&#xdf;" horiz-adv-x="618" 
d="M529 328q41 -51 41 -116q0 -64 -29.5 -112t-81.5 -74t-119 -26h-77v97h57q63 0 100 31.5t37 90.5q0 58 -37 89.5t-100 31.5h-25v95h5q51 0 84.5 30t33.5 83q0 51 -33.5 82t-84.5 31q-55 0 -86 -34.5t-31 -92.5v-534h-111v533q0 63 25 114.5t77 82.5t128 31
q66 0 118.5 -27.5t81.5 -75t29 -106.5t-28.5 -101t-74.5 -57q60 -15 101 -66z" />
    <glyph glyph-name="longs" unicode="&#x17f;" horiz-adv-x="276" 
d="M72 592q0 77 42.5 122t119.5 45h66v-98h-53q-63 0 -63 -75v-586h-112v592z" />
    <glyph glyph-name="t" unicode="t" horiz-adv-x="392" 
d="M353 420h-117v-247q0 -77 63 -77h54v-96h-66q-77 0 -119 44.5t-42 121.5v254h-95v91h95v104l110 64v-168h117v-91z" />
    <glyph glyph-name="tbar" unicode="&#x167;" horiz-adv-x="396" 
d="M356 420h-116v-109h116v-81h-116v-57q0 -77 63 -77h53v-96h-66q-77 0 -119 45t-42 121v64h-94v81h94v109h-94v91h94v104l111 64v-168h116v-91z" />
    <glyph glyph-name="tcaron" unicode="&#x165;" horiz-adv-x="392" 
d="M353 420v91h-117v168l-110 -64v-104h-95v-91h95v-254q0 -77 42 -121.5t119 -44.5h66v96h-54q-63 0 -63 77v247h117zM282 553h71l27 111v110h-98v-221z" />
    <glyph glyph-name="uni0163" unicode="&#x163;" horiz-adv-x="392" 
d="M353 420h-117v-247q0 -77 63 -77h54v-96h-66q-12 0 -17 1l13 -16q23 -29 34 -47t11 -35q0 -33 -26.5 -56t-71.5 -23h-88v94h56q13 0 21 6t8 16q0 13 -18 40l-42 65q-41 44 -41 121v254h-95v91h95v104l110 64v-168h117v-91z" />
    <glyph glyph-name="uni021B" unicode="&#x21b;" horiz-adv-x="392" 
d="M353 420v91h-117v168l-110 -64v-104h-95v-91h95v-254q0 -77 42 -121.5t119 -44.5h66v96h-54q-63 0 -63 77v247h117zM315 -118q0 26 -19 42t-50 16t-50.5 -15.5t-19.5 -40.5q0 -19 13 -33t36 -19l-46 -62l56 -31l55 77q25 36 25 66z" />
    <glyph glyph-name="uni1E6D" unicode="&#x1e6d;" horiz-adv-x="392" 
d="M353 420v91h-117v168l-110 -64v-104h-95v-91h95v-254q0 -77 42 -121.5t119 -44.5h66v96h-54q-63 0 -63 77v247h117zM172 -129q0 -32 21 -51t52 -19q32 0 53 19t21 51q0 31 -21 50.5t-53 19.5q-31 0 -52 -19.5t-21 -50.5z" />
    <glyph glyph-name="uni1E6F" unicode="&#x1e6f;" horiz-adv-x="392" 
d="M353 420v91h-117v168l-110 -64v-104h-95v-91h95v-254q0 -77 42 -121.5t119 -44.5h66v96h-54q-63 0 -63 77v247h117zM412 -155v89h-333v-89h333z" />
    <glyph glyph-name="u" unicode="u" horiz-adv-x="577" 
d="M174.5 15q-50.5 26 -79 75t-28.5 116v305h111v-298q0 -61 30.5 -92.5t80.5 -31.5t80 31.5t30 92.5v298h111v-305q0 -67 -28.5 -116.5t-78.5 -75t-114 -25.5t-114.5 26z" />
    <glyph glyph-name="uacute" unicode="&#xfa;" horiz-adv-x="577" 
d="M67 206q0 -67 28.5 -116t79 -75t114.5 -26t114 25.5t78.5 75t28.5 116.5v305h-111v-298q0 -61 -30 -92.5t-80 -31.5t-80.5 31.5t-30.5 92.5v298h-111v-305zM442 737h-125l-110 -137h108z" />
    <glyph glyph-name="ubreve" unicode="&#x16d;" horiz-adv-x="577" 
d="M67 206q0 -67 28.5 -116t79 -75t114.5 -26t114 25.5t78.5 75t28.5 116.5v305h-111v-298q0 -61 -30 -92.5t-80 -31.5t-80.5 31.5t-30.5 92.5v298h-111v-305zM118 737q5 -66 51.5 -103.5t119.5 -37.5t119.5 37.5t51.5 103.5h-96q-7 -63 -75 -63t-75 63h-96z" />
    <glyph glyph-name="uni01D4" unicode="&#x1d4;" horiz-adv-x="577" 
d="M67 206q0 -67 28.5 -116t79 -75t114.5 -26t114 25.5t78.5 75t28.5 116.5v305h-111v-298q0 -61 -30 -92.5t-80 -31.5t-80.5 31.5t-30.5 92.5v298h-111v-305zM239 600h100l133 137h-119q-12 -14 -21 -23q-37 -41 -41 -49h-3q-6 10 -39 45q-8 9 -14 16t-10 11h-119z" />
    <glyph glyph-name="ucircumflex" unicode="&#xfb;" horiz-adv-x="577" 
d="M67 206q0 -67 28.5 -116t79 -75t114.5 -26t114 25.5t78.5 75t28.5 116.5v305h-111v-298q0 -61 -30 -92.5t-80 -31.5t-80.5 31.5t-30.5 92.5v298h-111v-305zM106 600h119l17 19q36 40 45 54h3q5 -10 42 -49q7 -8 12.5 -14t8.5 -10h119l-133 138h-100z" />
    <glyph glyph-name="udieresis" unicode="&#xfc;" horiz-adv-x="577" 
d="M67 206q0 -67 28.5 -116t79 -75t114.5 -26t114 25.5t78.5 75t28.5 116.5v305h-111v-298q0 -61 -30 -92.5t-80 -31.5t-80.5 31.5t-30.5 92.5v298h-111v-305zM105 673q0 -31 20 -49.5t49 -18.5q30 0 49.5 18.5t19.5 49.5t-19.5 49t-49.5 18q-29 0 -49 -18t-20 -49zM333 673
q0 -31 19.5 -49.5t49.5 -18.5q29 0 48.5 18.5t19.5 49.5t-19.5 49t-48.5 18q-30 0 -49.5 -18t-19.5 -49z" />
    <glyph glyph-name="uni01D8" unicode="&#x1d8;" horiz-adv-x="577" 
d="M67 206q0 -67 28.5 -116t79 -75t114.5 -26t114 25.5t78.5 75t28.5 116.5v305h-111v-298q0 -61 -30 -92.5t-80 -31.5t-80.5 31.5t-30.5 92.5v298h-111v-305zM337 765l105 138h-125l-88 -138h108zM106 653q0 -31 20 -49.5t49 -18.5q30 0 49.5 18.5t19.5 49.5t-19.5 49
t-49.5 18q-29 0 -49 -18t-20 -49zM334 653q0 -31 19.5 -49.5t49.5 -18.5q29 0 48.5 18.5t19.5 49.5t-19.5 49t-48.5 18q-30 0 -49.5 -18t-19.5 -49z" />
    <glyph glyph-name="uni01DA" unicode="&#x1da;" horiz-adv-x="577" 
d="M67 206q0 -67 28.5 -116t79 -75t114.5 -26t114 25.5t78.5 75t28.5 116.5v305h-111v-298q0 -61 -30 -92.5t-80 -31.5t-80.5 31.5t-30.5 92.5v298h-111v-305zM239 765h100l133 138h-119l-17 -19q-36 -40 -45 -54h-3q-5 10 -42 49q-7 8 -12.5 14t-8.5 10h-119zM106 653
q0 -31 19.5 -49.5t49.5 -18.5q29 0 48.5 18.5t19.5 49.5t-19.5 49t-48.5 18q-30 0 -49.5 -18t-19.5 -49zM334 653q0 -31 19.5 -49.5t49.5 -18.5q29 0 48.5 18.5t19.5 49.5t-19.5 49t-48.5 18q-30 0 -49.5 -18t-19.5 -49z" />
    <glyph glyph-name="uni01DC" unicode="&#x1dc;" horiz-adv-x="577" 
d="M67 206q0 -67 28.5 -116t79 -75t114.5 -26t114 25.5t78.5 75t28.5 116.5v305h-111v-298q0 -61 -30 -92.5t-80 -31.5t-80.5 31.5t-30.5 92.5v298h-111v-305zM359 765l-89 138h-124l104 -138h109zM105 653q0 -31 20 -49.5t49 -18.5q30 0 49.5 18.5t19.5 49.5t-19.5 49
t-49.5 18q-29 0 -49 -18t-20 -49zM333 653q0 -31 19.5 -49.5t49.5 -18.5q29 0 48.5 18.5t19.5 49.5t-19.5 49t-48.5 18q-30 0 -49.5 -18t-19.5 -49z" />
    <glyph glyph-name="uni01D6" unicode="&#x1d6;" horiz-adv-x="577" 
d="M67 206q0 -67 28.5 -116t79 -75t114.5 -26t114 25.5t78.5 75t28.5 116.5v305h-111v-298q0 -61 -30 -92.5t-80 -31.5t-80.5 31.5t-30.5 92.5v298h-111v-305zM456 772v88h-334v-88h334zM106 653q0 -31 20 -49.5t49 -18.5q30 0 49.5 18.5t19.5 49.5t-19.5 49t-49.5 18
q-29 0 -49 -18t-20 -49zM334 653q0 -31 19.5 -49.5t49.5 -18.5q29 0 48.5 18.5t19.5 49.5t-19.5 49t-48.5 18q-30 0 -49.5 -18t-19.5 -49z" />
    <glyph glyph-name="uni1EE5" unicode="&#x1ee5;" horiz-adv-x="577" 
d="M67 206q0 -67 28.5 -116t79 -75t114.5 -26t114 25.5t78.5 75t28.5 116.5v305h-111v-298q0 -61 -30 -92.5t-80 -31.5t-80.5 31.5t-30.5 92.5v298h-111v-305zM215 -129q0 -32 21 -51t52 -19q32 0 53 19t21 51q0 31 -21 50.5t-53 19.5q-31 0 -52 -19.5t-21 -50.5z" />
    <glyph glyph-name="ugrave" unicode="&#xf9;" horiz-adv-x="577" 
d="M67 206q0 -67 28.5 -116t79 -75t114.5 -26t114 25.5t78.5 75t28.5 116.5v305h-111v-298q0 -61 -30 -92.5t-80 -31.5t-80.5 31.5t-30.5 92.5v298h-111v-305zM370 600l-111 137h-124l126 -137h109z" />
    <glyph glyph-name="uni1EE7" unicode="&#x1ee7;" horiz-adv-x="577" 
d="M67 206q0 -67 28.5 -116t79 -75t114.5 -26t114 25.5t78.5 75t28.5 116.5v305h-111v-298q0 -61 -30 -92.5t-80 -31.5t-80.5 31.5t-30.5 92.5v298h-111v-305zM267 588h88q39 44 39 86q0 36 -31 61.5t-79 25.5q-69 0 -107 -52l57 -51q9 10 20 15.5t21 5.5q28 0 28 -25
q0 -12 -8.5 -27t-27.5 -39z" />
    <glyph glyph-name="uhorn" unicode="&#x1b0;" horiz-adv-x="686" 
d="M575 600h100v-44q0 -63 -34.5 -96.5t-94.5 -33.5h-36v-220q0 -67 -28.5 -116.5t-78.5 -75t-114 -25.5t-114.5 26t-79 75t-28.5 116v305h111v-298q0 -61 30.5 -92.5t80.5 -31.5t80 31.5t30 92.5v298h123q53 0 53 62v27z" />
    <glyph glyph-name="uni1EE9" unicode="&#x1ee9;" horiz-adv-x="686" 
d="M575 600v-27q0 -62 -53 -62h-123v-298q0 -61 -30 -92.5t-80 -31.5t-80.5 31.5t-30.5 92.5v298h-111v-305q0 -67 28.5 -116t79 -75t114.5 -26t114 25.5t78.5 75t28.5 116.5v220h36q60 0 94.5 33.5t34.5 96.5v44h-100zM442 737h-125l-110 -137h108z" />
    <glyph glyph-name="uni1EF1" unicode="&#x1ef1;" horiz-adv-x="686" 
d="M575 600v-27q0 -62 -53 -62h-123v-298q0 -61 -30 -92.5t-80 -31.5t-80.5 31.5t-30.5 92.5v298h-111v-305q0 -67 28.5 -116t79 -75t114.5 -26t114 25.5t78.5 75t28.5 116.5v220h36q60 0 94.5 33.5t34.5 96.5v44h-100zM215 -129q0 -32 21 -51t52 -19q32 0 53 19t21 51
q0 31 -21 50.5t-53 19.5q-31 0 -52 -19.5t-21 -50.5z" />
    <glyph glyph-name="uni1EEB" unicode="&#x1eeb;" horiz-adv-x="686" 
d="M575 600v-27q0 -62 -53 -62h-123v-298q0 -61 -30 -92.5t-80 -31.5t-80.5 31.5t-30.5 92.5v298h-111v-305q0 -67 28.5 -116t79 -75t114.5 -26t114 25.5t78.5 75t28.5 116.5v220h36q60 0 94.5 33.5t34.5 96.5v44h-100zM370 600l-111 137h-124l126 -137h109z" />
    <glyph glyph-name="uni1EED" unicode="&#x1eed;" horiz-adv-x="686" 
d="M575 600v-27q0 -62 -53 -62h-123v-298q0 -61 -30 -92.5t-80 -31.5t-80.5 31.5t-30.5 92.5v298h-111v-305q0 -67 28.5 -116t79 -75t114.5 -26t114 25.5t78.5 75t28.5 116.5v220h36q60 0 94.5 33.5t34.5 96.5v44h-100zM267 588h88q39 44 39 86q0 36 -31 61.5t-79 25.5
q-69 0 -107 -52l57 -51q9 10 20 15.5t21 5.5q28 0 28 -25q0 -12 -8.5 -27t-27.5 -39z" />
    <glyph glyph-name="uni1EEF" unicode="&#x1eef;" horiz-adv-x="686" 
d="M575 600v-27q0 -62 -53 -62h-123v-298q0 -61 -30 -92.5t-80 -31.5t-80.5 31.5t-30.5 92.5v298h-111v-305q0 -67 28.5 -116t79 -75t114.5 -26t114 25.5t78.5 75t28.5 116.5v220h36q60 0 94.5 33.5t34.5 96.5v44h-100zM273 632q22 -15 42 -23.5t47 -8.5q29 0 55 15.5
t42 45.5t16 70h-90q0 -21 -8 -33t-21 -12q-9 0 -18 4.5t-23 13.5q-22 15 -42 23.5t-47 8.5q-29 0 -55 -16t-42 -46t-16 -70h91q0 22 7.5 34t21.5 12q9 0 17.5 -4.5t22.5 -13.5z" />
    <glyph glyph-name="uhungarumlaut" unicode="&#x171;" horiz-adv-x="577" 
d="M67 206q0 -67 28.5 -116t79 -75t114.5 -26t114 25.5t78.5 75t28.5 116.5v305h-111v-298q0 -61 -30 -92.5t-80 -31.5t-80.5 31.5t-30.5 92.5v298h-111v-305zM558 737h-125l-113 -137h106zM349 737h-119l-109 -137h107z" />
    <glyph glyph-name="umacron" unicode="&#x16b;" horiz-adv-x="577" 
d="M67 206q0 -67 28.5 -116t79 -75t114.5 -26t114 25.5t78.5 75t28.5 116.5v305h-111v-298q0 -61 -30 -92.5t-80 -31.5t-80.5 31.5t-30.5 92.5v298h-111v-305zM456 626v88h-334v-88h334z" />
    <glyph glyph-name="uogonek" unicode="&#x173;" horiz-adv-x="577" 
d="M399 511h111v-305q0 -80 -39.5 -134t-107.5 -73l-26 -28q-15 -17 -15 -31q0 -10 8 -16t21 -6h31v-94h-63q-46 0 -72 23t-26 56q0 40 39 75l13 11q-92 5 -149 62.5t-57 154.5v305h111v-298q0 -61 30.5 -92.5t80.5 -31.5t80 31.5t30 92.5v298z" />
    <glyph glyph-name="uring" unicode="&#x16f;" horiz-adv-x="577" 
d="M67 206q0 -67 28.5 -116t79 -75t114.5 -26t114 25.5t78.5 75t28.5 116.5v305h-111v-298q0 -61 -30 -92.5t-80 -31.5t-80.5 31.5t-30.5 92.5v298h-111v-305zM155 689q0 -48 37.5 -79t96.5 -31t96 31t37 79t-37 79t-96 31t-96.5 -31t-37.5 -79zM347 689q0 -20 -15 -32.5
t-43 -12.5t-43 12.5t-15 32.5t15 32.5t43 12.5t43 -12.5t15 -32.5z" />
    <glyph glyph-name="utilde" unicode="&#x169;" horiz-adv-x="577" 
d="M67 206q0 -67 28.5 -116t79 -75t114.5 -26t114 25.5t78.5 75t28.5 116.5v305h-111v-298q0 -61 -30 -92.5t-80 -31.5t-80.5 31.5t-30.5 92.5v298h-111v-305zM273 632q22 -15 42 -23.5t47 -8.5q29 0 55 15.5t42 45.5t16 70h-90q0 -21 -8 -33t-21 -12q-9 0 -18 4.5t-23 13.5
q-22 15 -42 23.5t-47 8.5q-29 0 -55 -16t-42 -46t-16 -70h91q0 22 7.5 34t21.5 12q9 0 17.5 -4.5t22.5 -13.5z" />
    <glyph glyph-name="v" unicode="v" horiz-adv-x="559" 
d="M228 0l-204 511h121l110 -289q24 -69 24 -89h4q0 20 24 89l109 289h118l-202 -511h-104z" />
    <glyph glyph-name="w" unicode="w" horiz-adv-x="803" 
d="M531 254q25 -85 27 -107h3q0 14 24 108l74 256h116l-159 -511h-108l-79 256q-26 84 -26 104h-4q0 -17 -25 -104l-80 -256h-107l-159 511h117l74 -257q24 -87 24 -108h4q0 10 8 41t19 66l80 258h96z" />
    <glyph glyph-name="wacute" unicode="&#x1e83;" horiz-adv-x="803" 
d="M531 254l-81 257h-96l-80 -258q-11 -35 -19 -66t-8 -41h-4q0 21 -24 108l-74 257h-117l159 -511h107l80 256q25 87 25 104h4q0 -20 26 -104l79 -256h108l159 511h-116l-74 -256q-24 -94 -24 -108h-3q-2 22 -27 107zM555 737h-125l-110 -137h108z" />
    <glyph glyph-name="wcircumflex" unicode="&#x175;" horiz-adv-x="803" 
d="M531 254l-81 257h-96l-80 -258q-11 -35 -19 -66t-8 -41h-4q0 21 -24 108l-74 257h-117l159 -511h107l80 256q25 87 25 104h4q0 -20 26 -104l79 -256h108l159 511h-116l-74 -256q-24 -94 -24 -108h-3q-2 22 -27 107zM219 600h119l17 19q36 40 45 54h3q5 -10 42 -49
q7 -8 12.5 -14t8.5 -10h119l-133 138h-100z" />
    <glyph glyph-name="wdieresis" unicode="&#x1e85;" horiz-adv-x="803" 
d="M531 254l-81 257h-96l-80 -258q-11 -35 -19 -66t-8 -41h-4q0 21 -24 108l-74 257h-117l159 -511h107l80 256q25 87 25 104h4q0 -20 26 -104l79 -256h108l159 511h-116l-74 -256q-24 -94 -24 -108h-3q-2 22 -27 107zM219 673q0 -31 20 -49.5t49 -18.5q30 0 49.5 18.5
t19.5 49.5t-19.5 49t-49.5 18q-29 0 -49 -18t-20 -49zM447 673q0 -31 19.5 -49.5t49.5 -18.5q29 0 48.5 18.5t19.5 49.5t-19.5 49t-48.5 18q-30 0 -49.5 -18t-19.5 -49z" />
    <glyph glyph-name="uni1E89" unicode="&#x1e89;" horiz-adv-x="803" 
d="M531 254l-81 257h-96l-80 -258q-11 -35 -19 -66t-8 -41h-4q0 21 -24 108l-74 257h-117l159 -511h107l80 256q25 87 25 104h4q0 -20 26 -104l79 -256h108l159 511h-116l-74 -256q-24 -94 -24 -108h-3q-2 22 -27 107zM328 -129q0 -32 21 -51t52 -19q32 0 53 19t21 51
q0 31 -21 50.5t-53 19.5q-31 0 -52 -19.5t-21 -50.5z" />
    <glyph glyph-name="wgrave" unicode="&#x1e81;" horiz-adv-x="803" 
d="M531 254l-81 257h-96l-80 -258q-11 -35 -19 -66t-8 -41h-4q0 21 -24 108l-74 257h-117l159 -511h107l80 256q25 87 25 104h4q0 -20 26 -104l79 -256h108l159 511h-116l-74 -256q-24 -94 -24 -108h-3q-2 22 -27 107zM484 600l-111 137h-124l126 -137h109z" />
    <glyph glyph-name="x" unicode="x" horiz-adv-x="548" 
d="M340 261l194 -261h-132l-78 103q-21 28 -34 52t-15 34h-4q-2 -10 -15.5 -34t-34.5 -52l-78 -103h-129l195 259l-188 252h132l71 -94q21 -28 34.5 -52t15.5 -34h3q2 11 16 35t34 51l71 94h129z" />
    <glyph glyph-name="y" unicode="y" horiz-adv-x="561" 
d="M257 283q27 -62 27 -79h3q1 16 28 79l108 228h122l-336 -719h-121l141 302l-201 417h126z" />
    <glyph glyph-name="yacute" unicode="&#xfd;" horiz-adv-x="561" 
d="M257 283l-103 228h-126l201 -417l-141 -302h121l336 719h-122l-108 -228q-27 -63 -28 -79h-3q0 17 -27 79zM443 737h-125l-110 -137h108z" />
    <glyph glyph-name="ycircumflex" unicode="&#x177;" horiz-adv-x="561" 
d="M257 283l-103 228h-126l201 -417l-141 -302h121l336 719h-122l-108 -228q-27 -63 -28 -79h-3q0 17 -27 79zM107 600h119l17 19q36 40 45 54h3q5 -10 42 -49q7 -8 12.5 -14t8.5 -10h119l-133 138h-100z" />
    <glyph glyph-name="ydieresis" unicode="&#xff;" horiz-adv-x="561" 
d="M257 283l-103 228h-126l201 -417l-141 -302h121l336 719h-122l-108 -228q-27 -63 -28 -79h-3q0 17 -27 79zM106 673q0 -31 20 -49.5t49 -18.5q30 0 49.5 18.5t19.5 49.5t-19.5 49t-49.5 18q-29 0 -49 -18t-20 -49zM334 673q0 -31 19.5 -49.5t49.5 -18.5q29 0 48.5 18.5
t19.5 49.5t-19.5 49t-48.5 18q-30 0 -49.5 -18t-19.5 -49z" />
    <glyph glyph-name="uni1EF5" unicode="&#x1ef5;" horiz-adv-x="561" 
d="M257 283l-103 228h-126l201 -417l-141 -302h121l336 719h-122l-108 -228q-27 -63 -28 -79h-3q0 17 -27 79zM332 -130q0 -32 21 -51t52 -19q32 0 53 19t21 51q0 31 -21 50.5t-53 19.5q-31 0 -52 -19.5t-21 -50.5z" />
    <glyph glyph-name="ygrave" unicode="&#x1ef3;" horiz-adv-x="561" 
d="M257 283l-103 228h-126l201 -417l-141 -302h121l336 719h-122l-108 -228q-27 -63 -28 -79h-3q0 17 -27 79zM371 600l-111 137h-124l126 -137h109z" />
    <glyph glyph-name="uni1EF7" unicode="&#x1ef7;" horiz-adv-x="561" 
d="M257 283l-103 228h-126l201 -417l-141 -302h121l336 719h-122l-108 -228q-27 -63 -28 -79h-3q0 17 -27 79zM267 588h88q39 44 39 86q0 36 -31 61.5t-79 25.5q-69 0 -107 -52l57 -51q9 10 20 15.5t21 5.5q28 0 28 -25q0 -12 -8.5 -27t-27.5 -39z" />
    <glyph glyph-name="uni0233" unicode="&#x233;" horiz-adv-x="561" 
d="M257 283l-103 228h-126l201 -417l-141 -302h121l336 719h-122l-108 -228q-27 -63 -28 -79h-3q0 17 -27 79zM456 626v88h-334v-88h334z" />
    <glyph glyph-name="uni1EF9" unicode="&#x1ef9;" horiz-adv-x="561" 
d="M257 283l-103 228h-126l201 -417l-141 -302h121l336 719h-122l-108 -228q-27 -63 -28 -79h-3q0 17 -27 79zM273 632q22 -15 42 -23.5t47 -8.5q29 0 55 15.5t42 45.5t16 70h-90q0 -21 -8 -33t-21 -12q-9 0 -18 4.5t-23 13.5q-22 15 -42 23.5t-47 8.5q-29 0 -55 -16
t-42 -46t-16 -70h91q0 22 7.5 34t21.5 12q9 0 17.5 -4.5t22.5 -13.5z" />
    <glyph glyph-name="z" unicode="z" horiz-adv-x="512" 
d="M234 149q-39 -49 -56 -57l1 -3q18 7 81 7h205v-96h-421v80l229 281q41 50 57 58l-1 3q-17 -8 -81 -8h-193v97h405v-83z" />
    <glyph glyph-name="zacute" unicode="&#x17a;" horiz-adv-x="512" 
d="M234 149l226 279v83h-405v-97h193q64 0 81 8l1 -3q-16 -8 -57 -58l-229 -281v-80h421v96h-205q-63 0 -81 -7l-1 3q17 8 56 57zM412 737h-125l-110 -137h108z" />
    <glyph glyph-name="zcaron" unicode="&#x17e;" horiz-adv-x="512" 
d="M234 149l226 279v83h-405v-97h193q64 0 81 8l1 -3q-16 -8 -57 -58l-229 -281v-80h421v96h-205q-63 0 -81 -7l-1 3q17 8 56 57zM209 600h100l133 137h-119q-12 -14 -21 -23q-37 -41 -41 -49h-3q-6 10 -39 45q-8 9 -14 16t-10 11h-119z" />
    <glyph glyph-name="zdotaccent" unicode="&#x17c;" horiz-adv-x="512" 
d="M234 149l226 279v83h-405v-97h193q64 0 81 8l1 -3q-16 -8 -57 -58l-229 -281v-80h421v96h-205q-63 0 -81 -7l-1 3q17 8 56 57zM186 675q0 -32 21 -50.5t53 -18.5t52.5 18.5t20.5 50.5t-21 51t-52 19q-32 0 -53 -19t-21 -51z" />
    <glyph glyph-name="uni1E93" unicode="&#x1e93;" horiz-adv-x="512" 
d="M234 149l226 279v83h-405v-97h193q64 0 81 8l1 -3q-16 -8 -57 -58l-229 -281v-80h421v96h-205q-63 0 -81 -7l-1 3q17 8 56 57zM183 -129q0 -32 21 -51t52 -19q32 0 53 19t21 51q0 31 -21 50.5t-53 19.5q-31 0 -52 -19.5t-21 -50.5z" />
    <glyph glyph-name="uni1E95" unicode="&#x1e95;" horiz-adv-x="512" 
d="M234 149l226 279v83h-405v-97h193q64 0 81 8l1 -3q-16 -8 -57 -58l-229 -281v-80h421v96h-205q-63 0 -81 -7l-1 3q17 8 56 57zM423 -155v89h-333v-89h333z" />
    <glyph glyph-name="uni013C.latnMAH" horiz-adv-x="303" 
d="M243 -22q20 -21 29.5 -39t9.5 -36q0 -33 -26.5 -56t-71.5 -23h-79v94h47q13 0 21 6t8 16q0 12 -16 31l-57 69q-35 38 -35 105v555h111v-548q0 -56 50 -56h39v-96h-50z" />
    <glyph glyph-name="uni0146.latnMAH" horiz-adv-x="582" 
d="M515 325q0 58 -24 103t-66 69.5t-95 24.5q-47 0 -85.5 -20.5t-61.5 -62.5v72h-111v-511h111v302q0 56 32.5 89t85.5 33q46 0 74.5 -31.5t28.5 -85.5v-307h111v325zM211 -176h90q45 0 71 23t26 56q0 41 -38 75l-33 29l-72 -7l27 -29q15 -15 15 -31q0 -10 -7.5 -16
t-20.5 -6h-58v-94z" />
    <glyph glyph-name="aogonek.latnNAV" horiz-adv-x="569" 
d="M384 499.5q53 -22.5 85 -68t32 -112.5v-319h-104v50q-27 -35 -76 -50l-27 -29q-15 -15 -15 -31q0 -10 7.5 -16t20.5 -6h31v-94h-63q-45 0 -71.5 23t-26.5 56q0 40 39 75l13 11q-83 4 -135 46t-52 112q0 73 57.5 116t149.5 43q47 0 83 -13t59 -37v53q0 56 -34.5 85
t-92.5 29q-41 0 -72.5 -17t-49.5 -48l-79 62q31 51 84.5 76.5t120.5 25.5q63 0 116 -22.5zM360.5 92q32.5 20 32.5 56q0 37 -32.5 57t-85.5 20t-86 -20t-33 -57q0 -36 33 -56t86 -20t85.5 20z" />
    <glyph glyph-name="eogonek.latnNAV" horiz-adv-x="582" 
d="M534 229h-372q7 -71 45.5 -107.5t99.5 -36.5q91 0 137 67l77 -64q-61 -83 -171 -96q-3 -4 -12.5 -17.5t-13 -21t-3.5 -13.5q0 -10 7.5 -16t20.5 -6h31v-94h-63q-45 0 -71 22t-26 54q0 19 11 39.5t37 49.5l2 2q-65 8 -115 43t-77.5 92.5t-27.5 129.5q0 79 31.5 139.5
t87.5 93.5t128 33q69 0 123 -33t84.5 -93t30.5 -137q0 -21 -1 -30zM209 399q-34 -31 -44 -91h256q-9 61 -42 91.5t-83 30.5q-53 0 -87 -31z" />
    <glyph glyph-name="j.latnNLD" horiz-adv-x="255" 
d="M183 -60v571h-111v-565q0 -59 -43 -59h-17v-104h34q63 0 100 41t37 116zM281 737h-125l-110 -137h108z" />
    <glyph glyph-name="g.ss01" horiz-adv-x="590" 
d="M101.5 -183q-65.5 39 -65.5 99q0 35 23 63.5t65 43.5q-37 13 -57.5 36.5t-20.5 56.5q0 41 28 68t78 37q-75 45 -75 128q0 52 29 91.5t80 61t116 21.5h39q65 0 109.5 5.5t82.5 24.5l32 -82q-52 -21 -106 -26q62 -39 62 -107q0 -48 -29 -84.5t-81 -56.5t-119 -20
q-73 0 -109.5 -9t-36.5 -38q0 -25 40 -33t114 -8h35q113 0 172 -42.5t59 -110.5q0 -72 -65.5 -115t-198.5 -43q-135 0 -200.5 39zM386.5 283q31.5 23 31.5 65t-31.5 66t-86.5 24t-87.5 -23.5t-32.5 -66.5q0 -42 32.5 -65t87.5 -23t86.5 23zM418.5 -123q35.5 17 35.5 51
t-35 51.5t-117 17.5q-155 0 -155 -69q0 -68 155 -68q81 0 116.5 17z" />
    <glyph glyph-name="gbreve.ss01" horiz-adv-x="590" 
d="M36 -84q0 -60 65.5 -99t200.5 -39q133 0 198.5 43t65.5 115q0 68 -59 110.5t-172 42.5h-35q-74 0 -114 8t-40 33q0 29 36.5 38t109.5 9q67 0 119 20t81 56.5t29 84.5q0 68 -62 107q54 5 106 26l-32 82q-38 -19 -82.5 -24.5t-109.5 -5.5h-39q-65 0 -116 -21.5t-80 -61
t-29 -91.5q0 -83 75 -128q-50 -10 -78 -37t-28 -68q0 -33 20.5 -56.5t57.5 -36.5q-42 -15 -65 -43.5t-23 -63.5zM454 -72q0 -34 -35.5 -51t-116.5 -17q-155 0 -155 68q0 69 155 69q82 0 117 -17.5t35 -51.5zM418 348q0 -42 -31.5 -65t-86.5 -23t-87.5 23t-32.5 65
q0 43 32.5 66.5t87.5 23.5t86.5 -24t31.5 -66zM126 737q5 -66 51.5 -103.5t119.5 -37.5t119.5 37.5t51.5 103.5h-96q-7 -63 -75 -63t-75 63h-96z" />
    <glyph glyph-name="gcaron.ss01" horiz-adv-x="590" 
d="M36 -84q0 -60 65.5 -99t200.5 -39q133 0 198.5 43t65.5 115q0 68 -59 110.5t-172 42.5h-35q-74 0 -114 8t-40 33q0 29 36.5 38t109.5 9q67 0 119 20t81 56.5t29 84.5q0 68 -62 107q54 5 106 26l-32 82q-38 -19 -82.5 -24.5t-109.5 -5.5h-39q-65 0 -116 -21.5t-80 -61
t-29 -91.5q0 -83 75 -128q-50 -10 -78 -37t-28 -68q0 -33 20.5 -56.5t57.5 -36.5q-42 -15 -65 -43.5t-23 -63.5zM454 -72q0 -34 -35.5 -51t-116.5 -17q-155 0 -155 68q0 69 155 69q82 0 117 -17.5t35 -51.5zM418 348q0 -42 -31.5 -65t-86.5 -23t-87.5 23t-32.5 65
q0 43 32.5 66.5t87.5 23.5t86.5 -24t31.5 -66zM248 600h100l133 137h-119q-12 -14 -21 -23q-37 -41 -41 -49h-3q-6 10 -39 45q-8 9 -14 16t-10 11h-119z" />
    <glyph glyph-name="gcircumflex.ss01" horiz-adv-x="590" 
d="M36 -84q0 -60 65.5 -99t200.5 -39q133 0 198.5 43t65.5 115q0 68 -59 110.5t-172 42.5h-35q-74 0 -114 8t-40 33q0 29 36.5 38t109.5 9q67 0 119 20t81 56.5t29 84.5q0 68 -62 107q54 5 106 26l-32 82q-38 -19 -82.5 -24.5t-109.5 -5.5h-39q-65 0 -116 -21.5t-80 -61
t-29 -91.5q0 -83 75 -128q-50 -10 -78 -37t-28 -68q0 -33 20.5 -56.5t57.5 -36.5q-42 -15 -65 -43.5t-23 -63.5zM454 -72q0 -34 -35.5 -51t-116.5 -17q-155 0 -155 68q0 69 155 69q82 0 117 -17.5t35 -51.5zM418 348q0 -42 -31.5 -65t-86.5 -23t-87.5 23t-32.5 65
q0 43 32.5 66.5t87.5 23.5t86.5 -24t31.5 -66zM115 600h119l17 19q36 40 45 54h3q5 -10 42 -49q7 -8 12.5 -14t8.5 -10h119l-133 138h-100z" />
    <glyph glyph-name="uni0123.ss01" horiz-adv-x="590" 
d="M36 -84q0 -60 65.5 -99t200.5 -39q133 0 198.5 43t65.5 115q0 68 -59 110.5t-172 42.5h-35q-74 0 -114 8t-40 33q0 29 36.5 38t109.5 9q67 0 119 20t81 56.5t29 84.5q0 68 -62 107q54 5 106 26l-32 82q-38 -19 -82.5 -24.5t-109.5 -5.5h-39q-65 0 -116 -21.5t-80 -61
t-29 -91.5q0 -83 75 -128q-50 -10 -78 -37t-28 -68q0 -33 20.5 -56.5t57.5 -36.5q-42 -15 -65 -43.5t-23 -63.5zM454 -72q0 -34 -35.5 -51t-116.5 -17q-155 0 -155 68q0 69 155 69q82 0 117 -17.5t35 -51.5zM418 348q0 -42 -31.5 -65t-86.5 -23t-87.5 23t-32.5 65
q0 43 32.5 66.5t87.5 23.5t86.5 -24t31.5 -66zM319 699l47 62l-57 32l-56 -79q-26 -36 -26 -66q0 -25 19.5 -41t50.5 -16t50 15.5t19 40.5q0 19 -12.5 33t-34.5 19z" />
    <glyph glyph-name="gdotaccent.ss01" horiz-adv-x="590" 
d="M36 -84q0 -60 65.5 -99t200.5 -39q133 0 198.5 43t65.5 115q0 68 -59 110.5t-172 42.5h-35q-74 0 -114 8t-40 33q0 29 36.5 38t109.5 9q67 0 119 20t81 56.5t29 84.5q0 68 -62 107q54 5 106 26l-32 82q-38 -19 -82.5 -24.5t-109.5 -5.5h-39q-65 0 -116 -21.5t-80 -61
t-29 -91.5q0 -83 75 -128q-50 -10 -78 -37t-28 -68q0 -33 20.5 -56.5t57.5 -36.5q-42 -15 -65 -43.5t-23 -63.5zM454 -72q0 -34 -35.5 -51t-116.5 -17q-155 0 -155 68q0 69 155 69q82 0 117 -17.5t35 -51.5zM418 348q0 -42 -31.5 -65t-86.5 -23t-87.5 23t-32.5 65
q0 43 32.5 66.5t87.5 23.5t86.5 -24t31.5 -66zM224 675q0 -32 21 -50.5t53 -18.5t52.5 18.5t20.5 50.5t-21 51t-52 19q-32 0 -53 -19t-21 -51z" />
    <glyph glyph-name="a.ss02" horiz-adv-x="632" 
d="M449 511h110v-511h-110v84q-26 -44 -68 -69.5t-99 -25.5q-66 0 -119 34.5t-83 95.5t-30 137t30 136.5t83 95t119 34.5q57 0 99 -25.5t68 -69.5v84zM411 133q40 45 40 123q0 77 -40 121.5t-104 44.5q-65 0 -105 -44.5t-40 -121.5q0 -78 40 -123t105 -45q64 0 104 45z" />
    <glyph glyph-name="aacute.ss02" horiz-adv-x="632" 
d="M449 511v-84q-26 44 -68 69.5t-99 25.5q-66 0 -119 -34.5t-83 -95t-30 -136.5t30 -137t83 -95.5t119 -34.5q57 0 99 25.5t68 69.5v-84h110v511h-110zM451 256q0 -78 -40 -123t-104 -45q-65 0 -105 45t-40 123q0 77 40 121.5t105 44.5q64 0 104 -44.5t40 -121.5zM472 737
h-125l-110 -137h108z" />
    <glyph glyph-name="abreve.ss02" horiz-adv-x="632" 
d="M449 511v-84q-26 44 -68 69.5t-99 25.5q-66 0 -119 -34.5t-83 -95t-30 -136.5t30 -137t83 -95.5t119 -34.5q57 0 99 25.5t68 69.5v-84h110v511h-110zM451 256q0 -78 -40 -123t-104 -45q-65 0 -105 45t-40 123q0 77 40 121.5t105 44.5q64 0 104 -44.5t40 -121.5zM147 737
q5 -66 51.5 -103.5t119.5 -37.5t119.5 37.5t51.5 103.5h-96q-7 -63 -75 -63t-75 63h-96z" />
    <glyph glyph-name="uni1EAF.ss02" horiz-adv-x="632" 
d="M449 511v-84q-26 44 -68 69.5t-99 25.5q-66 0 -119 -34.5t-83 -95t-30 -136.5t30 -137t83 -95.5t119 -34.5q57 0 99 25.5t68 69.5v-84h110v511h-110zM451 256q0 -78 -40 -123t-104 -45q-65 0 -105 45t-40 123q0 77 40 121.5t105 44.5q64 0 104 -44.5t40 -121.5zM147 725
q4 -66 51 -104t119 -38q73 0 120 37.5t51 104.5h-96q-3 -32 -22.5 -48t-52.5 -16q-32 0 -51.5 16t-22.5 48h-96zM352 752l89 110h-125l-70 -110h106z" />
    <glyph glyph-name="uni1EB7.ss02" horiz-adv-x="632" 
d="M449 511v-84q-26 44 -68 69.5t-99 25.5q-66 0 -119 -34.5t-83 -95t-30 -136.5t30 -137t83 -95.5t119 -34.5q57 0 99 25.5t68 69.5v-84h110v511h-110zM451 256q0 -78 -40 -123t-104 -45q-65 0 -105 45t-40 123q0 77 40 121.5t105 44.5q64 0 104 -44.5t40 -121.5zM147 737
q5 -66 51.5 -103.5t119.5 -37.5t119.5 37.5t51.5 103.5h-96q-7 -63 -75 -63t-75 63h-96zM245 -129q0 -32 21 -51t52 -19q32 0 53 19t21 51q0 31 -21 50.5t-53 19.5q-31 0 -52 -19.5t-21 -50.5z" />
    <glyph glyph-name="uni1EB1.ss02" horiz-adv-x="632" 
d="M449 511v-84q-26 44 -68 69.5t-99 25.5q-66 0 -119 -34.5t-83 -95t-30 -136.5t30 -137t83 -95.5t119 -34.5q57 0 99 25.5t68 69.5v-84h110v511h-110zM451 256q0 -78 -40 -123t-104 -45q-65 0 -105 45t-40 123q0 77 40 121.5t105 44.5q64 0 104 -44.5t40 -121.5zM147 725
q4 -66 51 -104t119 -38q73 0 120 37.5t51 104.5h-96q-3 -32 -22.5 -48t-52.5 -16q-32 0 -51.5 16t-22.5 48h-96zM391 752l-70 110h-125l89 -110h106z" />
    <glyph glyph-name="uni1EB3.ss02" horiz-adv-x="632" 
d="M449 511v-84q-26 44 -68 69.5t-99 25.5q-66 0 -119 -34.5t-83 -95t-30 -136.5t30 -137t83 -95.5t119 -34.5q57 0 99 25.5t68 69.5v-84h110v511h-110zM451 256q0 -78 -40 -123t-104 -45q-65 0 -105 45t-40 123q0 77 40 121.5t105 44.5q64 0 104 -44.5t40 -121.5zM148 725
q4 -66 51 -104t119 -38q73 0 120 37.5t51 104.5h-96q-3 -32 -22.5 -48t-52.5 -16q-32 0 -51.5 16t-22.5 48h-96zM286 760h88q39 46 39 87q0 36 -31 61t-79 25q-69 0 -107 -51l58 -52q8 10 19 16t22 6q13 0 20.5 -7t7.5 -18t-8.5 -26.5t-28.5 -40.5z" />
    <glyph glyph-name="uni1EB5.ss02" horiz-adv-x="632" 
d="M449 511v-84q-26 44 -68 69.5t-99 25.5q-66 0 -119 -34.5t-83 -95t-30 -136.5t30 -137t83 -95.5t119 -34.5q57 0 99 25.5t68 69.5v-84h110v511h-110zM451 256q0 -78 -40 -123t-104 -45q-65 0 -105 45t-40 123q0 77 40 121.5t105 44.5q64 0 104 -44.5t40 -121.5zM147 725
q4 -67 51 -104.5t120 -37.5q72 0 119 38t51 104h-96q-6 -64 -74 -64t-75 64h-96zM300 791q23 -12 42 -18.5t46 -6.5q43 0 75.5 32t32.5 84h-90q0 -17 -8 -27t-21 -10q-9 0 -19.5 4.5t-21.5 10.5q-21 12 -41 19t-47 7q-43 0 -75.5 -32t-32.5 -84h90q0 16 8 26t21 10
q9 0 19.5 -4.5t21.5 -10.5z" />
    <glyph glyph-name="uni01CE.ss02" horiz-adv-x="632" 
d="M449 511v-84q-26 44 -68 69.5t-99 25.5q-66 0 -119 -34.5t-83 -95t-30 -136.5t30 -137t83 -95.5t119 -34.5q57 0 99 25.5t68 69.5v-84h110v511h-110zM451 256q0 -78 -40 -123t-104 -45q-65 0 -105 45t-40 123q0 77 40 121.5t105 44.5q64 0 104 -44.5t40 -121.5zM268 600
h100l133 137h-119q-12 -14 -21 -23q-37 -41 -41 -49h-3q-6 10 -39 45q-8 9 -14 16t-10 11h-119z" />
    <glyph glyph-name="acircumflex.ss02" horiz-adv-x="632" 
d="M449 511v-84q-26 44 -68 69.5t-99 25.5q-66 0 -119 -34.5t-83 -95t-30 -136.5t30 -137t83 -95.5t119 -34.5q57 0 99 25.5t68 69.5v-84h110v511h-110zM451 256q0 -78 -40 -123t-104 -45q-65 0 -105 45t-40 123q0 77 40 121.5t105 44.5q64 0 104 -44.5t40 -121.5zM136 600
h119l17 19q36 40 45 54h3q5 -10 42 -49q7 -8 12.5 -14t8.5 -10h119l-133 138h-100z" />
    <glyph glyph-name="uni1EA5.ss02" horiz-adv-x="632" 
d="M449 511v-84q-26 44 -68 69.5t-99 25.5q-66 0 -119 -34.5t-83 -95t-30 -136.5t30 -137t83 -95.5t119 -34.5q57 0 99 25.5t68 69.5v-84h110v511h-110zM451 256q0 -78 -40 -123t-104 -45q-65 0 -105 45t-40 123q0 77 40 121.5t105 44.5q64 0 104 -44.5t40 -121.5zM137 585
h119q4 4 10 11t14 16q34 38 39 45h3q3 -7 19.5 -25t20.5 -23l22 -24h119l-133 137h-99zM634 809h-119l-70 -124h100z" />
    <glyph glyph-name="uni1EAD.ss02" horiz-adv-x="632" 
d="M449 511v-84q-26 44 -68 69.5t-99 25.5q-66 0 -119 -34.5t-83 -95t-30 -136.5t30 -137t83 -95.5t119 -34.5q57 0 99 25.5t68 69.5v-84h110v511h-110zM451 256q0 -78 -40 -123t-104 -45q-65 0 -105 45t-40 123q0 77 40 121.5t105 44.5q64 0 104 -44.5t40 -121.5zM136 600
h119l17 19q36 40 45 54h3q5 -10 42 -49q7 -8 12.5 -14t8.5 -10h119l-133 138h-100zM245 -129q0 -32 21 -51t52 -19q32 0 53 19t21 51q0 31 -21 50.5t-53 19.5q-31 0 -52 -19.5t-21 -50.5z" />
    <glyph glyph-name="uni1EA7.ss02" horiz-adv-x="632" 
d="M449 511v-84q-26 44 -68 69.5t-99 25.5q-66 0 -119 -34.5t-83 -95t-30 -136.5t30 -137t83 -95.5t119 -34.5q57 0 99 25.5t68 69.5v-84h110v511h-110zM451 256q0 -78 -40 -123t-104 -45q-65 0 -105 45t-40 123q0 77 40 121.5t105 44.5q64 0 104 -44.5t40 -121.5zM136 585
h119q4 4 10 11t14 16q34 38 39 45h3q3 -7 19.5 -25t20.5 -23l22 -24h119l-133 137h-99zM572 685l-70 124h-119l89 -124h100z" />
    <glyph glyph-name="uni1EA9.ss02" horiz-adv-x="632" 
d="M449 511v-84q-26 44 -68 69.5t-99 25.5q-66 0 -119 -34.5t-83 -95t-30 -136.5t30 -137t83 -95.5t119 -34.5q57 0 99 25.5t68 69.5v-84h110v511h-110zM451 256q0 -78 -40 -123t-104 -45q-65 0 -105 45t-40 123q0 77 40 121.5t105 44.5q64 0 104 -44.5t40 -121.5zM135 585
h119q4 4 10 11t14 16q34 38 39 45h3q3 -7 19.5 -25t20.5 -23l22 -24h119l-133 137h-99zM432 694h88q39 44 39 86q0 36 -31 61t-79 25q-72 0 -107 -51l57 -52q9 10 20 16t21 6q28 0 28 -25q0 -12 -8.5 -27t-27.5 -39z" />
    <glyph glyph-name="uni1EAB.ss02" horiz-adv-x="632" 
d="M449 511v-84q-26 44 -68 69.5t-99 25.5q-66 0 -119 -34.5t-83 -95t-30 -136.5t30 -137t83 -95.5t119 -34.5q57 0 99 25.5t68 69.5v-84h110v511h-110zM451 256q0 -78 -40 -123t-104 -45q-65 0 -105 45t-40 123q0 77 40 121.5t105 44.5q64 0 104 -44.5t40 -121.5zM301 790
q24 -12 43 -19t46 -7t52.5 14.5t41 41.5t15.5 62h-91q0 -17 -8 -27t-21 -10q-9 0 -19 4.5t-21 10.5q-24 12 -43 19t-46 7q-44 0 -76.5 -32.5t-32.5 -85.5h91q0 17 7.5 27t21.5 10q9 0 19 -4.5t21 -10.5zM135 585h119q12 14 21 23q37 41 41 49h3q6 -10 39 -45q8 -9 14 -16
t10 -11h119l-133 137h-100z" />
    <glyph glyph-name="adieresis.ss02" horiz-adv-x="632" 
d="M449 511v-84q-26 44 -68 69.5t-99 25.5q-66 0 -119 -34.5t-83 -95t-30 -136.5t30 -137t83 -95.5t119 -34.5q57 0 99 25.5t68 69.5v-84h110v511h-110zM451 256q0 -78 -40 -123t-104 -45q-65 0 -105 45t-40 123q0 77 40 121.5t105 44.5q64 0 104 -44.5t40 -121.5zM135 673
q0 -31 20 -49.5t49 -18.5q30 0 49.5 18.5t19.5 49.5t-19.5 49t-49.5 18q-29 0 -49 -18t-20 -49zM363 673q0 -31 19.5 -49.5t49.5 -18.5q29 0 48.5 18.5t19.5 49.5t-19.5 49t-48.5 18q-30 0 -49.5 -18t-19.5 -49z" />
    <glyph glyph-name="uni1EA1.ss02" horiz-adv-x="632" 
d="M449 511v-84q-26 44 -68 69.5t-99 25.5q-66 0 -119 -34.5t-83 -95t-30 -136.5t30 -137t83 -95.5t119 -34.5q57 0 99 25.5t68 69.5v-84h110v511h-110zM451 256q0 -78 -40 -123t-104 -45q-65 0 -105 45t-40 123q0 77 40 121.5t105 44.5q64 0 104 -44.5t40 -121.5zM245 -129
q0 -32 21 -51t52 -19q32 0 53 19t21 51q0 31 -21 50.5t-53 19.5q-31 0 -52 -19.5t-21 -50.5z" />
    <glyph glyph-name="agrave.ss02" horiz-adv-x="632" 
d="M449 511v-84q-26 44 -68 69.5t-99 25.5q-66 0 -119 -34.5t-83 -95t-30 -136.5t30 -137t83 -95.5t119 -34.5q57 0 99 25.5t68 69.5v-84h110v511h-110zM451 256q0 -78 -40 -123t-104 -45q-65 0 -105 45t-40 123q0 77 40 121.5t105 44.5q64 0 104 -44.5t40 -121.5zM400 600
l-111 137h-124l126 -137h109z" />
    <glyph glyph-name="uni1EA3.ss02" horiz-adv-x="632" 
d="M449 511v-84q-26 44 -68 69.5t-99 25.5q-66 0 -119 -34.5t-83 -95t-30 -136.5t30 -137t83 -95.5t119 -34.5q57 0 99 25.5t68 69.5v-84h110v511h-110zM451 256q0 -78 -40 -123t-104 -45q-65 0 -105 45t-40 123q0 77 40 121.5t105 44.5q64 0 104 -44.5t40 -121.5zM296 588
h88q39 44 39 86q0 36 -31 61.5t-79 25.5q-69 0 -107 -52l57 -51q9 10 20 15.5t21 5.5q28 0 28 -25q0 -12 -8.5 -27t-27.5 -39z" />
    <glyph glyph-name="amacron.ss02" horiz-adv-x="632" 
d="M449 511v-84q-26 44 -68 69.5t-99 25.5q-66 0 -119 -34.5t-83 -95t-30 -136.5t30 -137t83 -95.5t119 -34.5q57 0 99 25.5t68 69.5v-84h110v511h-110zM451 256q0 -78 -40 -123t-104 -45q-65 0 -105 45t-40 123q0 77 40 121.5t105 44.5q64 0 104 -44.5t40 -121.5zM485 626
v88h-334v-88h334z" />
    <glyph glyph-name="aogonek.ss02" horiz-adv-x="632" 
d="M578 -82v-94h-63q-46 0 -72 23t-26 56q0 40 39 75l25 22h-32v84q-26 -44 -68 -69.5t-99 -25.5q-66 0 -119 34.5t-83 95.5t-30 137t30 136.5t83 95t119 34.5q57 0 99 -25.5t68 -69.5v84h110v-511h1l-27 -29q-15 -17 -15 -31q0 -10 8 -16t21 -6h31zM411 133q40 45 40 123
q0 77 -40 121.5t-104 44.5q-65 0 -105 -44.5t-40 -121.5q0 -78 40 -123t105 -45q64 0 104 45z" />
    <glyph glyph-name="aring.ss02" horiz-adv-x="632" 
d="M449 511v-84q-26 44 -68 69.5t-99 25.5q-66 0 -119 -34.5t-83 -95t-30 -136.5t30 -137t83 -95.5t119 -34.5q57 0 99 25.5t68 69.5v-84h110v511h-110zM451 256q0 -78 -40 -123t-104 -45q-65 0 -105 45t-40 123q0 77 40 121.5t105 44.5q64 0 104 -44.5t40 -121.5zM185 689
q0 -48 37.5 -79t96.5 -31t96 31t37 79t-37 79t-96 31t-96.5 -31t-37.5 -79zM377 689q0 -20 -15 -32.5t-43 -12.5t-43 12.5t-15 32.5t15 32.5t43 12.5t43 -12.5t15 -32.5z" />
    <glyph glyph-name="atilde.ss02" horiz-adv-x="632" 
d="M449 511v-84q-26 44 -68 69.5t-99 25.5q-66 0 -119 -34.5t-83 -95t-30 -136.5t30 -137t83 -95.5t119 -34.5q57 0 99 25.5t68 69.5v-84h110v511h-110zM451 256q0 -78 -40 -123t-104 -45q-65 0 -105 45t-40 123q0 77 40 121.5t105 44.5q64 0 104 -44.5t40 -121.5zM302 632
q22 -15 42 -23.5t47 -8.5q29 0 55 15.5t42 45.5t16 70h-90q0 -21 -8 -33t-21 -12q-9 0 -18 4.5t-23 13.5q-22 15 -42 23.5t-47 8.5q-29 0 -55 -16t-42 -46t-16 -70h91q0 22 7.5 34t21.5 12q9 0 17.5 -4.5t22.5 -13.5z" />
    <glyph glyph-name="l.ss03" horiz-adv-x="256" 
d="M72 750h112v-750h-112v750z" />
    <glyph glyph-name="lacute.ss03" horiz-adv-x="256" 
d="M72 750v-750h112v750h-112zM282 966h-125l-110 -137h108z" />
    <glyph glyph-name="lcaron.ss03" horiz-adv-x="315" 
d="M72 750v-750h112v750h-112zM232 529h71l27 111v110h-98v-221z" />
    <glyph glyph-name="uni013C.ss03" horiz-adv-x="256" 
d="M72 750v-750h112v750h-112zM197 -118q0 26 -19 42t-50 16t-50.5 -15.5t-19.5 -40.5q0 -19 13 -33t36 -19l-46 -62l56 -31l55 77q25 36 25 66z" />
    <glyph glyph-name="ldot.ss03" horiz-adv-x="410" 
d="M72 750h112v-750h-112v750zM281 316.5q-20 18.5 -20 48.5t20 49t51 19t51.5 -19t20.5 -49t-20.5 -48.5t-51.5 -18.5t-51 18.5z" />
    <glyph glyph-name="uni1E37.ss03" horiz-adv-x="256" 
d="M72 750v-750h112v750h-112zM54 -129q0 -32 21 -51t52 -19q32 0 53 19t21 51q0 31 -21 50.5t-53 19.5q-31 0 -52 -19.5t-21 -50.5z" />
    <glyph glyph-name="uni1E39.ss03" horiz-adv-x="256" 
d="M72 750v-750h112v750h-112zM295 855v88h-334v-88h334zM54 -129q0 -32 21 -51t52 -19q32 0 53 19t21 51q0 31 -21 50.5t-53 19.5q-31 0 -52 -19.5t-21 -50.5z" />
    <glyph glyph-name="uni01C9.ss03" horiz-adv-x="471" 
d="M72 750v-750h112v750h-112zM399 -60v571h-111v-565q0 -59 -43 -59h-17v-104h34q63 0 100 41t37 116zM271 675q0 -32 21 -50.5t53 -18.5t52.5 18.5t20.5 50.5t-21 51t-52 19q-32 0 -53 -19t-21 -51z" />
    <glyph glyph-name="uni1E3B.ss03" horiz-adv-x="256" 
d="M72 750v-750h112v750h-112zM294 -155v89h-333v-89h333z" />
    <glyph glyph-name="lslash.ss03" horiz-adv-x="355" 
d="M232 441l83 26v-97l-83 -26v-344h-111v317l-79 -24v97l79 24v336h111v-309z" />
    <glyph glyph-name="fi" unicode="&#xfb01;" horiz-adv-x="591" 
d="M293 662h53v97h-66q-77 0 -119 -45t-42 -122v-81h-82v-91h82v-420h111v420h116v91h-116v76q0 75 63 75zM408 511v-511h111v511h-111zM391 675q0 -32 21 -50.5t53 -18.5t52.5 18.5t20.5 50.5t-21 51t-52 19q-32 0 -53 -19t-21 -51z" />
    <glyph glyph-name="fl" unicode="&#xfb02;" horiz-adv-x="639" 
d="M293 662h53v97h-66q-77 0 -119 -45t-42 -122v-81h-82v-91h82v-420h111v420h116v91h-116v76q0 75 63 75zM551 0h58v96h-39q-50 0 -50 56v598h-111v-605q0 -67 36.5 -106t105.5 -39z" />
    <glyph glyph-name="L_periodcentered.latnCAT" horiz-adv-x="568" 
d="M200 700h-117v-700h453v105h-336v595zM348 368q0 -32 20.5 -50.5t52.5 -18.5t53 18.5t21 50.5t-21 51t-53 19q-31 0 -52 -19t-21 -51z" />
    <glyph glyph-name="l_periodcentered.latnCAT" horiz-adv-x="410" 
d="M215 0h58v96h-39q-50 0 -50 56v598h-111v-605q0 -67 36.5 -106t105.5 -39zM262 365q0 -30 20 -48.5t51 -18.5t51.5 18.5t20.5 48.5t-20.5 49t-51.5 19t-51 -19t-20 -49z" />
    <glyph glyph-name="fl.ss03" horiz-adv-x="592" 
d="M293 662h53v97h-66q-77 0 -119 -45t-42 -122v-81h-82v-91h82v-420h111v420h116v91h-116v76q0 75 63 75zM408 750v-750h112v750h-112z" />
    <glyph glyph-name="l_periodcentered.latnCAT.ss03" horiz-adv-x="410" 
d="M72 750v-750h112v750h-112zM261 365q0 -30 20 -48.5t51 -18.5t51.5 18.5t20.5 48.5t-20.5 49t-51.5 19t-51 -19t-20 -49z" />
    <glyph glyph-name="ordfeminine" unicode="&#xaa;" horiz-adv-x="376" 
d="M274.5 683q36.5 -28 36.5 -80v-172h-73v25q-26 -32 -82 -32q-49 0 -77.5 23t-28.5 61q0 37 30.5 60.5t82.5 23.5q44 0 69 -22v25q0 47 -52 47q-39 0 -55 -28l-63 25q14 38 46 55t75 17q55 0 91.5 -28zM219.5 484.5q14.5 8.5 14.5 24.5q0 15 -14.5 24t-38.5 9t-38.5 -9
t-14.5 -24q0 -16 14.5 -24.5t38.5 -8.5t38.5 8.5z" />
    <glyph glyph-name="ordmasculine" unicode="&#xba;" horiz-adv-x="386" 
d="M298 671q42 -40 42 -103t-42 -103.5t-105 -40.5q-64 0 -105.5 40.5t-41.5 103.5t41.5 103t105.5 40q63 0 105 -40zM146 621q-18 -19 -18 -53q0 -35 18 -54.5t47 -19.5t47.5 19.5t18.5 54.5q0 34 -18.5 53t-47.5 19t-47 -19z" />
    <glyph glyph-name="ordfeminine.ss02" horiz-adv-x="406" 
d="M257 703h79v-272h-79v37q-29 -43 -84 -43q-56 0 -90.5 40.5t-34.5 102.5q0 61 35 102t90 41t84 -44v36zM240 515.5q18 19.5 18 52.5q0 32 -18 51.5t-46 19.5q-29 0 -46.5 -19t-17.5 -52t17.5 -52.5t46.5 -19.5q28 0 46 19.5z" />
    <glyph glyph-name="uni2090" horiz-adv-x="368" 
d="M278 135q41 -32 41 -92v-192h-71v31q-29 -38 -91 -38q-55 0 -87.5 25.5t-32.5 70.5q0 44 34.5 70.5t91.5 26.5q52 0 80 -28v28q0 30 -18.5 46t-51.5 16q-48 0 -70 -36l-53 43q38 61 125 61q62 0 103 -32zM227 -89q18 11 18 30q0 20 -17.5 31t-46.5 11t-47 -11t-18 -31
t18 -30.5t47 -10.5q28 0 46 11z" />
    <glyph glyph-name="uni2091" horiz-adv-x="373" 
d="M334 -13h-217q4 -39 25 -58t55 -19q52 0 76 38l54 -44q-22 -30 -56 -45t-75 -15q-69 0 -113 45t-44 117q0 71 42 116t108 45q65 0 105.5 -44.5t40.5 -115.5q0 -15 -1 -20zM119 39h138q-11 66 -68 66q-58 0 -70 -66z" />
    <glyph glyph-name="uni2092" horiz-adv-x="395" 
d="M116 -135.5q-36 20.5 -57 57.5t-21 84t21 83.5t57 57t81 20.5q46 0 82.5 -20.5t57 -57t20.5 -83.5q0 -71 -45 -116.5t-115 -45.5q-45 0 -81 20.5zM256 -62.5q23 25.5 23 68.5t-23 68t-59 25q-35 0 -57.5 -25t-22.5 -68q0 -44 22.5 -69t57.5 -25q36 0 59 25.5z" />
    <glyph glyph-name="uni2094" horiz-adv-x="373" 
d="M290 122q44 -45 44 -117q0 -71 -42 -116t-109 -45q-65 0 -105.5 44.5t-40.5 116.5q0 14 1 20h218q-4 38 -25.5 57.5t-54.5 19.5q-52 0 -77 -38l-53 43q22 30 56 45t75 15q69 0 113 -45zM254 -28h-138q11 -66 67 -66q59 0 71 66z" />
    <glyph glyph-name="uni2093" horiz-adv-x="357" 
d="M224 8l115 -157h-90l-71 96l-71 -96h-89l116 157l-112 152h90l67 -91l67 91h90z" />
    <glyph glyph-name="uni2090.ss02" horiz-adv-x="403" 
d="M274 160h77v-309h-77v45q-33 -52 -96 -52q-39 0 -71 21t-50 58t-18 83q0 45 18 82t50 58t71 21q64 0 96 -53v46zM253 -63q22 25 22 69t-22 68.5t-57 24.5t-57 -25t-22 -68q0 -44 21.5 -69t57.5 -25q35 0 57 25z" />
    <glyph glyph-name="uni0410" unicode="&#x410;" horiz-adv-x="708" 
d="M689 0l-278 700h-113l-277 -700h121l73 192h276l73 -192h125zM252 290l73 193q26 71 26 89h4q0 -18 26 -89l73 -193h-202z" />
    <glyph glyph-name="uni0411" unicode="&#x411;" horiz-adv-x="648" 
d="M372 417q107 0 170 -55t63 -152q0 -98 -63 -154t-170 -56h-289v700h477v-105h-361v-178h173zM362 101q58 0 89.5 27t31.5 82q0 54 -31.5 80.5t-89.5 26.5h-163v-216h163z" />
    <glyph glyph-name="uni0412" unicode="&#x412;" horiz-adv-x="675" 
d="M628 198q0 62 -35.5 107.5t-98.5 65.5q45 19 71 56t26 86q0 93 -62.5 140t-175.5 47h-270v-700h293q120 0 186 50.5t66 147.5zM372 102h-172v212h172q65 0 100 -25t35 -81t-35 -81t-100 -25zM200 598h145q60 0 92.5 -21t32.5 -73t-32.5 -72.5t-92.5 -20.5h-145v187z" />
    <glyph glyph-name="uni0413" unicode="&#x413;" horiz-adv-x="568" 
d="M536 595v105h-453v-700h117v595h336z" />
    <glyph glyph-name="uni0403" unicode="&#x403;" horiz-adv-x="568" 
d="M536 595v105h-453v-700h117v595h336zM463 926h-125l-110 -137h108z" />
    <glyph glyph-name="uni0490" unicode="&#x490;" horiz-adv-x="571" 
d="M428 700v148h111v-253h-339v-595h-117v700h345z" />
    <glyph glyph-name="uni0414" unicode="&#x414;" horiz-adv-x="763" 
d="M644 105h74v-255h-111v150h-465v-150h-111v255h65q32 17 46.5 68.5t17.5 159.5l9 367h475v-595zM528 105v490h-248l-7 -281q-3 -143 -52 -209h307z" />
    <glyph glyph-name="uni0415" unicode="&#x415;" horiz-adv-x="621" 
d="M566 700h-483v-700h483v105h-366v200h325v102h-325v188h366v105z" />
    <glyph glyph-name="uni0400" unicode="&#x400;" horiz-adv-x="621" 
d="M566 700h-483v-700h483v105h-366v200h325v102h-325v188h366v105zM410 789l-111 137h-124l126 -137h109z" />
    <glyph glyph-name="uni0401" unicode="&#x401;" horiz-adv-x="621" 
d="M566 700h-483v-700h483v105h-366v200h325v102h-325v188h366v105zM145 862q0 -31 20 -49.5t49 -18.5q30 0 49.5 18.5t19.5 49.5t-19.5 49t-49.5 18q-29 0 -49 -18t-20 -49zM373 862q0 -31 19.5 -49.5t49.5 -18.5q29 0 48.5 18.5t19.5 49.5t-19.5 49t-48.5 18
q-30 0 -49.5 -18t-19.5 -49z" />
    <glyph glyph-name="uni0416" unicode="&#x416;" horiz-adv-x="989" 
d="M669 358l317 -358h-145l-288 326v-326h-117v326l-288 -326h-145l317 358l-290 342h138l268 -325v325h117v-325l268 325h138z" />
    <glyph glyph-name="uni0417" unicode="&#x417;" horiz-adv-x="648" 
d="M556.5 299.5q39.5 -44.5 39.5 -107.5q0 -68 -40 -114t-104.5 -67.5t-139.5 -21.5q-93 0 -168 43t-109 124l93 54q20 -56 72 -86t111 -30q70 0 116.5 26t46.5 79q0 55 -44.5 81t-123.5 26h-87v100h84q71 0 109 25t38 76q0 45 -38.5 72t-102.5 27q-55 0 -96.5 -24.5
t-65.5 -71.5l-89 53q33 72 97.5 110t159.5 38q75 0 133.5 -24.5t91 -69t32.5 -102.5q0 -56 -33.5 -96.5t-93.5 -56.5q72 -18 111.5 -62.5z" />
    <glyph glyph-name="uni0418" unicode="&#x418;" horiz-adv-x="759" 
d="M199 283q0 -82 -6 -103l3 -1q7 18 56 86l319 435h105v-700h-117v417q0 82 6 103l-3 1q-7 -18 -56 -86l-317 -435h-106v700h116v-417z" />
    <glyph glyph-name="uni0419" unicode="&#x419;" horiz-adv-x="759" 
d="M199 283v417h-116v-700h106l317 435q49 68 56 86l3 -1q-6 -21 -6 -103v-417h117v700h-105l-319 -435q-49 -68 -56 -86l-3 1q6 21 6 103zM208 926q5 -66 51.5 -103.5t119.5 -37.5t119.5 37.5t51.5 103.5h-96q-7 -63 -75 -63t-75 63h-96z" />
    <glyph glyph-name="uni040D" unicode="&#x40d;" horiz-adv-x="759" 
d="M199 283v417h-116v-700h106l317 435q49 68 56 86l3 -1q-6 -21 -6 -103v-417h117v700h-105l-319 -435q-49 -68 -56 -86l-3 1q6 21 6 103zM461 789l-111 137h-124l126 -137h109z" />
    <glyph glyph-name="uni041A" unicode="&#x41a;" horiz-adv-x="670" 
d="M328 356l317 344h-151l-294 -327v327h-117v-700h117v328l312 -328h157z" />
    <glyph glyph-name="uni040C" unicode="&#x40c;" horiz-adv-x="670" 
d="M328 356l317 344h-151l-294 -327v327h-117v-700h117v328l312 -328h157zM496 926h-125l-110 -137h108z" />
    <glyph glyph-name="uni041B" unicode="&#x41b;" horiz-adv-x="723" 
d="M31 96q38 12 60 32t33 56.5t12 99.5l13 416h491v-700h-116v595h-265l-10 -330q-3 -127 -49 -190t-140 -86z" />
    <glyph glyph-name="uni041C" unicode="&#x41c;" horiz-adv-x="838" 
d="M421 384l-229 316h-109v-700h116v420q0 82 -6 103l3 1q6 -16 56 -87l157 -214h21l158 217q45 65 54 87l3 -1q-6 -21 -6 -103v-423h116v700h-109z" />
    <glyph glyph-name="uni041D" unicode="&#x41d;" horiz-adv-x="739" 
d="M540 406h-341v294h-116v-700h116v301h341v-301h117v700h-117v-294z" />
    <glyph glyph-name="uni041E" unicode="&#x41e;" horiz-adv-x="811" 
d="M51 350q0 -106 45 -188t126 -127.5t184 -45.5t183.5 45.5t125.5 127.5t45 188t-45 188t-125.5 127.5t-183.5 45.5t-184 -45.5t-126 -127.5t-45 -188zM638 350q0 -77 -30 -134.5t-82.5 -88t-119.5 -30.5q-68 0 -120.5 30.5t-82.5 88t-30 134.5t30 134.5t82.5 88
t120.5 30.5q67 0 119.5 -30.5t82.5 -88t30 -134.5z" />
    <glyph glyph-name="uni041F" unicode="&#x41f;" horiz-adv-x="728" 
d="M83 700v-700h117v595h329v-595h116v700h-562z" />
    <glyph glyph-name="uni0420" unicode="&#x420;" horiz-adv-x="649" 
d="M608 471q0 106 -69.5 167.5t-192.5 61.5h-263v-700h116v245h148q122 0 191.5 60.5t69.5 165.5zM338 347h-139v248h139q70 0 108.5 -31.5t38.5 -92.5t-38.5 -92.5t-108.5 -31.5z" />
    <glyph glyph-name="uni0421" unicode="&#x421;" horiz-adv-x="723" 
d="M52 350q0 -106 44.5 -188t124 -127.5t180.5 -45.5q97 0 173 44t118 125l-100 62q-28 -59 -77.5 -91t-113.5 -32q-66 0 -117.5 30.5t-80.5 88t-29 134.5t29 134.5t80.5 88t117.5 30.5q64 0 113.5 -32t77.5 -91l100 62q-42 81 -118 125t-173 44q-101 0 -180.5 -45.5
t-124 -127.5t-44.5 -188z" />
    <glyph glyph-name="uni0422" unicode="&#x422;" horiz-adv-x="619" 
d="M32 700v-105h219v-595h117v595h219v105h-555z" />
    <glyph glyph-name="uni0423" unicode="&#x423;" horiz-adv-x="684" 
d="M203 0l88 178l-261 522h130l162 -336q29 -64 29 -79h4q0 17 29 79l154 336h128l-339 -700h-124z" />
    <glyph glyph-name="uni040E" unicode="&#x40e;" horiz-adv-x="684" 
d="M203 0h124l339 700h-128l-154 -336q-29 -62 -29 -79h-4q0 15 -29 79l-162 336h-130l261 -522zM175 926q5 -66 51.5 -103.5t119.5 -37.5t119.5 37.5t51.5 103.5h-96q-7 -63 -75 -63t-75 63h-96z" />
    <glyph glyph-name="uni0424" unicode="&#x424;" horiz-adv-x="870" 
d="M493 52q100 4 174 42t114.5 105t40.5 155t-40.5 155t-114.5 105t-174 42v72h-117v-72q-99 -5 -173 -43t-114.5 -104.5t-40.5 -154.5t40.5 -154.5t114.5 -104.5t173 -43v-74h117v74zM380 153q-100 3 -155 55.5t-55 145.5q0 94 54.5 146t155.5 55v-402zM491 153v402
q100 -3 154.5 -55t54.5 -146t-54.5 -146t-154.5 -55z" />
    <glyph glyph-name="uni0425" unicode="&#x425;" horiz-adv-x="677" 
d="M407 356l250 344h-134l-128 -174q-50 -69 -53 -88h-4q-2 13 -54 88l-128 174h-136l250 -346l-258 -354h134l134 182q51 71 55 88h4q1 -9 18.5 -35t37.5 -53l133 -182h136z" />
    <glyph glyph-name="uni0427" unicode="&#x427;" horiz-adv-x="669" 
d="M470 700h116v-700h-116v274q-74 -23 -154 -23q-120 0 -188.5 67.5t-68.5 184.5v197h117v-190q0 -75 39.5 -113.5t111.5 -38.5q79 0 143 19v323z" />
    <glyph glyph-name="uni0426" unicode="&#x426;" horiz-adv-x="754" 
d="M633 700v-595h76v-241h-111v136h-515v700h117v-595h317v595h116z" />
    <glyph glyph-name="uni0428" unicode="&#x428;" horiz-adv-x="1055" 
d="M856 105v595h116v-700h-889v700h117v-595h269v595h117v-595h270z" />
    <glyph glyph-name="uni0429" unicode="&#x429;" horiz-adv-x="1093" 
d="M972 700v-595h76v-241h-111v136h-854v700h117v-595h269v595h117v-595h270v595h116z" />
    <glyph glyph-name="uni040F" unicode="&#x40f;" horiz-adv-x="716" 
d="M517 700h116v-700h-219v-136h-111v136h-220v700h117v-595h317v595z" />
    <glyph glyph-name="uni042C" unicode="&#x42c;" horiz-adv-x="646" 
d="M361 435q112 0 178 -57.5t66 -157.5q0 -103 -66 -161.5t-178 -58.5h-278v700h116v-265h162zM352 103q63 0 97 29t34 88q0 56 -34 84t-97 28h-153v-229h153z" />
    <glyph glyph-name="uni042A" unicode="&#x42a;" horiz-adv-x="751" 
d="M466 435q112 0 178 -57.5t66 -157.5q0 -103 -66 -161.5t-178 -58.5h-279v595h-152v105h269v-265h162zM456 103q64 0 98 29t34 88q0 57 -34 84.5t-98 27.5h-152v-229h152z" />
    <glyph glyph-name="uni042B" unicode="&#x42b;" horiz-adv-x="899" 
d="M361 435h-162v265h-116v-700h278q112 0 178 58.5t66 161.5q0 100 -66 157.5t-178 57.5zM700 700v-700h117v700h-117zM352 103h-153v229h153q63 0 97 -28t34 -84q0 -59 -34 -88t-97 -29z" />
    <glyph glyph-name="uni0409" unicode="&#x409;" horiz-adv-x="1076" 
d="M791 435q112 0 178 -57.5t66 -157.5q0 -103 -66 -161.5t-178 -58.5h-279v595h-251l-10 -330q-4 -127 -49.5 -190t-139.5 -86l-29 107q38 12 60 32t33 56.5t13 99.5l12 416h478v-265h162zM781 103q64 0 98 29t34 88q0 57 -34 84.5t-98 27.5h-152v-229h152z" />
    <glyph glyph-name="uni040A" unicode="&#x40a;" horiz-adv-x="1074" 
d="M789 435q112 0 178 -57.5t66 -157.5q0 -103 -66 -161.5t-178 -58.5h-278v331h-311v-331h-117v700h117v-265h311v265h116v-265h162zM779 103q64 0 98 29t34 88q0 57 -34 84.5t-98 27.5h-152v-229h152z" />
    <glyph glyph-name="uni0405" unicode="&#x405;" horiz-adv-x="635" 
d="M42 154q34 -78 107.5 -121.5t172.5 -43.5q83 0 144 25.5t94 71.5t33 108q0 75 -52.5 125.5t-159.5 78.5l-80 22q-62 17 -91 39t-29 61q0 40 37 63.5t101 23.5q118 0 161 -94l97 49q-33 72 -100 110.5t-160 38.5q-75 0 -133 -25.5t-90.5 -70.5t-32.5 -103q0 -75 47 -124.5
t142 -75.5l80 -22q78 -21 111.5 -44.5t33.5 -60.5q0 -42 -41.5 -67t-111.5 -25q-65 0 -113.5 31.5t-69.5 82.5z" />
    <glyph glyph-name="uni0404" unicode="&#x404;" horiz-adv-x="750" 
d="M514.5 129q49.5 32 77.5 91l100 -62q-42 -81 -118 -125t-173 -44q-101 0 -180.5 45.5t-124 127.5t-44.5 188t44.5 188t124 127.5t180.5 45.5q97 0 173 -44t118 -125l-100 -62q-28 59 -77.5 91t-113.5 32q-87 0 -147 -52t-75 -144h317v-102h-319q12 -97 73 -152.5
t151 -55.5q64 0 113.5 32z" />
    <glyph glyph-name="uni042D" unicode="&#x42d;" horiz-adv-x="732" 
d="M511.5 665.5q79.5 -45.5 124 -127.5t44.5 -188t-44.5 -188t-124 -127.5t-180.5 -45.5q-97 0 -173 44t-118 125l100 62q28 -59 77.5 -91t113.5 -32q89 0 150 55.5t73 152.5h-318v102h316q-15 92 -74.5 144t-146.5 52q-64 0 -113.5 -32t-77.5 -91l-100 62q42 81 118 125
t173 44q101 0 180.5 -45.5z" />
    <glyph glyph-name="uni0406" unicode="&#x406;" horiz-adv-x="283" 
d="M83 700v-700h117v700h-117z" />
    <glyph glyph-name="uni0407" unicode="&#x407;" horiz-adv-x="283" 
d="M83 700v-700h117v700h-117zM-42 862q0 -31 20 -49.5t49 -18.5q30 0 49.5 18.5t19.5 49.5t-19.5 49t-49.5 18q-29 0 -49 -18t-20 -49zM186 862q0 -31 19.5 -49.5t49.5 -18.5q29 0 48.5 18.5t19.5 49.5t-19.5 49t-48.5 18q-30 0 -49.5 -18t-19.5 -49z" />
    <glyph glyph-name="uni0408" unicode="&#x408;" horiz-adv-x="540" 
d="M20 136q29 -68 82 -107.5t133 -39.5q103 0 165 60.5t62 171.5v479h-116v-474q0 -63 -30.5 -96t-83.5 -33q-43 0 -72.5 25t-45.5 65z" />
    <glyph glyph-name="uni040B" unicode="&#x40b;" horiz-adv-x="781" 
d="M662.5 373.5q65.5 -63.5 65.5 -176.5v-197h-116v185q0 74 -37.5 110t-108.5 36q-78 0 -139 -23v-308h-117v595h-176v105h549v-105h-256v-185q36 14 72 20.5t80 6.5q118 0 183.5 -63.5z" />
    <glyph glyph-name="uni042E" unicode="&#x42e;" horiz-adv-x="1047" 
d="M830.5 666.5q77.5 -44.5 121 -126.5t43.5 -190t-43.5 -190t-121 -126.5t-177.5 -44.5q-92 0 -165.5 38t-119 108.5t-55.5 165.5h-113v-301h-117v700h117v-294h114q11 93 56.5 162t118.5 106t164 37q100 0 177.5 -44.5zM767 126.5q50 29.5 78 86.5t28 137t-28 137
t-78 86.5t-114 29.5t-114 -29.5t-78 -86.5t-28 -137t28 -137t78 -86.5t114 -29.5t114 29.5z" />
    <glyph glyph-name="uni042F" unicode="&#x42f;" horiz-adv-x="681" 
d="M598 0h-116v261h-115l-195 -261h-140l209 270q-78 19 -124 74t-46 134q0 104 67.5 163t183.5 59h276v-700zM482 361v234h-153q-65 0 -100 -29.5t-35 -87.5q0 -57 35 -87t100 -30h153z" />
    <glyph glyph-name="uni0402" unicode="&#x402;" horiz-adv-x="775" 
d="M618 410q57 -27 88 -78t31 -119q0 -100 -64.5 -159.5t-173.5 -59.5h-51v103h41q61 0 93.5 29.5t32.5 86.5q0 58 -37.5 87t-106.5 29q-75 0 -144 -26v-303h-117v595h-176v105h549v-105h-256v-187q75 29 158 29q76 0 133 -27z" />
    <glyph glyph-name="uni0462" unicode="&#x462;" horiz-adv-x="763" 
d="M489 409q106 0 168 -54.5t62 -149.5t-62 -150t-168 -55h-293v518h-155v105h155v92h117v-92h273v-105h-273v-109h176zM479 101q117 0 117 104q0 103 -117 103h-166v-207h166z" />
    <glyph glyph-name="uni0472" unicode="&#x472;" horiz-adv-x="811" 
d="M589.5 665.5q80.5 -45.5 125.5 -127.5t45 -188t-45 -188t-125.5 -127.5t-183.5 -45.5t-184 45.5t-126 127.5t-45 188t45 188t126 127.5t184 45.5t183.5 -45.5zM259.5 554.5q-60.5 -48.5 -79.5 -134.5q43 17 88 17q34 0 67 -7t78 -21q44 -13 73.5 -19.5t58.5 -6.5
q46 0 89 20q-15 93 -76.5 146.5t-151.5 53.5q-86 0 -146.5 -48.5zM558 150.5q62 53.5 76 147.5q-45 -19 -93 -19q-35 0 -67.5 7t-79.5 21q-44 13 -72 19.5t-57 6.5q-48 0 -90 -21q11 -100 74 -157.5t157 -57.5q90 0 152 53.5z" />
    <glyph glyph-name="uni0474" unicode="&#x474;" horiz-adv-x="750" 
d="M289 0l-267 700h125l171 -464q26 -72 26 -93h4q0 21 26 93l129 357q20 58 54.5 86t87.5 28q44 0 76 -13l-28 -101q-13 6 -30 6q-21 0 -33.5 -11t-21.5 -35l-206 -553h-113z" />
    <glyph glyph-name="uni0492" unicode="&#x492;" horiz-adv-x="601" 
d="M569 700v-105h-336v-215h208v-103h-208v-277h-117v277h-82v103h82v320h453z" />
    <glyph glyph-name="uni0496" unicode="&#x496;" horiz-adv-x="1026" 
d="M669 358l224 -253h113v-241h-111v136h-54l-288 326v-326h-117v326l-288 -326h-145l317 358l-290 342h138l268 -325v325h117v-325l268 325h138z" />
    <glyph glyph-name="uni0498" unicode="&#x498;" horiz-adv-x="648" 
d="M530 53q-66 -50 -167 -61l16 -14q38 -34 38 -75q0 -33 -26 -56t-71 -23h-90v94h58q13 0 20.5 6t7.5 16q0 16 -15 31l-18 19q-84 6 -150.5 48.5t-97.5 117.5l93 54q20 -56 72 -86t111 -30q70 0 116.5 26t46.5 79q0 55 -44.5 81t-123.5 26h-87v100h84q71 0 109 25t38 76
q0 45 -38.5 72t-102.5 27q-55 0 -96.5 -24.5t-65.5 -71.5l-89 53q33 72 97.5 110t159.5 38q75 0 133.5 -24.5t91 -69t32.5 -102.5q0 -56 -33.5 -96.5t-93.5 -56.5q72 -18 111.5 -62.5t39.5 -107.5q0 -89 -66 -139z" />
    <glyph glyph-name="uni049A" unicode="&#x49a;" horiz-adv-x="698" 
d="M328 356l240 -251h110v-241h-112v136h-54l-312 328v-328h-117v700h117v-327l294 327h151z" />
    <glyph glyph-name="uni049C" unicode="&#x49c;" horiz-adv-x="709" 
d="M703 0h-141l-200 301h-13v-184h-90v184h-59v-301h-117v700h117v-294h59v177h90v-177h15l179 294h135l-219 -343z" />
    <glyph glyph-name="uni04A0" unicode="&#x4a0;" horiz-adv-x="825" 
d="M483 356l341 -356h-156l-313 329v-329h-117v595h-206v105h323v-328l294 328h151z" />
    <glyph glyph-name="uni04A2" unicode="&#x4a2;" horiz-adv-x="777" 
d="M657 700v-595h76v-241h-112v136h-81v301h-341v-301h-116v700h116v-294h341v294h117z" />
    <glyph glyph-name="uni04A4" unicode="&#x4a4;" horiz-adv-x="918" 
d="M887 700v-105h-230v-595h-117v301h-341v-301h-116v700h116v-294h341v294h347z" />
    <glyph glyph-name="uni04AA" unicode="&#x4aa;" horiz-adv-x="723" 
d="M592 220q-28 -59 -77.5 -91t-113.5 -32q-66 0 -117.5 30.5t-80.5 88t-29 134.5t29 134.5t80.5 88t117.5 30.5q64 0 113.5 -32t77.5 -91l100 62q-42 81 -118 125t-173 44q-101 0 -180.5 -45.5t-124 -127.5t-44.5 -188q0 -99 39 -177t109 -125.5t160 -56.5l19 -20
q16 -16 16 -31q0 -10 -8 -16t-21 -6h-58v-94h90q45 0 71.5 23t26.5 56q0 40 -39 75l-15 13q83 9 148 52t102 115z" />
    <glyph glyph-name="uni04AE" unicode="&#x4ae;" horiz-adv-x="716" 
d="M555 700l-196 -260l-196 260h-137l274 -372v-328h117v328l270 372h-132z" />
    <glyph glyph-name="uni04B0" unicode="&#x4b0;" horiz-adv-x="716" 
d="M555 700h132l-268 -370h167v-103h-169v-227h-117v227h-173v103h172l-273 370h137l196 -260z" />
    <glyph glyph-name="uni04B2" unicode="&#x4b2;" horiz-adv-x="718" 
d="M588 105h109v-241h-111v136h-58l-133 182q-20 27 -37.5 53t-18.5 35h-4q-4 -17 -55 -88l-134 -182h-134l258 354l-250 346h136l128 -174q52 -75 54 -88h4q3 19 53 88l128 174h134l-250 -344z" />
    <glyph glyph-name="uni04B6" unicode="&#x4b6;" horiz-adv-x="707" 
d="M586 105h76v-241h-111v136h-81v274q-74 -23 -154 -23q-120 0 -188.5 67.5t-68.5 184.5v197h117v-190q0 -75 39.5 -113.5t111.5 -38.5q79 0 143 19v323h116v-595z" />
    <glyph glyph-name="uni04B8" unicode="&#x4b8;" horiz-adv-x="678" 
d="M479 700h117v-700h-117v302q-59 -17 -110 -21v-164h-89v166q-106 12 -165 78t-59 171v168h117v-161q0 -60 27.5 -97t79.5 -50v191h89v-196q62 3 110 18v295z" />
    <glyph glyph-name="uni04BA" unicode="&#x4ba;" horiz-adv-x="670" 
d="M541 381.5q68 -67.5 68 -184.5v-197h-116v190q0 75 -39.5 113.5t-111.5 38.5q-79 0 -143 -19v-323h-116v700h116v-274q74 23 153 23q121 0 189 -67.5z" />
    <glyph glyph-name="uni04C0" unicode="&#x4c0;" horiz-adv-x="283" 
d="M83 700v-700h117v700h-117z" />
    <glyph glyph-name="uni04C1" unicode="&#x4c1;" horiz-adv-x="989" 
d="M669 358l290 342h-138l-268 -325v325h-117v-325l-268 325h-138l290 -342l-317 -358h145l288 326v-326h117v326l288 -326h145zM324 926q5 -66 51.5 -103.5t119.5 -37.5t119.5 37.5t51.5 103.5h-96q-7 -63 -75 -63t-75 63h-96z" />
    <glyph glyph-name="uni04D0" unicode="&#x4d0;" horiz-adv-x="708" 
d="M689 0l-278 700h-113l-277 -700h121l73 192h276l73 -192h125zM184 926q5 -66 51.5 -103.5t119.5 -37.5t119.5 37.5t51.5 103.5h-96q-7 -63 -75 -63t-75 63h-96zM252 290l73 193q26 71 26 89h4q0 -18 26 -89l73 -193h-202z" />
    <glyph glyph-name="uni04D2" unicode="&#x4d2;" horiz-adv-x="708" 
d="M689 0l-278 700h-113l-277 -700h121l73 192h276l73 -192h125zM252 290l73 193q26 71 26 89h4q0 -18 26 -89l73 -193h-202zM171 862q0 -31 20 -49.5t49 -18.5q30 0 49.5 18.5t19.5 49.5t-19.5 49t-49.5 18q-29 0 -49 -18t-20 -49zM399 862q0 -31 19.5 -49.5t49.5 -18.5
q29 0 48.5 18.5t19.5 49.5t-19.5 49t-48.5 18q-30 0 -49.5 -18t-19.5 -49z" />
    <glyph glyph-name="uni04D4" unicode="&#x4d4;" horiz-adv-x="1024" 
d="M480 700l-475 -700h128l117 172h259v-172h460v105h-343v200h302v102h-302v188h343v105h-489zM509 461v-191h-132q-59 0 -73 -8l-2 3q16 10 48 56l107 156q48 72 55 92l3 -1q-6 -21 -6 -107z" />
    <glyph glyph-name="uni04D6" unicode="&#x4d6;" horiz-adv-x="621" 
d="M566 700h-483v-700h483v105h-366v200h325v102h-325v188h366v105zM157 926q5 -66 51.5 -103.5t119.5 -37.5t119.5 37.5t51.5 103.5h-96q-7 -63 -75 -63t-75 63h-96z" />
    <glyph glyph-name="uni04D8" unicode="&#x4d8;" horiz-adv-x="777" 
d="M726 350q0 107 -46 189t-127 127t-184 45q-91 0 -168.5 -42.5t-123.5 -115.5l85 -73q34 61 88 93t119 32q63 0 114 -27.5t83 -78.5t37 -121h-553q-2 -32 -2 -47q0 -102 41 -179.5t116 -120t174 -42.5q97 0 176 45t125 127t46 189zM597 281q-18 -86 -78.5 -136t-139.5 -50
q-88 0 -143 49t-66 137h427z" />
    <glyph glyph-name="uni04DA" unicode="&#x4da;" horiz-adv-x="777" 
d="M726 350q0 107 -46 189t-127 127t-184 45q-91 0 -168.5 -42.5t-123.5 -115.5l85 -73q34 61 88 93t119 32q63 0 114 -27.5t83 -78.5t37 -121h-553q-2 -32 -2 -47q0 -102 41 -179.5t116 -120t174 -42.5q97 0 176 45t125 127t46 189zM597 281q-18 -86 -78.5 -136t-139.5 -50
q-88 0 -143 49t-66 137h427zM195 862q0 -31 20 -49.5t49 -18.5q30 0 49.5 18.5t19.5 49.5t-19.5 49t-49.5 18q-29 0 -49 -18t-20 -49zM423 862q0 -31 19.5 -49.5t49.5 -18.5q29 0 48.5 18.5t19.5 49.5t-19.5 49t-48.5 18q-30 0 -49.5 -18t-19.5 -49z" />
    <glyph glyph-name="uni04DC" unicode="&#x4dc;" horiz-adv-x="989" 
d="M669 358l290 342h-138l-268 -325v325h-117v-325l-268 325h-138l290 -342l-317 -358h145l288 326v-326h117v326l288 -326h145zM312 862q0 -31 20 -49.5t49 -18.5q30 0 49.5 18.5t19.5 49.5t-19.5 49t-49.5 18q-29 0 -49 -18t-20 -49zM540 862q0 -31 19.5 -49.5t49.5 -18.5
q29 0 48.5 18.5t19.5 49.5t-19.5 49t-48.5 18q-30 0 -49.5 -18t-19.5 -49z" />
    <glyph glyph-name="uni04DE" unicode="&#x4de;" horiz-adv-x="648" 
d="M596 192q0 63 -39.5 107.5t-111.5 62.5q60 16 93.5 56.5t33.5 96.5q0 58 -32.5 102.5t-91 69t-133.5 24.5q-95 0 -159.5 -38t-97.5 -110l89 -53q24 47 65.5 71.5t96.5 24.5q64 0 102.5 -27t38.5 -72q0 -51 -38 -76t-109 -25h-84v-100h87q79 0 123.5 -26t44.5 -81
q0 -53 -46.5 -79t-116.5 -26q-59 0 -111 30t-72 86l-93 -54q34 -81 109 -124t168 -43q75 0 139.5 21.5t104.5 67.5t40 114zM131 862q0 -31 20 -49.5t49 -18.5q30 0 49.5 18.5t19.5 49.5t-19.5 49t-49.5 18q-29 0 -49 -18t-20 -49zM359 862q0 -31 19.5 -49.5t49.5 -18.5
q29 0 48.5 18.5t19.5 49.5t-19.5 49t-48.5 18q-30 0 -49.5 -18t-19.5 -49z" />
    <glyph glyph-name="uni04E2" unicode="&#x4e2;" horiz-adv-x="759" 
d="M199 283v417h-116v-700h106l317 435q49 68 56 86l3 -1q-6 -21 -6 -103v-417h117v700h-105l-319 -435q-49 -68 -56 -86l-3 1q6 21 6 103zM546 815v88h-334v-88h334z" />
    <glyph glyph-name="uni04E4" unicode="&#x4e4;" horiz-adv-x="759" 
d="M199 283v417h-116v-700h106l317 435q49 68 56 86l3 -1q-6 -21 -6 -103v-417h117v700h-105l-319 -435q-49 -68 -56 -86l-3 1q6 21 6 103zM196 862q0 -31 20 -49.5t49 -18.5q30 0 49.5 18.5t19.5 49.5t-19.5 49t-49.5 18q-29 0 -49 -18t-20 -49zM424 862q0 -31 19.5 -49.5
t49.5 -18.5q29 0 48.5 18.5t19.5 49.5t-19.5 49t-48.5 18q-30 0 -49.5 -18t-19.5 -49z" />
    <glyph glyph-name="uni04E6" unicode="&#x4e6;" horiz-adv-x="811" 
d="M51 350q0 -106 45 -188t126 -127.5t184 -45.5t183.5 45.5t125.5 127.5t45 188t-45 188t-125.5 127.5t-183.5 45.5t-184 -45.5t-126 -127.5t-45 -188zM638 350q0 -77 -30 -134.5t-82.5 -88t-119.5 -30.5q-68 0 -120.5 30.5t-82.5 88t-30 134.5t30 134.5t82.5 88
t120.5 30.5q67 0 119.5 -30.5t82.5 -88t30 -134.5zM222 862q0 -31 20 -49.5t49 -18.5q30 0 49.5 18.5t19.5 49.5t-19.5 49t-49.5 18q-29 0 -49 -18t-20 -49zM450 862q0 -31 19.5 -49.5t49.5 -18.5q29 0 48.5 18.5t19.5 49.5t-19.5 49t-48.5 18q-30 0 -49.5 -18t-19.5 -49z
" />
    <glyph glyph-name="uni04E8" unicode="&#x4e8;" horiz-adv-x="811" 
d="M589.5 665.5q80.5 -45.5 125.5 -127.5t45 -188t-45 -188t-125.5 -127.5t-183.5 -45.5t-184 45.5t-126 127.5t-45 188t45 188t126 127.5t184 45.5t183.5 -45.5zM254.5 551q-61.5 -52 -76.5 -144h455q-15 92 -76.5 144t-150.5 52q-90 0 -151.5 -52zM560 152.5
q62 55.5 75 152.5h-459q13 -97 75 -152.5t155 -55.5q92 0 154 55.5z" />
    <glyph glyph-name="uni04EA" unicode="&#x4ea;" horiz-adv-x="811" 
d="M760 350q0 106 -45 188t-125.5 127.5t-183.5 45.5t-184 -45.5t-126 -127.5t-45 -188t45 -188t126 -127.5t184 -45.5t183.5 45.5t125.5 127.5t45 188zM635 305q-13 -97 -75 -152.5t-154 -55.5q-93 0 -155 55.5t-75 152.5h459zM178 407q15 92 76.5 144t151.5 52
q89 0 150.5 -52t76.5 -144h-455zM222 862q0 -31 20 -49.5t49 -18.5q30 0 49.5 18.5t19.5 49.5t-19.5 49t-49.5 18q-29 0 -49 -18t-20 -49zM450 862q0 -31 19.5 -49.5t49.5 -18.5q29 0 48.5 18.5t19.5 49.5t-19.5 49t-48.5 18q-30 0 -49.5 -18t-19.5 -49z" />
    <glyph glyph-name="uni04EC" unicode="&#x4ec;" horiz-adv-x="732" 
d="M680 350q0 106 -44.5 188t-124 127.5t-180.5 45.5q-97 0 -173 -44t-118 -125l100 -62q28 59 77.5 91t113.5 32q87 0 146.5 -52t74.5 -144h-316v-102h318q-12 -97 -73 -152.5t-150 -55.5q-64 0 -113.5 32t-77.5 91l-100 -62q42 -81 118 -125t173 -44q101 0 180.5 45.5
t124 127.5t44.5 188zM143 862q0 -31 20 -49.5t49 -18.5q30 0 49.5 18.5t19.5 49.5t-19.5 49t-49.5 18q-29 0 -49 -18t-20 -49zM371 862q0 -31 19.5 -49.5t49.5 -18.5q29 0 48.5 18.5t19.5 49.5t-19.5 49t-48.5 18q-30 0 -49.5 -18t-19.5 -49z" />
    <glyph glyph-name="uni04EE" unicode="&#x4ee;" horiz-adv-x="684" 
d="M203 0h124l339 700h-128l-154 -336q-29 -62 -29 -79h-4q0 15 -29 79l-162 336h-130l261 -522zM513 815v88h-334v-88h334z" />
    <glyph glyph-name="uni04F0" unicode="&#x4f0;" horiz-adv-x="684" 
d="M203 0h124l339 700h-128l-154 -336q-29 -62 -29 -79h-4q0 15 -29 79l-162 336h-130l261 -522zM163 862q0 -31 20 -49.5t49 -18.5q30 0 49.5 18.5t19.5 49.5t-19.5 49t-49.5 18q-29 0 -49 -18t-20 -49zM391 862q0 -31 19.5 -49.5t49.5 -18.5q29 0 48.5 18.5t19.5 49.5
t-19.5 49t-48.5 18q-30 0 -49.5 -18t-19.5 -49z" />
    <glyph glyph-name="uni04F2" unicode="&#x4f2;" horiz-adv-x="684" 
d="M203 0h124l339 700h-128l-154 -336q-29 -62 -29 -79h-4q0 15 -29 79l-162 336h-130l261 -522zM615 926h-125l-113 -137h106zM406 926h-119l-109 -137h107z" />
    <glyph glyph-name="uni04F4" unicode="&#x4f4;" horiz-adv-x="669" 
d="M470 700v-323q-64 -19 -143 -19q-72 0 -111.5 38.5t-39.5 113.5v190h-117v-197q0 -117 68.5 -184.5t188.5 -67.5q80 0 154 23v-274h116v700h-116zM140 862q0 -31 20 -49.5t49 -18.5q30 0 49.5 18.5t19.5 49.5t-19.5 49t-49.5 18q-29 0 -49 -18t-20 -49zM368 862
q0 -31 19.5 -49.5t49.5 -18.5q29 0 48.5 18.5t19.5 49.5t-19.5 49t-48.5 18q-30 0 -49.5 -18t-19.5 -49z" />
    <glyph glyph-name="uni04F8" unicode="&#x4f8;" horiz-adv-x="899" 
d="M361 435h-162v265h-116v-700h278q112 0 178 58.5t66 161.5q0 100 -66 157.5t-178 57.5zM700 700v-700h117v700h-117zM352 103h-153v229h153q63 0 97 -28t34 -84q0 -59 -34 -88t-97 -29zM271 862q0 -31 20 -49.5t49 -18.5q30 0 49.5 18.5t19.5 49.5t-19.5 49t-49.5 18
q-29 0 -49 -18t-20 -49zM499 862q0 -31 19.5 -49.5t49.5 -18.5q29 0 48.5 18.5t19.5 49.5t-19.5 49t-48.5 18q-30 0 -49.5 -18t-19.5 -49z" />
    <glyph glyph-name="uni0430" unicode="&#x430;" horiz-adv-x="569" 
d="M501 319q0 67 -32 112.5t-85 68t-116 22.5q-67 0 -120.5 -25.5t-84.5 -76.5l79 -62q18 31 49.5 48t72.5 17q58 0 92.5 -29t34.5 -85v-53q-23 24 -59 37t-83 13q-92 0 -149.5 -43t-57.5 -116t56 -115.5t144 -42.5q53 0 92.5 15.5t62.5 45.5v-50h104v319zM393 148
q0 -36 -32.5 -56t-85.5 -20t-86 20t-33 56q0 37 33 57t86 20t85.5 -20t32.5 -57z" />
    <glyph glyph-name="uni0431" unicode="&#x431;" horiz-adv-x="629" 
d="M466 463.5q54 -32.5 84 -90t30 -129.5q0 -73 -32 -131t-90.5 -91t-134.5 -33q-79 0 -138.5 32.5t-92.5 93.5t-33 146v50q0 171 69 273t196 133l187 45l19 -104l-196 -48q-75 -18 -117 -73t-52 -138q26 46 72 71.5t106 25.5q69 0 123 -32.5zM426 128.5q40 43.5 40 114.5
t-40.5 113.5t-106.5 42.5q-64 0 -105 -43t-41 -113q0 -73 41.5 -115.5t108.5 -42.5q63 0 103 43.5z" />
    <glyph glyph-name="uni0432" unicode="&#x432;" horiz-adv-x="570" 
d="M494.5 223.5q27.5 -33.5 27.5 -79.5q0 -70 -49 -107t-140 -37h-261v511h237q89 0 137.5 -35t48.5 -101q0 -37 -21 -64t-58 -41q51 -13 78.5 -46.5zM183 420v-117h121q78 0 78 58q0 59 -78 59h-121zM324 91q40 0 62.5 16t22.5 49q0 66 -85 66h-141v-131h141z" />
    <glyph glyph-name="uni0433" unicode="&#x433;" horiz-adv-x="451" 
d="M72 0v511h343v-97h-232v-414h-111z" />
    <glyph glyph-name="uni0453" unicode="&#x453;" horiz-adv-x="451" 
d="M72 0h111v414h232v97h-343v-511zM398 737h-125l-110 -137h108z" />
    <glyph glyph-name="uni0491" unicode="&#x491;" horiz-adv-x="450" 
d="M308 511v137h106v-234h-231v-414h-111v511h236z" />
    <glyph glyph-name="uni0434" unicode="&#x434;" horiz-adv-x="655" 
d="M544 93h67v-233h-106v140h-371v-140h-106v233h53q55 26 59 139l12 279h392v-418zM250 227q-3 -87 -51 -134h235v321h-177z" />
    <glyph glyph-name="uni0435" unicode="&#x435;" horiz-adv-x="582" 
d="M534 229q1 9 1 30q0 77 -30.5 137t-84.5 93t-123 33q-72 0 -128 -33t-87.5 -93.5t-31.5 -139.5t32.5 -139.5t91 -94t132.5 -33.5q66 0 121.5 24t93.5 75l-77 64q-46 -67 -137 -67q-61 0 -99.5 36.5t-45.5 107.5h372zM165 308q10 60 44 91t87 31q50 0 83 -30.5t42 -91.5
h-256z" />
    <glyph glyph-name="uni0450" unicode="&#x450;" horiz-adv-x="582" 
d="M534 229q1 9 1 30q0 77 -30.5 137t-84.5 93t-123 33q-72 0 -128 -33t-87.5 -93.5t-31.5 -139.5t32.5 -139.5t91 -94t132.5 -33.5q66 0 121.5 24t93.5 75l-77 64q-46 -67 -137 -67q-61 0 -99.5 36.5t-45.5 107.5h372zM165 308q10 60 44 91t87 31q50 0 83 -30.5t42 -91.5
h-256zM379 600l-111 137h-124l126 -137h109z" />
    <glyph glyph-name="uni0451" unicode="&#x451;" horiz-adv-x="582" 
d="M534 229q1 9 1 30q0 77 -30.5 137t-84.5 93t-123 33q-72 0 -128 -33t-87.5 -93.5t-31.5 -139.5t32.5 -139.5t91 -94t132.5 -33.5q66 0 121.5 24t93.5 75l-77 64q-46 -67 -137 -67q-61 0 -99.5 36.5t-45.5 107.5h372zM165 308q10 60 44 91t87 31q50 0 83 -30.5t42 -91.5
h-256zM114 673q0 -31 20 -49.5t49 -18.5q30 0 49.5 18.5t19.5 49.5t-19.5 49t-49.5 18q-29 0 -49 -18t-20 -49zM342 673q0 -31 19.5 -49.5t49.5 -18.5q29 0 48.5 18.5t19.5 49.5t-19.5 49t-48.5 18q-30 0 -49.5 -18t-19.5 -49z" />
    <glyph glyph-name="uni0436" unicode="&#x436;" horiz-adv-x="780" 
d="M560 258l206 -258h-131l-189 244v-244h-111v245l-189 -245h-132l207 259l-200 252h131l183 -240v240h111v-239l182 239h132z" />
    <glyph glyph-name="uni0437" unicode="&#x437;" horiz-adv-x="534" 
d="M457.5 221q27.5 -31 27.5 -75q0 -75 -63.5 -116t-157.5 -41q-80 0 -141 31.5t-93 88.5l88 51q18 -36 54 -56.5t83 -20.5q52 0 84.5 16.5t32.5 54.5q0 68 -116 68h-76v80h73q45 0 74 15.5t29 45.5q0 32 -27.5 48t-73.5 16q-41 0 -71 -14.5t-50 -46.5l-84 48
q27 53 82.5 80.5t129.5 27.5q92 0 149 -40.5t57 -107.5q0 -35 -23 -62t-64 -44q49 -16 76.5 -47z" />
    <glyph glyph-name="uni0438" unicode="&#x438;" horiz-adv-x="611" 
d="M72 0v511h111v-254q0 -83 -6 -103l3 -1q4 10 20.5 35.5t35.5 50.5l201 272h101v-511h-110v253q0 82 6 103l-3 1q-8 -20 -56 -87l-201 -270h-102z" />
    <glyph glyph-name="uni0439" unicode="&#x439;" horiz-adv-x="611" 
d="M72 0h102l201 270q48 67 56 87l3 -1q-6 -21 -6 -103v-253h110v511h-101l-201 -272q-19 -25 -35.5 -50.5t-20.5 -35.5l-3 1q6 20 6 103v254h-111v-511zM135 737q5 -66 51.5 -103.5t119.5 -37.5t119.5 37.5t51.5 103.5h-96q-7 -63 -75 -63t-75 63h-96z" />
    <glyph glyph-name="uni045D" unicode="&#x45d;" horiz-adv-x="611" 
d="M72 0h102l201 270q48 67 56 87l3 -1q-6 -21 -6 -103v-253h110v511h-101l-201 -272q-19 -25 -35.5 -50.5t-20.5 -35.5l-3 1q6 20 6 103v254h-111v-511zM388 600l-111 137h-124l126 -137h109z" />
    <glyph glyph-name="uni043A" unicode="&#x43a;" horiz-adv-x="533" 
d="M300 261l211 250h-133l-194 -238v238h-112v-511h112v246l205 -246h136z" />
    <glyph glyph-name="uni045C" unicode="&#x45c;" horiz-adv-x="533" 
d="M300 261l211 250h-133l-194 -238v238h-112v-511h112v246l205 -246h136zM427 737h-125l-110 -137h108z" />
    <glyph glyph-name="uni043B" unicode="&#x43b;" horiz-adv-x="592" 
d="M520 0h-111v414h-181l-6 -206q-2 -98 -42.5 -148.5t-122.5 -70.5l-26 99q44 14 64.5 44.5t22.5 93.5l8 285h394v-511z" />
    <glyph glyph-name="uni043C" unicode="&#x43c;" horiz-adv-x="681" 
d="M339 285l162 226h108v-511h-111v256q0 81 6 102l-3 1q-4 -10 -20 -34.5t-36 -50.5l-95 -130h-19l-95 128q-20 26 -36 50.5t-20 34.5l-3 -1q6 -21 6 -102v-254h-111v511h101z" />
    <glyph glyph-name="uni043D" unicode="&#x43d;" horiz-adv-x="605" 
d="M422 311v200h110v-511h-110v215h-239v-215h-111v511h111v-200h239z" />
    <glyph glyph-name="uni043E" unicode="&#x43e;" horiz-adv-x="620" 
d="M49 256q0 -78 34 -138.5t93.5 -94.5t133.5 -34t133.5 34t93.5 94.5t34 138.5q0 77 -34 137.5t-93.5 94.5t-133.5 34t-133.5 -34t-93.5 -94.5t-34 -137.5zM458 256q0 -78 -41.5 -123t-106.5 -45t-106 45t-41 123q0 77 41 121.5t106 44.5t106.5 -44.5t41.5 -121.5z" />
    </font>
</defs>
</svg>
