<?xml version="1.0" standalone="no"?>
<!DOCTYPE svg PUBLIC "-//W3C//DTD SVG 1.1//EN" "http://www.w3.org/Graphics/SVG/1.1/DTD/svg11.dtd" >
<svg xmlns="http://www.w3.org/2000/svg" xmlns:xlink="http://www.w3.org/1999/xlink" version="1.1">
<metadata>
Created by FontForge 20201107 at Thu Jan 19 13:18:25 2017
 By Unknown
Copyright 2016 The Nunito Project Authors (contact@sansoxygen.com)
</metadata>
<defs>
<font id="NunitoSans-ExtraBold" horiz-adv-x="600" >
  <font-face 
    font-family="Nunito Sans ExtraBold"
    font-weight="800"
    font-stretch="normal"
    units-per-em="1000"
    panose-1="0 0 9 0 0 0 0 0 0 0"
    ascent="800"
    descent="-200"
    x-height="490"
    cap-height="705"
    bbox="-356 -275 1322 1081"
    underline-thickness="50"
    underline-position="-100"
    unicode-range="U+000D-FB02"
  />
<missing-glyph horiz-adv-x="443" 
d="M363 705v-885h-281v885h281zM295 646h-146v-29h57v-33h-58v-29h147v29h-59v33h59v29zM236 532h-88v-92h147v30h-59v62zM206 501v-31h-29v31h29zM295 416h-147v-30h58v-32h-58v-30h88v62h59v30zM295 363h-29v-59h-118v-30h147v89zM295 255h-89v-50h30v20h30v-41h-89v71
h-29v-100h147v100zM295 101h-147v-100h147v100zM266 72v-41h-89v41h89zM295 -19h-147v-29h62l-62 -42v-29h147v29h-91l62 42h29v29z" />
    <glyph glyph-name="fi" unicode="fi" horiz-adv-x="643" 
d="M428 728h163v-143h-163v143zM248 491h337v-491h-151v378h-186v-378h-151v378h-93v113h93q2 106 62 159t179 58l46 2l7 -111l-47 -2q-55 -2 -75.5 -22.5t-20.5 -62.5v-21z" />
    <glyph glyph-name="fl" unicode="fl" horiz-adv-x="643" 
d="M248 491h123v-113h-123v-378h-151v378h-93v113h93q2 104 60.5 156.5t178.5 59.5l55 3l9 -111l-47 -2q-58 -2 -81.5 -21.5t-23.5 -64.5v-20zM434 0v705h151v-705h-151z" />
    <glyph glyph-name=".notdef" horiz-adv-x="443" 
d="M363 705v-885h-281v885h281zM295 646h-146v-29h57v-33h-58v-29h147v29h-59v33h59v29zM236 532h-88v-92h147v30h-59v62zM206 501v-31h-29v31h29zM295 416h-147v-30h58v-32h-58v-30h88v62h59v30zM295 363h-29v-59h-118v-30h147v89zM295 255h-89v-50h30v20h30v-41h-89v71
h-29v-100h147v100zM295 101h-147v-100h147v100zM266 72v-41h-89v41h89zM295 -19h-147v-29h62l-62 -42v-29h147v29h-91l62 42h29v29z" />
    <glyph glyph-name="NULL" horiz-adv-x="0" 
 />
    <glyph glyph-name="nonmarkingreturn" unicode="&#xd;" horiz-adv-x="279" 
 />
    <glyph glyph-name="space" unicode=" " horiz-adv-x="279" 
 />
    <glyph glyph-name="A" unicode="A" horiz-adv-x="751" 
d="M608 0l-67 156h-328l-67 -156h-157l324 705h125l324 -705h-154zM264 274h226l-113 264z" />
    <glyph glyph-name="Aacute" unicode="&#xc1;" horiz-adv-x="751" 
d="M608 0l-67 156h-328l-67 -156h-157l324 705h125l324 -705h-154zM264 274h226l-113 264zM422 765h-94l103 156h140z" />
    <glyph glyph-name="Abreve" unicode="&#x102;" horiz-adv-x="751" 
d="M608 0l-67 156h-328l-67 -156h-157l324 705h125l324 -705h-154zM264 274h226l-113 264zM263 802q-47 28 -66 81l70 29q30 -49 108 -49t108 49l70 -29q-19 -53 -66 -81t-112 -28t-112 28z" />
    <glyph glyph-name="uni1EAE" unicode="&#x1eae;" horiz-adv-x="751" 
d="M608 0l-67 156h-328l-67 -156h-157l324 705h125l324 -705h-154zM264 274h226l-113 264zM419 872h-88l100 141h130zM263 787.5q-47 27.5 -66 81.5l55 23q16 -27 50.5 -41.5t72.5 -14.5t72.5 14.5t50.5 41.5l55 -23q-19 -54 -66 -81.5t-112 -27.5t-112 27.5z" />
    <glyph glyph-name="uni1EB6" unicode="&#x1eb6;" horiz-adv-x="751" 
d="M608 0l-67 156h-328l-67 -156h-157l324 705h125l324 -705h-154zM264 274h226l-113 264zM307 -67h138v-132h-138v132zM263 802q-47 28 -66 81l70 29q30 -49 108 -49t108 49l70 -29q-19 -53 -66 -81t-112 -28t-112 28z" />
    <glyph glyph-name="uni1EB0" unicode="&#x1eb0;" horiz-adv-x="751" 
d="M608 0l-67 156h-328l-67 -156h-157l324 705h125l324 -705h-154zM264 274h226l-113 264zM331 872l-142 141h130l100 -141h-88zM263 787.5q-47 27.5 -66 81.5l55 23q16 -27 50.5 -41.5t72.5 -14.5t72.5 14.5t50.5 41.5l55 -23q-19 -54 -66 -81.5t-112 -27.5t-112 27.5z" />
    <glyph glyph-name="uni1EB2" unicode="&#x1eb2;" horiz-adv-x="751" 
d="M608 0l-67 156h-328l-67 -156h-157l324 705h125l324 -705h-154zM264 274h226l-113 264zM412 873h-74v19q0 19 13 28.5t34 17.5q18 5 18 10t-8 9t-25 4q-25 0 -57 -11l-20 51q45 18 95 18q49 0 78 -16.5t29 -43.5q0 -19 -12.5 -29t-35.5 -19q-18 -8 -26.5 -14t-8.5 -16v-8
zM263 787.5q-47 27.5 -66 81.5l55 23q16 -27 50.5 -41.5t72.5 -14.5t72.5 14.5t50.5 41.5l55 -23q-19 -54 -66 -81.5t-112 -27.5t-112 27.5z" />
    <glyph glyph-name="uni1EB4" unicode="&#x1eb4;" horiz-adv-x="751" 
d="M608 0l-67 156h-328l-67 -156h-157l324 705h125l324 -705h-154zM264 274h226l-113 264zM233 988q32 30 77 30q16 0 30.5 -3.5t27.5 -8t18 -6.5q15 -6 29.5 -10.5t26.5 -4.5q39 0 42 30h65q0 -45 -32 -75t-77 -30q-16 0 -30.5 3.5t-27.5 8t-18 6.5q-15 6 -29.5 10.5
t-26.5 4.5q-39 0 -42 -30h-65q0 45 32 75zM263 787.5q-47 27.5 -66 81.5l55 23q16 -27 50.5 -41.5t72.5 -14.5t72.5 14.5t50.5 41.5l55 -23q-19 -54 -66 -81.5t-112 -27.5t-112 27.5z" />
    <glyph glyph-name="Acircumflex" unicode="&#xc2;" horiz-adv-x="751" 
d="M608 0l-67 156h-328l-67 -156h-157l324 705h125l324 -705h-154zM264 274h226l-113 264zM313 765h-113l132 156h86l132 -156h-113l-62 85z" />
    <glyph glyph-name="uni1EA4" unicode="&#x1ea4;" horiz-adv-x="751" 
d="M608 0l-67 156h-328l-67 -156h-157l324 705h125l324 -705h-154zM264 274h226l-113 264zM543 872h-74l72 141h125zM311 765h-111l132 139h86l132 -139h-111l-64 71z" />
    <glyph glyph-name="uni1EAC" unicode="&#x1eac;" horiz-adv-x="751" 
d="M608 0l-67 156h-328l-67 -156h-157l324 705h125l324 -705h-154zM264 274h226l-113 264zM307 -67h138v-132h-138v132zM313 765h-113l132 156h86l132 -156h-113l-62 85z" />
    <glyph glyph-name="uni1EA6" unicode="&#x1ea6;" horiz-adv-x="751" 
d="M608 0l-67 156h-328l-67 -156h-157l324 705h125l324 -705h-154zM264 274h226l-113 264zM511 872l-122 141h125l71 -141h-74zM311 765h-111l132 139h86l132 -139h-111l-64 71z" />
    <glyph glyph-name="uni1EA8" unicode="&#x1ea8;" horiz-adv-x="751" 
d="M608 0l-67 156h-328l-67 -156h-157l324 705h125l324 -705h-154zM264 274h226l-113 264zM543 873h-75v19q0 19 13 28.5t34 17.5q18 5 18 10t-8 9t-24 4q-25 0 -57 -11l-20 51q45 18 95 18q49 0 77.5 -16.5t28.5 -43.5q0 -19 -12 -29t-35 -19q-18 -8 -26.5 -14t-8.5 -16v-8
zM311 765h-111l132 139h86l132 -139h-111l-64 71z" />
    <glyph glyph-name="uni1EAA" unicode="&#x1eaa;" horiz-adv-x="751" 
d="M608 0l-67 156h-328l-67 -156h-157l324 705h125l324 -705h-154zM264 274h226l-113 264zM233 996q32 30 77 30q16 0 30.5 -3.5t27.5 -8t18 -6.5q15 -6 29.5 -10.5t26.5 -4.5q39 0 42 30h65q0 -45 -31.5 -74.5t-77.5 -29.5q-18 0 -35.5 4.5t-40.5 13.5q-15 5 -29.5 9.5
t-26.5 4.5q-39 0 -42 -30h-65q0 45 32 75zM311 765h-111l132 139h86l132 -139h-111l-64 71z" />
    <glyph glyph-name="uni0200" unicode="&#x200;" horiz-adv-x="751" 
d="M608 0l-67 156h-328l-67 -156h-157l324 705h125l324 -705h-154zM264 274h226l-113 264zM269 765l-100 156h101l73 -156h-74zM407 765l-99 156h100l73 -156h-74z" />
    <glyph glyph-name="Adieresis" unicode="&#xc4;" horiz-adv-x="751" 
d="M608 0l-67 156h-328l-67 -156h-157l324 705h125l324 -705h-154zM264 274h226l-113 264zM210 909h139v-131h-139v131zM401 909h139v-131h-139v131z" />
    <glyph glyph-name="uni1EA0" unicode="&#x1ea0;" horiz-adv-x="751" 
d="M608 0l-67 156h-328l-67 -156h-157l324 705h125l324 -705h-154zM264 274h226l-113 264zM307 -67h138v-132h-138v132z" />
    <glyph glyph-name="Agrave" unicode="&#xc0;" horiz-adv-x="751" 
d="M608 0l-67 156h-328l-67 -156h-157l324 705h125l324 -705h-154zM264 274h226l-113 264zM328 765l-149 156h140l103 -156h-94z" />
    <glyph glyph-name="uni1EA2" unicode="&#x1ea2;" horiz-adv-x="751" 
d="M608 0l-67 156h-328l-67 -156h-157l324 705h125l324 -705h-154zM264 274h226l-113 264zM412 765h-74v22q0 18 11.5 27t31.5 18l9 4.5t10 6.5t3 6q0 17 -33 17q-26 0 -57 -12l-20 53q45 18 95 18q48 0 77.5 -18.5t29.5 -45.5q0 -19 -12.5 -30t-35.5 -21
q-18 -9 -26.5 -15.5t-8.5 -16.5v-13z" />
    <glyph glyph-name="uni0202" unicode="&#x202;" horiz-adv-x="751" 
d="M608 0l-67 156h-328l-67 -156h-157l324 705h125l324 -705h-154zM264 274h226l-113 264zM487 885q47 -28 66 -81l-70 -30q-30 50 -108 50t-108 -50l-70 30q19 53 66 81t112 28t112 -28z" />
    <glyph glyph-name="Amacron" unicode="&#x100;" horiz-adv-x="751" 
d="M608 0l-67 156h-328l-67 -156h-157l324 705h125l324 -705h-154zM264 274h226l-113 264zM218 796v94h314v-94h-314z" />
    <glyph glyph-name="Aogonek" unicode="&#x104;" horiz-adv-x="751" 
d="M767 -177q-45 -20 -100 -20t-91 30.5t-36 79.5q0 32 15.5 59.5t44.5 46.5l-59 137h-328l-67 -156h-157l324 705h125l324 -705h-51q-33 0 -53.5 -18.5t-20.5 -46.5q0 -26 15 -40t44 -14q23 0 54 13zM264 274h226l-113 264z" />
    <glyph glyph-name="Aring" unicode="&#xc5;" horiz-adv-x="751" 
d="M541 156h-328l-67 -156h-157l319 693q-19 15 -30 37t-11 48q0 45 31.5 76t77.5 31t78 -31t32 -76q0 -26 -11 -48.5t-31 -37.5l318 -692h-154zM345 810q-12 -13 -12 -32q0 -20 12 -33t31 -13t31 13t12 33q0 19 -12 32t-31 13t-31 -13zM264 274h226l-113 264z" />
    <glyph glyph-name="Aringacute" unicode="&#x1fa;" horiz-adv-x="751" 
d="M541 156h-328l-67 -156h-157l319 693q-19 15 -30 37t-11 48q0 45 31.5 76t77.5 31q22 0 47 -10l64 71h139l-149 -125q9 -19 9 -43q0 -26 -11 -48.5t-31 -37.5l318 -692h-154zM345 810q-12 -13 -12 -32q0 -20 12 -33t31 -13t31 13t12 33q0 19 -12 32t-31 13t-31 -13z
M264 274h226l-113 264z" />
    <glyph glyph-name="Atilde" unicode="&#xc3;" horiz-adv-x="751" 
d="M608 0l-67 156h-328l-67 -156h-157l324 705h125l324 -705h-154zM264 274h226l-113 264zM231.5 881q30.5 37 78.5 37q18 0 34.5 -7t41.5 -22q19 -12 31.5 -18t24.5 -6q19 0 29.5 13.5t12.5 36.5h65q0 -72 -30.5 -109t-78.5 -37q-18 0 -34.5 7t-41.5 22q-20 12 -32 17.5
t-24 5.5q-19 0 -29.5 -13t-12.5 -36h-65q0 72 30.5 109z" />
    <glyph glyph-name="AE" unicode="&#xc6;" horiz-adv-x="1000" 
d="M963 584h-387l37 -165h330v-121h-303l39 -177h284v-121h-399l-34 156h-300l-92 -156h-169l444 705h550v-121zM300 274h204l-56 250z" />
    <glyph glyph-name="AEacute" unicode="&#x1fc;" horiz-adv-x="1000" 
d="M963 584h-387l37 -165h330v-121h-303l39 -177h284v-121h-399l-34 156h-300l-92 -156h-169l444 705h550v-121zM300 274h204l-56 250zM552 765h-94l103 156h140z" />
    <glyph glyph-name="B" unicode="B" horiz-adv-x="689" 
d="M617.5 302.5q33.5 -44.5 33.5 -109.5q0 -89 -65.5 -141t-180.5 -52h-335v705h325q110 0 174.5 -49t64.5 -134q0 -55 -29.5 -96.5t-81.5 -60.5q61 -18 94.5 -62.5zM222 418h147q60 0 88.5 20.5t28.5 62.5q0 44 -28.5 64.5t-88.5 20.5h-147v-168zM477 140q28 21 28 68
t-28 69t-90 22h-165v-180h165q62 0 90 21z" />
    <glyph glyph-name="C" unicode="C" horiz-adv-x="678" 
d="M214.5 36q-79.5 45 -122 127t-42.5 190t42.5 190t122 126.5t186.5 44.5q70 0 134 -21.5t105 -59.5l-50 -111q-46 35 -91.5 51t-94.5 16q-94 0 -144.5 -60t-50.5 -176t50.5 -176.5t144.5 -60.5q49 0 94.5 16t91.5 51l50 -111q-41 -38 -105 -59.5t-134 -21.5
q-107 0 -186.5 45z" />
    <glyph glyph-name="Cacute" unicode="&#x106;" horiz-adv-x="678" 
d="M214.5 36q-79.5 45 -122 127t-42.5 190t42.5 190t122 126.5t186.5 44.5q70 0 134 -21.5t105 -59.5l-50 -111q-46 35 -91.5 51t-94.5 16q-94 0 -144.5 -60t-50.5 -176t50.5 -176.5t144.5 -60.5q49 0 94.5 16t91.5 51l50 -111q-41 -38 -105 -59.5t-134 -21.5
q-107 0 -186.5 45zM441 765h-94l103 156h140z" />
    <glyph glyph-name="Ccaron" unicode="&#x10c;" horiz-adv-x="678" 
d="M214.5 36q-79.5 45 -122 127t-42.5 190t42.5 190t122 126.5t186.5 44.5q70 0 134 -21.5t105 -59.5l-50 -111q-46 35 -91.5 51t-94.5 16q-94 0 -144.5 -60t-50.5 -176t50.5 -176.5t144.5 -60.5q49 0 94.5 16t91.5 51l50 -111q-41 -38 -105 -59.5t-134 -21.5
q-107 0 -186.5 45zM456 921h113l-132 -156h-86l-132 156h113l62 -86z" />
    <glyph glyph-name="Ccedilla" unicode="&#xc7;" horiz-adv-x="678" 
d="M544.5 16q-57.5 -21 -121.5 -24l-4 -33q4 1 12 1q38 0 61 -18.5t23 -50.5q0 -39 -35 -63.5t-100 -24.5q-22 0 -48 4.5t-46 13.5l12 58q45 -14 78 -14q46 0 46 26q0 19 -32 19q-18 0 -36 -6l-20 21l9 70q-91 11 -157 58.5t-101 124.5t-35 175q0 108 42.5 190t122 126.5
t186.5 44.5q70 0 134 -21.5t105 -59.5l-50 -111q-46 35 -91.5 51t-94.5 16q-94 0 -144.5 -60t-50.5 -176t50.5 -176.5t144.5 -60.5q49 0 94.5 16t91.5 51l50 -111q-38 -35 -95.5 -56z" />
    <glyph glyph-name="uni1E08" unicode="&#x1e08;" horiz-adv-x="678" 
d="M590 921l-149 -156h-94l103 156h140zM544.5 16q-57.5 -21 -121.5 -24l-4 -33q4 1 12 1q38 0 61 -18.5t23 -50.5q0 -39 -35 -63.5t-100 -24.5q-22 0 -48 4.5t-46 13.5l12 58q45 -14 78 -14q46 0 46 26q0 19 -32 19q-18 0 -36 -6l-20 21l9 70q-91 11 -157 58.5t-101 124.5
t-35 175q0 108 42.5 190t122 126.5t186.5 44.5q70 0 134 -21.5t105 -59.5l-50 -111q-46 35 -91.5 51t-94.5 16q-94 0 -144.5 -60t-50.5 -176t50.5 -176.5t144.5 -60.5q49 0 94.5 16t91.5 51l50 -111q-38 -35 -95.5 -56z" />
    <glyph glyph-name="Ccircumflex" unicode="&#x108;" horiz-adv-x="678" 
d="M214.5 36q-79.5 45 -122 127t-42.5 190t42.5 190t122 126.5t186.5 44.5q70 0 134 -21.5t105 -59.5l-50 -111q-46 35 -91.5 51t-94.5 16q-94 0 -144.5 -60t-50.5 -176t50.5 -176.5t144.5 -60.5q49 0 94.5 16t91.5 51l50 -111q-41 -38 -105 -59.5t-134 -21.5
q-107 0 -186.5 45zM332 765h-113l132 156h86l132 -156h-113l-62 85z" />
    <glyph glyph-name="Cdotaccent" unicode="&#x10a;" horiz-adv-x="678" 
d="M214.5 36q-79.5 45 -122 127t-42.5 190t42.5 190t122 126.5t186.5 44.5q70 0 134 -21.5t105 -59.5l-50 -111q-46 35 -91.5 51t-94.5 16q-94 0 -144.5 -60t-50.5 -176t50.5 -176.5t144.5 -60.5q49 0 94.5 16t91.5 51l50 -111q-41 -38 -105 -59.5t-134 -21.5
q-107 0 -186.5 45zM313 914h162v-141h-162v141z" />
    <glyph glyph-name="D" unicode="D" horiz-adv-x="763" 
d="M70 705h274q115 0 198 -42t127 -121t44 -189t-43.5 -189.5t-126.5 -121.5t-199 -42h-274v705zM333 126q225 0 225 227q0 226 -225 226h-107v-453h107z" />
    <glyph glyph-name="uni01C4" unicode="&#x1c4;" horiz-adv-x="1358" 
d="M70 705h274q115 0 198 -42t127 -121t44 -189t-43.5 -189.5t-126.5 -121.5t-199 -42h-274v705zM333 126q225 0 225 227q0 226 -225 226h-107v-453h107zM971 123h351v-123h-524v114l338 468h-338v123h514v-112zM1116 921h113l-132 -156h-86l-132 156h113l62 -86z" />
    <glyph glyph-name="Eth" unicode="&#xd0;" horiz-adv-x="793" 
d="M572 663q83 -42 127 -121t44 -189t-43.5 -189.5t-127 -121.5t-199.5 -42h-273v297h-85v118h85v290h273q116 0 199 -42zM587 353q0 114 -55.5 170t-168.5 56h-107v-164h185v-118h-185v-171h107q224 0 224 227z" />
    <glyph glyph-name="Dcaron" unicode="&#x10e;" horiz-adv-x="763" 
d="M70 705h274q115 0 198 -42t127 -121t44 -189t-43.5 -189.5t-126.5 -121.5t-199 -42h-274v705zM333 126q225 0 225 227q0 226 -225 226h-107v-453h107zM443 921h113l-132 -156h-86l-132 156h113l62 -86z" />
    <glyph glyph-name="Dcroat" unicode="&#x110;" horiz-adv-x="793" 
d="M572 663q83 -42 127 -121t44 -189t-43.5 -189.5t-127 -121.5t-199.5 -42h-273v297h-85v118h85v290h273q116 0 199 -42zM587 353q0 114 -55.5 170t-168.5 56h-107v-164h185v-118h-185v-171h107q224 0 224 227z" />
    <glyph glyph-name="uni1E0C" unicode="&#x1e0c;" horiz-adv-x="763" 
d="M70 705h274q115 0 198 -42t127 -121t44 -189t-43.5 -189.5t-126.5 -121.5t-199 -42h-274v705zM333 126q225 0 225 227q0 226 -225 226h-107v-453h107zM312 -67h138v-132h-138v132z" />
    <glyph glyph-name="uni1E0E" unicode="&#x1e0e;" horiz-adv-x="763" 
d="M70 705h274q115 0 198 -42t127 -121t44 -189t-43.5 -189.5t-126.5 -121.5t-199 -42h-274v705zM333 126q225 0 225 227q0 226 -225 226h-107v-453h107zM224 -177v88h314v-88h-314z" />
    <glyph glyph-name="uni01C5" unicode="&#x1c5;" horiz-adv-x="1277" 
d="M70 705h274q115 0 198 -42t127 -121t44 -189t-43.5 -189.5t-126.5 -121.5t-199 -42h-274v705zM333 126q225 0 225 227q0 226 -225 226h-107v-453h107zM986 113h258v-113h-435v105l244 273h-241v113h422v-101zM1086 760h117l-130 -205h-90l-130 205h117l58 -116z" />
    <glyph glyph-name="E" unicode="E" horiz-adv-x="593" 
d="M70 0v705h486v-121h-334v-165h314v-121h-314v-177h334v-121h-486z" />
    <glyph glyph-name="Eacute" unicode="&#xc9;" horiz-adv-x="593" 
d="M70 0v705h486v-121h-334v-165h314v-121h-314v-177h334v-121h-486zM378 765h-94l103 156h140z" />
    <glyph glyph-name="Ebreve" unicode="&#x114;" horiz-adv-x="593" 
d="M70 0v705h486v-121h-334v-165h314v-121h-314v-177h334v-121h-486zM219 802q-47 28 -66 81l70 29q30 -49 108 -49t108 49l70 -29q-19 -53 -66 -81t-112 -28t-112 28z" />
    <glyph glyph-name="Ecaron" unicode="&#x11a;" horiz-adv-x="593" 
d="M70 0v705h486v-121h-334v-165h314v-121h-314v-177h334v-121h-486zM393 921h113l-132 -156h-86l-132 156h113l62 -86z" />
    <glyph glyph-name="uni0228" unicode="&#x228;" horiz-adv-x="593" 
d="M222 584v-165h314v-121h-314v-177h334v-121h-195l-5 -41q4 1 12 1q38 0 61 -18.5t23 -50.5q0 -39 -35 -63.5t-100 -24.5q-22 0 -48 4.5t-46 13.5l12 58q45 -14 78 -14q46 0 46 26q0 19 -32 19q-18 0 -36 -6l-20 21l9 75h-210v705h486v-121h-334z" />
    <glyph glyph-name="uni1E1C" unicode="&#x1e1c;" horiz-adv-x="593" 
d="M219 802q-47 28 -66 81l70 29q30 -49 108 -49t108 49l70 -29q-19 -53 -66 -81t-112 -28t-112 28zM222 584v-165h314v-121h-314v-177h334v-121h-195l-5 -41q4 1 12 1q38 0 61 -18.5t23 -50.5q0 -39 -35 -63.5t-100 -24.5q-22 0 -48 4.5t-46 13.5l12 58q45 -14 78 -14
q46 0 46 26q0 19 -32 19q-18 0 -36 -6l-20 21l9 75h-210v705h486v-121h-334z" />
    <glyph glyph-name="Ecircumflex" unicode="&#xca;" horiz-adv-x="593" 
d="M70 0v705h486v-121h-334v-165h314v-121h-314v-177h334v-121h-486zM269 765h-113l132 156h86l132 -156h-113l-62 85z" />
    <glyph glyph-name="uni1EBE" unicode="&#x1ebe;" horiz-adv-x="593" 
d="M70 0v705h486v-121h-334v-165h314v-121h-314v-177h334v-121h-486zM499 872h-74l72 141h125zM267 765h-111l132 139h86l132 -139h-111l-64 71z" />
    <glyph glyph-name="uni1EC6" unicode="&#x1ec6;" horiz-adv-x="593" 
d="M70 0v705h486v-121h-334v-165h314v-121h-314v-177h334v-121h-486zM262 -67h138v-132h-138v132zM269 765h-113l132 156h86l132 -156h-113l-62 85z" />
    <glyph glyph-name="uni1EC0" unicode="&#x1ec0;" horiz-adv-x="593" 
d="M70 0v705h486v-121h-334v-165h314v-121h-314v-177h334v-121h-486zM467 872l-122 141h125l71 -141h-74zM267 765h-111l132 139h86l132 -139h-111l-64 71z" />
    <glyph glyph-name="uni1EC2" unicode="&#x1ec2;" horiz-adv-x="593" 
d="M70 0v705h486v-121h-334v-165h314v-121h-314v-177h334v-121h-486zM499 873h-75v19q0 19 13 28.5t34 17.5q18 5 18 10t-8 9t-24 4q-25 0 -57 -11l-20 51q45 18 95 18q49 0 77.5 -16.5t28.5 -43.5q0 -19 -12 -29t-35 -19q-18 -8 -26.5 -14t-8.5 -16v-8zM267 765h-111
l132 139h86l132 -139h-111l-64 71z" />
    <glyph glyph-name="uni1EC4" unicode="&#x1ec4;" horiz-adv-x="593" 
d="M70 0v705h486v-121h-334v-165h314v-121h-314v-177h334v-121h-486zM189 996q32 30 77 30q16 0 30.5 -3.5t27.5 -8t18 -6.5q15 -6 29.5 -10.5t26.5 -4.5q39 0 42 30h65q0 -45 -31.5 -74.5t-77.5 -29.5q-18 0 -35.5 4.5t-40.5 13.5q-15 5 -29.5 9.5t-26.5 4.5q-39 0 -42 -30
h-65q0 45 32 75zM267 765h-111l132 139h86l132 -139h-111l-64 71z" />
    <glyph glyph-name="uni0204" unicode="&#x204;" horiz-adv-x="593" 
d="M70 0v705h486v-121h-334v-165h314v-121h-314v-177h334v-121h-486zM225 765l-100 156h101l73 -156h-74zM363 765l-99 156h100l73 -156h-74z" />
    <glyph glyph-name="Edieresis" unicode="&#xcb;" horiz-adv-x="593" 
d="M70 0v705h486v-121h-334v-165h314v-121h-314v-177h334v-121h-486zM166 909h139v-131h-139v131zM357 909h139v-131h-139v131z" />
    <glyph glyph-name="Edotaccent" unicode="&#x116;" horiz-adv-x="593" 
d="M70 0v705h486v-121h-334v-165h314v-121h-314v-177h334v-121h-486zM250 914h162v-141h-162v141z" />
    <glyph glyph-name="uni1EB8" unicode="&#x1eb8;" horiz-adv-x="593" 
d="M70 0v705h486v-121h-334v-165h314v-121h-314v-177h334v-121h-486zM262 -67h138v-132h-138v132z" />
    <glyph glyph-name="Egrave" unicode="&#xc8;" horiz-adv-x="593" 
d="M70 0v705h486v-121h-334v-165h314v-121h-314v-177h334v-121h-486zM284 765l-149 156h140l103 -156h-94z" />
    <glyph glyph-name="uni1EBA" unicode="&#x1eba;" horiz-adv-x="593" 
d="M70 0v705h486v-121h-334v-165h314v-121h-314v-177h334v-121h-486zM368 765h-74v22q0 18 11.5 27t31.5 18l9 4.5t10 6.5t3 6q0 17 -33 17q-26 0 -57 -12l-20 53q45 18 95 18q48 0 77.5 -18.5t29.5 -45.5q0 -19 -12.5 -30t-35.5 -21q-18 -9 -26.5 -15.5t-8.5 -16.5v-13z
" />
    <glyph glyph-name="uni0206" unicode="&#x206;" horiz-adv-x="593" 
d="M70 0v705h486v-121h-334v-165h314v-121h-314v-177h334v-121h-486zM443 885q47 -28 66 -81l-70 -30q-30 50 -108 50t-108 -50l-70 30q19 53 66 81t112 28t112 -28z" />
    <glyph glyph-name="Emacron" unicode="&#x112;" horiz-adv-x="593" 
d="M70 0v705h486v-121h-334v-165h314v-121h-314v-177h334v-121h-486zM174 796v94h314v-94h-314z" />
    <glyph glyph-name="uni1E16" unicode="&#x1e16;" horiz-adv-x="593" 
d="M70 0v705h486v-121h-334v-165h314v-121h-314v-177h334v-121h-486zM174 796v94h314v-94h-314zM378 925h-94l103 156h140z" />
    <glyph glyph-name="uni1E14" unicode="&#x1e14;" horiz-adv-x="593" 
d="M70 0v705h486v-121h-334v-165h314v-121h-314v-177h334v-121h-486zM174 796v94h314v-94h-314zM284 925l-149 156h140l103 -156h-94z" />
    <glyph glyph-name="Eogonek" unicode="&#x118;" horiz-adv-x="593" 
d="M595 -177q-45 -20 -100 -20q-56 0 -91.5 31t-35.5 79q0 52 38 87h-336v705h486v-121h-334v-165h314v-121h-314v-177h334v-121h-21q-32 0 -51.5 -18t-19.5 -47q0 -26 15.5 -40t44.5 -14q23 0 54 13z" />
    <glyph glyph-name="uni1EBC" unicode="&#x1ebc;" horiz-adv-x="593" 
d="M70 0v705h486v-121h-334v-165h314v-121h-314v-177h334v-121h-486zM187.5 881q30.5 37 78.5 37q18 0 34.5 -7t41.5 -22q19 -12 31.5 -18t24.5 -6q19 0 29.5 13.5t12.5 36.5h65q0 -72 -30.5 -109t-78.5 -37q-18 0 -34.5 7t-41.5 22q-20 12 -32 17.5t-24 5.5
q-19 0 -29.5 -13t-12.5 -36h-65q0 72 30.5 109z" />
    <glyph glyph-name="F" unicode="F" horiz-adv-x="572" 
d="M70 0v705h476v-123h-322v-162h302v-123h-302v-297h-154z" />
    <glyph glyph-name="G" unicode="G" horiz-adv-x="738" 
d="M676 389v-345q-51 -25 -120 -39t-142 -14q-112 0 -194 43.5t-126 125t-44 193.5q0 110 43.5 191.5t124.5 125.5t189 44q76 0 141.5 -21t108.5 -58l-49 -111q-49 35 -95.5 50.5t-100.5 15.5q-204 0 -204 -237q0 -122 53 -182t160 -60q58 0 115 15v155h-138v108h278z" />
    <glyph glyph-name="Gbreve" unicode="&#x11e;" horiz-adv-x="738" 
d="M676 389v-345q-51 -25 -120 -39t-142 -14q-112 0 -194 43.5t-126 125t-44 193.5q0 110 43.5 191.5t124.5 125.5t189 44q76 0 141.5 -21t108.5 -58l-49 -111q-49 35 -95.5 50.5t-100.5 15.5q-204 0 -204 -237q0 -122 53 -182t160 -60q58 0 115 15v155h-138v108h278z
M295 802q-47 28 -66 81l70 29q30 -49 108 -49t108 49l70 -29q-19 -53 -66 -81t-112 -28t-112 28z" />
    <glyph glyph-name="Gcaron" unicode="&#x1e6;" horiz-adv-x="738" 
d="M676 389v-345q-51 -25 -120 -39t-142 -14q-112 0 -194 43.5t-126 125t-44 193.5q0 110 43.5 191.5t124.5 125.5t189 44q76 0 141.5 -21t108.5 -58l-49 -111q-49 35 -95.5 50.5t-100.5 15.5q-204 0 -204 -237q0 -122 53 -182t160 -60q58 0 115 15v155h-138v108h278z
M469 921h113l-132 -156h-86l-132 156h113l62 -86z" />
    <glyph glyph-name="Gcircumflex" unicode="&#x11c;" horiz-adv-x="738" 
d="M676 389v-345q-51 -25 -120 -39t-142 -14q-112 0 -194 43.5t-126 125t-44 193.5q0 110 43.5 191.5t124.5 125.5t189 44q76 0 141.5 -21t108.5 -58l-49 -111q-49 35 -95.5 50.5t-100.5 15.5q-204 0 -204 -237q0 -122 53 -182t160 -60q58 0 115 15v155h-138v108h278z
M345 765h-113l132 156h86l132 -156h-113l-62 85z" />
    <glyph glyph-name="Gcommaaccent" unicode="&#x122;" horiz-adv-x="738" 
d="M676 389v-345q-51 -25 -120 -39t-142 -14q-112 0 -194 43.5t-126 125t-44 193.5q0 110 43.5 191.5t124.5 125.5t189 44q76 0 141.5 -21t108.5 -58l-49 -111q-49 35 -95.5 50.5t-100.5 15.5q-204 0 -204 -237q0 -122 53 -182t160 -60q58 0 115 15v155h-138v108h278z
M488 -65v-65q0 -46 -13.5 -81t-46.5 -64l-54 37q29 27 35 59h-70v114h149z" />
    <glyph glyph-name="Gdotaccent" unicode="&#x120;" horiz-adv-x="738" 
d="M676 389v-345q-51 -25 -120 -39t-142 -14q-112 0 -194 43.5t-126 125t-44 193.5q0 110 43.5 191.5t124.5 125.5t189 44q76 0 141.5 -21t108.5 -58l-49 -111q-49 35 -95.5 50.5t-100.5 15.5q-204 0 -204 -237q0 -122 53 -182t160 -60q58 0 115 15v155h-138v108h278z
M326 914h162v-141h-162v141z" />
    <glyph glyph-name="uni1E20" unicode="&#x1e20;" horiz-adv-x="738" 
d="M676 389v-345q-51 -25 -120 -39t-142 -14q-112 0 -194 43.5t-126 125t-44 193.5q0 110 43.5 191.5t124.5 125.5t189 44q76 0 141.5 -21t108.5 -58l-49 -111q-49 35 -95.5 50.5t-100.5 15.5q-204 0 -204 -237q0 -122 53 -182t160 -60q58 0 115 15v155h-138v108h278z
M250 796v94h314v-94h-314z" />
    <glyph glyph-name="H" unicode="H" horiz-adv-x="771" 
d="M548 705h153v-705h-153v296h-325v-296h-153v705h153v-285h325v285z" />
    <glyph glyph-name="Hbar" unicode="&#x126;" horiz-adv-x="831" 
d="M816 622v-114h-85v-508h-153v296h-325v-296h-153v508h-85v114h85v83h153v-83h325v83h153v-83h85zM578 420v88h-325v-88h325z" />
    <glyph glyph-name="uni1E2A" unicode="&#x1e2a;" horiz-adv-x="771" 
d="M548 705h153v-705h-153v296h-325v-296h-153v705h153v-285h325v285zM269.5 -190q-51.5 37 -69.5 108l70 29q43 -79 116 -79t116 79l70 -29q-18 -71 -69.5 -108t-116.5 -37t-116.5 37z" />
    <glyph glyph-name="Hcircumflex" unicode="&#x124;" horiz-adv-x="771" 
d="M548 705h153v-705h-153v296h-325v-296h-153v705h153v-285h325v285zM324 765h-113l132 156h86l132 -156h-113l-62 85z" />
    <glyph glyph-name="uni1E24" unicode="&#x1e24;" horiz-adv-x="771" 
d="M548 705h153v-705h-153v296h-325v-296h-153v705h153v-285h325v285zM317 -67h138v-132h-138v132z" />
    <glyph glyph-name="I" unicode="I" horiz-adv-x="296" 
d="M70 0v705h156v-705h-156z" />
    <glyph glyph-name="Iacute" unicode="&#xcd;" horiz-adv-x="296" 
d="M70 0v705h156v-705h-156zM195 765h-94l103 156h140z" />
    <glyph glyph-name="Ibreve" unicode="&#x12c;" horiz-adv-x="296" 
d="M70 0v705h156v-705h-156zM36 802q-47 28 -66 81l70 29q30 -49 108 -49t108 49l70 -29q-19 -53 -66 -81t-112 -28t-112 28z" />
    <glyph glyph-name="Icircumflex" unicode="&#xce;" horiz-adv-x="296" 
d="M70 0v705h156v-705h-156zM86 765h-113l132 156h86l132 -156h-113l-62 85z" />
    <glyph glyph-name="uni0208" unicode="&#x208;" horiz-adv-x="296" 
d="M70 0v705h156v-705h-156zM42 765l-100 156h101l73 -156h-74zM180 765l-99 156h100l73 -156h-74z" />
    <glyph glyph-name="Idieresis" unicode="&#xcf;" horiz-adv-x="296" 
d="M70 0v705h156v-705h-156zM-17 909h139v-131h-139v131zM174 909h139v-131h-139v131z" />
    <glyph glyph-name="uni1E2E" unicode="&#x1e2e;" horiz-adv-x="296" 
d="M70 0v705h156v-705h-156zM-17 909h139v-131h-139v131zM174 909h139v-131h-139v131zM195 925h-94l103 156h140z" />
    <glyph glyph-name="Idotaccent" unicode="&#x130;" horiz-adv-x="296" 
d="M70 0v705h156v-705h-156zM67 914h162v-141h-162v141z" />
    <glyph glyph-name="uni1ECA" unicode="&#x1eca;" horiz-adv-x="296" 
d="M70 0v705h156v-705h-156zM79 -67h138v-132h-138v132z" />
    <glyph glyph-name="Igrave" unicode="&#xcc;" horiz-adv-x="296" 
d="M70 0v705h156v-705h-156zM101 765l-149 156h140l103 -156h-94z" />
    <glyph glyph-name="uni1EC8" unicode="&#x1ec8;" horiz-adv-x="296" 
d="M70 0v705h156v-705h-156zM185 765h-74v22q0 18 11.5 27t31.5 18l9 4.5t10 6.5t3 6q0 17 -33 17q-26 0 -57 -12l-20 53q45 18 95 18q48 0 77.5 -18.5t29.5 -45.5q0 -19 -12.5 -30t-35.5 -21q-18 -9 -26.5 -15.5t-8.5 -16.5v-13z" />
    <glyph glyph-name="uni020A" unicode="&#x20a;" horiz-adv-x="296" 
d="M70 0v705h156v-705h-156zM260 885q47 -28 66 -81l-70 -30q-30 50 -108 50t-108 -50l-70 30q19 53 66 81t112 28t112 -28z" />
    <glyph glyph-name="Imacron" unicode="&#x12a;" horiz-adv-x="296" 
d="M70 0v705h156v-705h-156zM-9 796v94h314v-94h-314z" />
    <glyph glyph-name="Iogonek" unicode="&#x12e;" horiz-adv-x="296" 
d="M259 -177q-46 -20 -100 -20q-55 0 -91.5 30.5t-36.5 81.5t39 87v703h156v-705h-15q-38 0 -60.5 -18.5t-22.5 -46.5q0 -26 15 -40t44 -14q24 0 55 13z" />
    <glyph glyph-name="Itilde" unicode="&#x128;" horiz-adv-x="296" 
d="M70 0v705h156v-705h-156zM4.5 881q30.5 37 78.5 37q18 0 34.5 -7t41.5 -22q19 -12 31.5 -18t24.5 -6q19 0 29.5 13.5t12.5 36.5h65q0 -72 -30.5 -109t-78.5 -37q-18 0 -34.5 7t-41.5 22q-20 12 -32 17.5t-24 5.5q-19 0 -29.5 -13t-12.5 -36h-65q0 72 30.5 109z" />
    <glyph glyph-name="J" unicode="J" horiz-adv-x="377" 
d="M-4 115l76 5q40 2 59 22.5t19 61.5v501h157v-499q0 -199 -209 -211l-93 -5z" />
    <glyph glyph-name="Jcircumflex" unicode="&#x134;" horiz-adv-x="377" 
d="M-4 115l76 5q40 2 59 22.5t19 61.5v501h157v-499q0 -199 -209 -211l-93 -5zM167 765h-113l132 156h86l132 -156h-113l-62 85z" />
    <glyph glyph-name="K" unicode="K" horiz-adv-x="678" 
d="M719 0h-187l-306 325v-325h-156v705h156v-310l296 310h184l-328 -337z" />
    <glyph glyph-name="Kcommaaccent" unicode="&#x136;" horiz-adv-x="678" 
d="M719 0h-187l-306 325v-325h-156v705h156v-310l296 310h184l-328 -337zM415 -65v-65q0 -46 -13.5 -81t-46.5 -64l-54 37q29 27 35 59h-70v114h149z" />
    <glyph glyph-name="L" unicode="L" horiz-adv-x="563" 
d="M70 0v705h156v-578h315v-127h-471z" />
    <glyph glyph-name="uni01C7" unicode="&#x1c7;" horiz-adv-x="943" 
d="M70 0v705h156v-578h285v-127h-441zM562 115l76 5q41 2 60 22.5t19 60.5v502h156v-500q0 -198 -209 -210l-92 -5z" />
    <glyph glyph-name="Lacute" unicode="&#x139;" horiz-adv-x="563" 
d="M70 0v705h156v-578h315v-127h-471zM195 765h-94l103 156h140z" />
    <glyph glyph-name="Lcaron" unicode="&#x13d;" horiz-adv-x="563" 
d="M70 0v705h156v-578h315v-127h-471zM384 511h-71v194h97z" />
    <glyph glyph-name="Lcommaaccent" unicode="&#x13b;" horiz-adv-x="563" 
d="M70 0v705h156v-578h315v-127h-471zM387 -65v-65q0 -46 -13.5 -81t-46.5 -64l-54 37q29 27 35 59h-70v114h149z" />
    <glyph glyph-name="Ldot" unicode="&#x13f;" horiz-adv-x="563" 
d="M70 0v705h156v-578h315v-127h-471zM310 423h162v-140h-162v140z" />
    <glyph glyph-name="uni1E36" unicode="&#x1e36;" horiz-adv-x="563" 
d="M70 0v705h156v-578h315v-127h-471zM244 -67h138v-132h-138v132z" />
    <glyph glyph-name="uni01C8" unicode="&#x1c8;" horiz-adv-x="830" 
d="M70 0v705h156v-578h315v-127h-471zM772 32q0 -75 -22 -120t-70.5 -67.5t-131.5 -27.5l-47 -3l-11 108l51 4q43 3 61.5 21t18.5 57v487h151v-459zM615 727h162v-141h-162v141z" />
    <glyph glyph-name="uni1E3A" unicode="&#x1e3a;" horiz-adv-x="563" 
d="M70 0v705h156v-578h315v-127h-471zM156 -177v88h314v-88h-314z" />
    <glyph glyph-name="Lslash" unicode="&#x141;" horiz-adv-x="593" 
d="M256 127h315v-127h-471v244l-59 -34l-56 101l115 66v328h156v-238l152 88l56 -101l-208 -120v-207z" />
    <glyph glyph-name="M" unicode="M" horiz-adv-x="842" 
d="M649 705h121v-705h-137v418l-162 -302h-100l-162 298v-414h-137v705h123l227 -431z" />
    <glyph glyph-name="uni1E42" unicode="&#x1e42;" horiz-adv-x="842" 
d="M649 705h121v-705h-137v418l-162 -302h-100l-162 298v-414h-137v705h123l227 -431zM352 -67h138v-132h-138v132z" />
    <glyph glyph-name="N" unicode="N" horiz-adv-x="752" 
d="M536 705h146v-705h-116l-351 449v-449h-145v705h115l351 -447v447z" />
    <glyph glyph-name="uni01CA" unicode="&#x1ca;" horiz-adv-x="1129" 
d="M536 705h146v-705h-116l-351 449v-449h-145v705h115l351 -447v447zM748 115l76 5q40 2 59 22.5t19 61.5v501h157v-499q0 -199 -209 -211l-93 -5z" />
    <glyph glyph-name="Nacute" unicode="&#x143;" horiz-adv-x="752" 
d="M536 705h146v-705h-116l-351 449v-449h-145v705h115l351 -447v447zM423 765h-94l103 156h140z" />
    <glyph glyph-name="Ncaron" unicode="&#x147;" horiz-adv-x="752" 
d="M536 705h146v-705h-116l-351 449v-449h-145v705h115l351 -447v447zM438 921h113l-132 -156h-86l-132 156h113l62 -86z" />
    <glyph glyph-name="Ncommaaccent" unicode="&#x145;" horiz-adv-x="752" 
d="M536 705h146v-705h-116l-351 449v-449h-145v705h115l351 -447v447zM451 -65v-65q0 -46 -13.5 -81t-46.5 -64l-54 37q29 27 35 59h-70v114h149z" />
    <glyph glyph-name="uni1E44" unicode="&#x1e44;" horiz-adv-x="752" 
d="M536 705h146v-705h-116l-351 449v-449h-145v705h115l351 -447v447zM295 914h162v-141h-162v141z" />
    <glyph glyph-name="uni1E46" unicode="&#x1e46;" horiz-adv-x="752" 
d="M536 705h146v-705h-116l-351 449v-449h-145v705h115l351 -447v447zM308 -67h138v-132h-138v132z" />
    <glyph glyph-name="Eng" unicode="&#x14a;" horiz-adv-x="752" 
d="M682 705v-677q0 -199 -210 -211l-92 -5l-9 117l75 5q42 3 65.5 26t23.5 62v18l-320 409v-449h-145v705h115l351 -447v447h146z" />
    <glyph glyph-name="uni01CB" unicode="&#x1cb;" horiz-adv-x="1019" 
d="M536 705h146v-705h-116l-351 449v-449h-145v705h115l351 -447v447zM961 32q0 -75 -22 -120t-70.5 -67.5t-131.5 -27.5l-47 -3l-11 108l51 4q43 3 61.5 21t18.5 57v487h151v-459zM804 727h162v-141h-162v141z" />
    <glyph glyph-name="uni1E48" unicode="&#x1e48;" horiz-adv-x="752" 
d="M536 705h146v-705h-116l-351 449v-449h-145v705h115l351 -447v447zM220 -177v88h314v-88h-314z" />
    <glyph glyph-name="Ntilde" unicode="&#xd1;" horiz-adv-x="752" 
d="M536 705h146v-705h-116l-351 449v-449h-145v705h115l351 -447v447zM232.5 881q30.5 37 78.5 37q18 0 34.5 -7t41.5 -22q19 -12 31.5 -18t24.5 -6q19 0 29.5 13.5t12.5 36.5h65q0 -72 -30.5 -109t-78.5 -37q-18 0 -34.5 7t-41.5 22q-20 12 -32 17.5t-24 5.5
q-19 0 -29.5 -13t-12.5 -36h-65q0 72 30.5 109z" />
    <glyph glyph-name="O" unicode="O" horiz-adv-x="787" 
d="M211.5 35.5q-77.5 44.5 -119.5 126t-42 191.5t42 191.5t119.5 125.5t182.5 44t182.5 -44t119.5 -125.5t42 -191.5t-42 -191.5t-119.5 -126t-182.5 -44.5t-182.5 44.5zM532.5 174q50.5 62 50.5 179t-50 178.5t-139 61.5t-138.5 -61.5t-49.5 -178.5t50 -179t138 -62
t138.5 62z" />
    <glyph glyph-name="Oacute" unicode="&#xd3;" horiz-adv-x="787" 
d="M211.5 35.5q-77.5 44.5 -119.5 126t-42 191.5t42 191.5t119.5 125.5t182.5 44t182.5 -44t119.5 -125.5t42 -191.5t-42 -191.5t-119.5 -126t-182.5 -44.5t-182.5 44.5zM532.5 174q50.5 62 50.5 179t-50 178.5t-139 61.5t-138.5 -61.5t-49.5 -178.5t50 -179t138 -62
t138.5 62zM440 765h-94l103 156h140z" />
    <glyph glyph-name="Obreve" unicode="&#x14e;" horiz-adv-x="787" 
d="M211.5 35.5q-77.5 44.5 -119.5 126t-42 191.5t42 191.5t119.5 125.5t182.5 44t182.5 -44t119.5 -125.5t42 -191.5t-42 -191.5t-119.5 -126t-182.5 -44.5t-182.5 44.5zM532.5 174q50.5 62 50.5 179t-50 178.5t-139 61.5t-138.5 -61.5t-49.5 -178.5t50 -179t138 -62
t138.5 62zM281 802q-47 28 -66 81l70 29q30 -49 108 -49t108 49l70 -29q-19 -53 -66 -81t-112 -28t-112 28z" />
    <glyph glyph-name="Ocircumflex" unicode="&#xd4;" horiz-adv-x="787" 
d="M211.5 35.5q-77.5 44.5 -119.5 126t-42 191.5t42 191.5t119.5 125.5t182.5 44t182.5 -44t119.5 -125.5t42 -191.5t-42 -191.5t-119.5 -126t-182.5 -44.5t-182.5 44.5zM532.5 174q50.5 62 50.5 179t-50 178.5t-139 61.5t-138.5 -61.5t-49.5 -178.5t50 -179t138 -62
t138.5 62zM331 765h-113l132 156h86l132 -156h-113l-62 85z" />
    <glyph glyph-name="uni1ED0" unicode="&#x1ed0;" horiz-adv-x="787" 
d="M211.5 35.5q-77.5 44.5 -119.5 126t-42 191.5t42 191.5t119.5 125.5t182.5 44t182.5 -44t119.5 -125.5t42 -191.5t-42 -191.5t-119.5 -126t-182.5 -44.5t-182.5 44.5zM532.5 174q50.5 62 50.5 179t-50 178.5t-139 61.5t-138.5 -61.5t-49.5 -178.5t50 -179t138 -62
t138.5 62zM561 872h-74l72 141h125zM329 765h-111l132 139h86l132 -139h-111l-64 71z" />
    <glyph glyph-name="uni1ED8" unicode="&#x1ed8;" horiz-adv-x="787" 
d="M211.5 35.5q-77.5 44.5 -119.5 126t-42 191.5t42 191.5t119.5 125.5t182.5 44t182.5 -44t119.5 -125.5t42 -191.5t-42 -191.5t-119.5 -126t-182.5 -44.5t-182.5 44.5zM532.5 174q50.5 62 50.5 179t-50 178.5t-139 61.5t-138.5 -61.5t-49.5 -178.5t50 -179t138 -62
t138.5 62zM325 -67h138v-132h-138v132zM331 765h-113l132 156h86l132 -156h-113l-62 85z" />
    <glyph glyph-name="uni1ED2" unicode="&#x1ed2;" horiz-adv-x="787" 
d="M211.5 35.5q-77.5 44.5 -119.5 126t-42 191.5t42 191.5t119.5 125.5t182.5 44t182.5 -44t119.5 -125.5t42 -191.5t-42 -191.5t-119.5 -126t-182.5 -44.5t-182.5 44.5zM532.5 174q50.5 62 50.5 179t-50 178.5t-139 61.5t-138.5 -61.5t-49.5 -178.5t50 -179t138 -62
t138.5 62zM529 872l-122 141h125l71 -141h-74zM329 765h-111l132 139h86l132 -139h-111l-64 71z" />
    <glyph glyph-name="uni1ED4" unicode="&#x1ed4;" horiz-adv-x="787" 
d="M211.5 35.5q-77.5 44.5 -119.5 126t-42 191.5t42 191.5t119.5 125.5t182.5 44t182.5 -44t119.5 -125.5t42 -191.5t-42 -191.5t-119.5 -126t-182.5 -44.5t-182.5 44.5zM532.5 174q50.5 62 50.5 179t-50 178.5t-139 61.5t-138.5 -61.5t-49.5 -178.5t50 -179t138 -62
t138.5 62zM561 873h-75v19q0 19 13 28.5t34 17.5q18 5 18 10t-8 9t-24 4q-25 0 -57 -11l-20 51q45 18 95 18q49 0 77.5 -16.5t28.5 -43.5q0 -19 -12 -29t-35 -19q-18 -8 -26.5 -14t-8.5 -16v-8zM329 765h-111l132 139h86l132 -139h-111l-64 71z" />
    <glyph glyph-name="uni1ED6" unicode="&#x1ed6;" horiz-adv-x="787" 
d="M211.5 35.5q-77.5 44.5 -119.5 126t-42 191.5t42 191.5t119.5 125.5t182.5 44t182.5 -44t119.5 -125.5t42 -191.5t-42 -191.5t-119.5 -126t-182.5 -44.5t-182.5 44.5zM532.5 174q50.5 62 50.5 179t-50 178.5t-139 61.5t-138.5 -61.5t-49.5 -178.5t50 -179t138 -62
t138.5 62zM251 996q32 30 77 30q16 0 30.5 -3.5t27.5 -8t18 -6.5q15 -6 29.5 -10.5t26.5 -4.5q39 0 42 30h65q0 -45 -31.5 -74.5t-77.5 -29.5q-18 0 -35.5 4.5t-40.5 13.5q-15 5 -29.5 9.5t-26.5 4.5q-39 0 -42 -30h-65q0 45 32 75zM329 765h-111l132 139h86l132 -139h-111
l-64 71z" />
    <glyph glyph-name="uni020C" unicode="&#x20c;" horiz-adv-x="787" 
d="M211.5 35.5q-77.5 44.5 -119.5 126t-42 191.5t42 191.5t119.5 125.5t182.5 44t182.5 -44t119.5 -125.5t42 -191.5t-42 -191.5t-119.5 -126t-182.5 -44.5t-182.5 44.5zM532.5 174q50.5 62 50.5 179t-50 178.5t-139 61.5t-138.5 -61.5t-49.5 -178.5t50 -179t138 -62
t138.5 62zM287 765l-100 156h101l73 -156h-74zM425 765l-99 156h100l73 -156h-74z" />
    <glyph glyph-name="Odieresis" unicode="&#xd6;" horiz-adv-x="787" 
d="M211.5 35.5q-77.5 44.5 -119.5 126t-42 191.5t42 191.5t119.5 125.5t182.5 44t182.5 -44t119.5 -125.5t42 -191.5t-42 -191.5t-119.5 -126t-182.5 -44.5t-182.5 44.5zM532.5 174q50.5 62 50.5 179t-50 178.5t-139 61.5t-138.5 -61.5t-49.5 -178.5t50 -179t138 -62
t138.5 62zM228 909h139v-131h-139v131zM419 909h139v-131h-139v131z" />
    <glyph glyph-name="uni022A" unicode="&#x22a;" horiz-adv-x="787" 
d="M211.5 35.5q-77.5 44.5 -119.5 126t-42 191.5t42 191.5t119.5 125.5t182.5 44t182.5 -44t119.5 -125.5t42 -191.5t-42 -191.5t-119.5 -126t-182.5 -44.5t-182.5 44.5zM532.5 174q50.5 62 50.5 179t-50 178.5t-139 61.5t-138.5 -61.5t-49.5 -178.5t50 -179t138 -62
t138.5 62zM228 909h139v-131h-139v131zM419 909h139v-131h-139v131zM236 956v94h314v-94h-314z" />
    <glyph glyph-name="uni0230" unicode="&#x230;" horiz-adv-x="787" 
d="M211.5 35.5q-77.5 44.5 -119.5 126t-42 191.5t42 191.5t119.5 125.5t182.5 44t182.5 -44t119.5 -125.5t42 -191.5t-42 -191.5t-119.5 -126t-182.5 -44.5t-182.5 44.5zM532.5 174q50.5 62 50.5 179t-50 178.5t-139 61.5t-138.5 -61.5t-49.5 -178.5t50 -179t138 -62
t138.5 62zM312 914h162v-141h-162v141zM236 956v94h314v-94h-314z" />
    <glyph glyph-name="uni1ECC" unicode="&#x1ecc;" horiz-adv-x="787" 
d="M211.5 35.5q-77.5 44.5 -119.5 126t-42 191.5t42 191.5t119.5 125.5t182.5 44t182.5 -44t119.5 -125.5t42 -191.5t-42 -191.5t-119.5 -126t-182.5 -44.5t-182.5 44.5zM532.5 174q50.5 62 50.5 179t-50 178.5t-139 61.5t-138.5 -61.5t-49.5 -178.5t50 -179t138 -62
t138.5 62zM325 -67h138v-132h-138v132z" />
    <glyph glyph-name="Ograve" unicode="&#xd2;" horiz-adv-x="787" 
d="M211.5 35.5q-77.5 44.5 -119.5 126t-42 191.5t42 191.5t119.5 125.5t182.5 44t182.5 -44t119.5 -125.5t42 -191.5t-42 -191.5t-119.5 -126t-182.5 -44.5t-182.5 44.5zM532.5 174q50.5 62 50.5 179t-50 178.5t-139 61.5t-138.5 -61.5t-49.5 -178.5t50 -179t138 -62
t138.5 62zM346 765l-149 156h140l103 -156h-94z" />
    <glyph glyph-name="uni1ECE" unicode="&#x1ece;" horiz-adv-x="787" 
d="M211.5 35.5q-77.5 44.5 -119.5 126t-42 191.5t42 191.5t119.5 125.5t182.5 44t182.5 -44t119.5 -125.5t42 -191.5t-42 -191.5t-119.5 -126t-182.5 -44.5t-182.5 44.5zM532.5 174q50.5 62 50.5 179t-50 178.5t-139 61.5t-138.5 -61.5t-49.5 -178.5t50 -179t138 -62
t138.5 62zM430 765h-74v22q0 18 11.5 27t31.5 18l9 4.5t10 6.5t3 6q0 17 -33 17q-26 0 -57 -12l-20 53q45 18 95 18q48 0 77.5 -18.5t29.5 -45.5q0 -19 -12.5 -30t-35.5 -21q-18 -9 -26.5 -15.5t-8.5 -16.5v-13z" />
    <glyph glyph-name="Ohorn" unicode="&#x1a0;" horiz-adv-x="787" 
d="M706.5 688q-31.5 -41 -84.5 -52q58 -46 87 -118t29 -165q0 -110 -42 -191.5t-119.5 -126t-182.5 -44.5t-182.5 44.5t-119.5 126t-42 191.5t42 191.5t120 125.5t184 44q32 0 65 -5q38 -4 59 -4q48 0 68 23t20 79v19h130v-38q0 -59 -31.5 -100zM532.5 174q50.5 62 50.5 179
t-50 178.5t-139 61.5t-138.5 -61.5t-49.5 -178.5t50 -179t138 -62t138.5 62z" />
    <glyph glyph-name="uni1EDA" unicode="&#x1eda;" horiz-adv-x="787" 
d="M706.5 688q-31.5 -41 -84.5 -52q58 -46 87 -118t29 -165q0 -110 -42 -191.5t-119.5 -126t-182.5 -44.5t-182.5 44.5t-119.5 126t-42 191.5t42 191.5t120 125.5t184 44q32 0 65 -5q38 -4 59 -4q48 0 68 23t20 79v19h130v-38q0 -59 -31.5 -100zM532.5 174q50.5 62 50.5 179
t-50 178.5t-139 61.5t-138.5 -61.5t-49.5 -178.5t50 -179t138 -62t138.5 62zM440 765h-94l103 156h140z" />
    <glyph glyph-name="uni1EE2" unicode="&#x1ee2;" horiz-adv-x="787" 
d="M706.5 688q-31.5 -41 -84.5 -52q58 -46 87 -118t29 -165q0 -110 -42 -191.5t-119.5 -126t-182.5 -44.5t-182.5 44.5t-119.5 126t-42 191.5t42 191.5t120 125.5t184 44q32 0 65 -5q38 -4 59 -4q48 0 68 23t20 79v19h130v-38q0 -59 -31.5 -100zM532.5 174q50.5 62 50.5 179
t-50 178.5t-139 61.5t-138.5 -61.5t-49.5 -178.5t50 -179t138 -62t138.5 62zM325 -67h138v-132h-138v132z" />
    <glyph glyph-name="uni1EDC" unicode="&#x1edc;" horiz-adv-x="787" 
d="M706.5 688q-31.5 -41 -84.5 -52q58 -46 87 -118t29 -165q0 -110 -42 -191.5t-119.5 -126t-182.5 -44.5t-182.5 44.5t-119.5 126t-42 191.5t42 191.5t120 125.5t184 44q32 0 65 -5q38 -4 59 -4q48 0 68 23t20 79v19h130v-38q0 -59 -31.5 -100zM532.5 174q50.5 62 50.5 179
t-50 178.5t-139 61.5t-138.5 -61.5t-49.5 -178.5t50 -179t138 -62t138.5 62zM346 765l-149 156h140l103 -156h-94z" />
    <glyph glyph-name="uni1EDE" unicode="&#x1ede;" horiz-adv-x="787" 
d="M706.5 688q-31.5 -41 -84.5 -52q58 -46 87 -118t29 -165q0 -110 -42 -191.5t-119.5 -126t-182.5 -44.5t-182.5 44.5t-119.5 126t-42 191.5t42 191.5t120 125.5t184 44q32 0 65 -5q38 -4 59 -4q48 0 68 23t20 79v19h130v-38q0 -59 -31.5 -100zM532.5 174q50.5 62 50.5 179
t-50 178.5t-139 61.5t-138.5 -61.5t-49.5 -178.5t50 -179t138 -62t138.5 62zM430 765h-74v22q0 18 11.5 27t31.5 18l9 4.5t10 6.5t3 6q0 17 -33 17q-26 0 -57 -12l-20 53q45 18 95 18q48 0 77.5 -18.5t29.5 -45.5q0 -19 -12.5 -30t-35.5 -21q-18 -9 -26.5 -15.5t-8.5 -16.5
v-13z" />
    <glyph glyph-name="uni1EE0" unicode="&#x1ee0;" horiz-adv-x="787" 
d="M706.5 688q-31.5 -41 -84.5 -52q58 -46 87 -118t29 -165q0 -110 -42 -191.5t-119.5 -126t-182.5 -44.5t-182.5 44.5t-119.5 126t-42 191.5t42 191.5t120 125.5t184 44q32 0 65 -5q38 -4 59 -4q48 0 68 23t20 79v19h130v-38q0 -59 -31.5 -100zM532.5 174q50.5 62 50.5 179
t-50 178.5t-139 61.5t-138.5 -61.5t-49.5 -178.5t50 -179t138 -62t138.5 62zM249.5 881q30.5 37 78.5 37q18 0 34.5 -7t41.5 -22q19 -12 31.5 -18t24.5 -6q19 0 29.5 13.5t12.5 36.5h65q0 -72 -30.5 -109t-78.5 -37q-18 0 -34.5 7t-41.5 22q-20 12 -32 17.5t-24 5.5
q-19 0 -29.5 -13t-12.5 -36h-65q0 72 30.5 109z" />
    <glyph glyph-name="Ohungarumlaut" unicode="&#x150;" horiz-adv-x="787" 
d="M211.5 35.5q-77.5 44.5 -119.5 126t-42 191.5t42 191.5t119.5 125.5t182.5 44t182.5 -44t119.5 -125.5t42 -191.5t-42 -191.5t-119.5 -126t-182.5 -44.5t-182.5 44.5zM532.5 174q50.5 62 50.5 179t-50 178.5t-139 61.5t-138.5 -61.5t-49.5 -178.5t50 -179t138 -62
t138.5 62zM366 765h-74l73 156h101zM494 765h-74l73 156h101z" />
    <glyph glyph-name="uni020E" unicode="&#x20e;" horiz-adv-x="787" 
d="M211.5 35.5q-77.5 44.5 -119.5 126t-42 191.5t42 191.5t119.5 125.5t182.5 44t182.5 -44t119.5 -125.5t42 -191.5t-42 -191.5t-119.5 -126t-182.5 -44.5t-182.5 44.5zM532.5 174q50.5 62 50.5 179t-50 178.5t-139 61.5t-138.5 -61.5t-49.5 -178.5t50 -179t138 -62
t138.5 62zM505 885q47 -28 66 -81l-70 -30q-30 50 -108 50t-108 -50l-70 30q19 53 66 81t112 28t112 -28z" />
    <glyph glyph-name="Omacron" unicode="&#x14c;" horiz-adv-x="787" 
d="M211.5 35.5q-77.5 44.5 -119.5 126t-42 191.5t42 191.5t119.5 125.5t182.5 44t182.5 -44t119.5 -125.5t42 -191.5t-42 -191.5t-119.5 -126t-182.5 -44.5t-182.5 44.5zM532.5 174q50.5 62 50.5 179t-50 178.5t-139 61.5t-138.5 -61.5t-49.5 -178.5t50 -179t138 -62
t138.5 62zM236 796v94h314v-94h-314z" />
    <glyph glyph-name="uni1E52" unicode="&#x1e52;" horiz-adv-x="787" 
d="M211.5 35.5q-77.5 44.5 -119.5 126t-42 191.5t42 191.5t119.5 125.5t182.5 44t182.5 -44t119.5 -125.5t42 -191.5t-42 -191.5t-119.5 -126t-182.5 -44.5t-182.5 44.5zM532.5 174q50.5 62 50.5 179t-50 178.5t-139 61.5t-138.5 -61.5t-49.5 -178.5t50 -179t138 -62
t138.5 62zM236 796v94h314v-94h-314zM440 925h-94l103 156h140z" />
    <glyph glyph-name="uni1E50" unicode="&#x1e50;" horiz-adv-x="787" 
d="M211.5 35.5q-77.5 44.5 -119.5 126t-42 191.5t42 191.5t119.5 125.5t182.5 44t182.5 -44t119.5 -125.5t42 -191.5t-42 -191.5t-119.5 -126t-182.5 -44.5t-182.5 44.5zM532.5 174q50.5 62 50.5 179t-50 178.5t-139 61.5t-138.5 -61.5t-49.5 -178.5t50 -179t138 -62
t138.5 62zM236 796v94h314v-94h-314zM346 925l-149 156h140l103 -156h-94z" />
    <glyph glyph-name="uni01EA" unicode="&#x1ea;" horiz-adv-x="787" 
d="M441 -65q0 -26 15.5 -40t44.5 -14q23 0 54 13l17 -71q-46 -20 -100 -20q-56 0 -91.5 31t-35.5 79q0 44 29 78q-99 4 -172 49.5t-112.5 125.5t-39.5 187q0 110 42 191.5t119.5 125.5t182.5 44t182.5 -44t119.5 -125.5t42 -191.5q0 -133 -61 -224t-172 -124
q-64 -20 -64 -70zM532.5 174q50.5 62 50.5 179t-50 178.5t-139 61.5t-138.5 -61.5t-49.5 -178.5t50 -179t138 -62t138.5 62z" />
    <glyph glyph-name="Oslash" unicode="&#xd8;" horiz-adv-x="787" 
d="M709 516q29 -72 29 -163q0 -110 -42 -191.5t-119.5 -126t-182.5 -44.5q-72 0 -131 21l-47 -80l-99 60l45 78q-54 48 -83 120t-29 163q0 110 42 191.5t119.5 125.5t182.5 44q73 0 131 -21l46 80l99 -60l-45 -77q55 -48 84 -120zM238 201l222 382q-29 10 -66 10
q-89 0 -138.5 -61.5t-49.5 -178.5q0 -94 32 -152zM532.5 174q50.5 62 50.5 179q0 93 -33 153l-223 -383q31 -11 67 -11q88 0 138.5 62z" />
    <glyph glyph-name="Oslashacute" unicode="&#x1fe;" horiz-adv-x="787" 
d="M709 516q29 -72 29 -163q0 -110 -42 -191.5t-119.5 -126t-182.5 -44.5q-72 0 -131 21l-47 -80l-99 60l45 78q-54 48 -83 120t-29 163q0 110 42 191.5t119.5 125.5t182.5 44q73 0 131 -21l46 80l99 -60l-45 -77q55 -48 84 -120zM238 201l222 382q-29 10 -66 10
q-89 0 -138.5 -61.5t-49.5 -178.5q0 -94 32 -152zM532.5 174q50.5 62 50.5 179q0 93 -33 153l-223 -383q31 -11 67 -11q88 0 138.5 62zM440 765h-94l103 156h140z" />
    <glyph glyph-name="Otilde" unicode="&#xd5;" horiz-adv-x="787" 
d="M211.5 35.5q-77.5 44.5 -119.5 126t-42 191.5t42 191.5t119.5 125.5t182.5 44t182.5 -44t119.5 -125.5t42 -191.5t-42 -191.5t-119.5 -126t-182.5 -44.5t-182.5 44.5zM532.5 174q50.5 62 50.5 179t-50 178.5t-139 61.5t-138.5 -61.5t-49.5 -178.5t50 -179t138 -62
t138.5 62zM249.5 881q30.5 37 78.5 37q18 0 34.5 -7t41.5 -22q19 -12 31.5 -18t24.5 -6q19 0 29.5 13.5t12.5 36.5h65q0 -72 -30.5 -109t-78.5 -37q-18 0 -34.5 7t-41.5 22q-20 12 -32 17.5t-24 5.5q-19 0 -29.5 -13t-12.5 -36h-65q0 72 30.5 109z" />
    <glyph glyph-name="uni1E4C" unicode="&#x1e4c;" horiz-adv-x="787" 
d="M211.5 35.5q-77.5 44.5 -119.5 126t-42 191.5t42 191.5t119.5 125.5t182.5 44t182.5 -44t119.5 -125.5t42 -191.5t-42 -191.5t-119.5 -126t-182.5 -44.5t-182.5 44.5zM532.5 174q50.5 62 50.5 179t-50 178.5t-139 61.5t-138.5 -61.5t-49.5 -178.5t50 -179t138 -62
t138.5 62zM249.5 881q30.5 37 78.5 37q18 0 34.5 -7t41.5 -22q19 -12 31.5 -18t24.5 -6q19 0 29.5 13.5t12.5 36.5h65q0 -72 -30.5 -109t-78.5 -37q-18 0 -34.5 7t-41.5 22q-20 12 -32 17.5t-24 5.5q-19 0 -29.5 -13t-12.5 -36h-65q0 72 30.5 109zM440 925h-94l103 156h140z
" />
    <glyph glyph-name="uni1E4E" unicode="&#x1e4e;" horiz-adv-x="787" 
d="M211.5 35.5q-77.5 44.5 -119.5 126t-42 191.5t42 191.5t119.5 125.5t182.5 44t182.5 -44t119.5 -125.5t42 -191.5t-42 -191.5t-119.5 -126t-182.5 -44.5t-182.5 44.5zM532.5 174q50.5 62 50.5 179t-50 178.5t-139 61.5t-138.5 -61.5t-49.5 -178.5t50 -179t138 -62
t138.5 62zM249.5 881q30.5 37 78.5 37q18 0 34.5 -7t41.5 -22q19 -12 31.5 -18t24.5 -6q19 0 29.5 13.5t12.5 36.5h65q0 -72 -30.5 -109t-78.5 -37q-18 0 -34.5 7t-41.5 22q-20 12 -32 17.5t-24 5.5q-19 0 -29.5 -13t-12.5 -36h-65q0 72 30.5 109zM228 1069h139v-131h-139
v131zM419 1069h139v-131h-139v131z" />
    <glyph glyph-name="uni022C" unicode="&#x22c;" horiz-adv-x="787" 
d="M211.5 35.5q-77.5 44.5 -119.5 126t-42 191.5t42 191.5t119.5 125.5t182.5 44t182.5 -44t119.5 -125.5t42 -191.5t-42 -191.5t-119.5 -126t-182.5 -44.5t-182.5 44.5zM532.5 174q50.5 62 50.5 179t-50 178.5t-139 61.5t-138.5 -61.5t-49.5 -178.5t50 -179t138 -62
t138.5 62zM249.5 881q30.5 37 78.5 37q18 0 34.5 -7t41.5 -22q19 -12 31.5 -18t24.5 -6q19 0 29.5 13.5t12.5 36.5h65q0 -72 -30.5 -109t-78.5 -37q-18 0 -34.5 7t-41.5 22q-20 12 -32 17.5t-24 5.5q-19 0 -29.5 -13t-12.5 -36h-65q0 72 30.5 109zM236 956v94h314v-94h-314z
" />
    <glyph glyph-name="OE" unicode="&#x152;" horiz-adv-x="1044" 
d="M220.5 42q-83.5 42 -127 121.5t-43.5 189.5t44 189t127 121t199 42h587v-121h-335v-165h314v-121h-314v-177h334v-121h-586q-116 0 -199.5 42zM520 121v463h-90q-111 0 -167.5 -58t-56.5 -173q0 -116 56.5 -174t167.5 -58h90z" />
    <glyph glyph-name="P" unicode="P" horiz-adv-x="668" 
d="M70 705h324q115 0 179 -58t64 -162t-64 -162t-179 -58h-168v-265h-156v705zM374 383q117 0 117 101q0 52 -29 77t-88 25h-148v-203h148z" />
    <glyph glyph-name="Thorn" unicode="&#xde;" horiz-adv-x="669" 
d="M573.5 509q63.5 -54 63.5 -151q0 -95 -64.5 -150t-177.5 -55h-172v-153h-153v705h153v-142h172q115 0 178.5 -54zM462 292.5q29 20.5 29 65.5t-29 65.5t-92 20.5h-147v-172h147q63 0 92 20.5z" />
    <glyph glyph-name="Q" unicode="Q" horiz-adv-x="787" 
d="M606.5 7q18.5 -16 35.5 -42l75 -122l-133 -62l-104 170q-24 40 -86 40q-105 0 -182.5 44.5t-119.5 126t-42 191.5t42 191.5t119.5 125.5t182.5 44t182.5 -44t119.5 -125.5t42 -191.5q0 -115 -45.5 -198.5t-129.5 -124.5q25 -7 43.5 -23zM532.5 174q50.5 62 50.5 179
t-50 178.5t-139 61.5t-138.5 -61.5t-49.5 -178.5t50 -179t138 -62t138.5 62z" />
    <glyph glyph-name="R" unicode="R" horiz-adv-x="701" 
d="M682 0h-170l-122 225q-15 26 -36 37.5t-53 11.5h-77v-274h-154v705h324q124 0 187.5 -54.5t63.5 -157.5q0 -80 -44.5 -134t-125.5 -71q55 -14 93 -79zM468 415.5q30 23.5 30 73.5q0 51 -30 74t-97 23h-149v-194h149q67 0 97 23.5z" />
    <glyph glyph-name="Racute" unicode="&#x154;" horiz-adv-x="701" 
d="M682 0h-170l-122 225q-15 26 -36 37.5t-53 11.5h-77v-274h-154v705h324q124 0 187.5 -54.5t63.5 -157.5q0 -80 -44.5 -134t-125.5 -71q55 -14 93 -79zM468 415.5q30 23.5 30 73.5q0 51 -30 74t-97 23h-149v-194h149q67 0 97 23.5zM399 765h-94l103 156h140z" />
    <glyph glyph-name="Rcaron" unicode="&#x158;" horiz-adv-x="701" 
d="M682 0h-170l-122 225q-15 26 -36 37.5t-53 11.5h-77v-274h-154v705h324q124 0 187.5 -54.5t63.5 -157.5q0 -80 -44.5 -134t-125.5 -71q55 -14 93 -79zM468 415.5q30 23.5 30 73.5q0 51 -30 74t-97 23h-149v-194h149q67 0 97 23.5zM414 921h113l-132 -156h-86l-132 156
h113l62 -86z" />
    <glyph glyph-name="Rcommaaccent" unicode="&#x156;" horiz-adv-x="701" 
d="M682 0h-170l-122 225q-15 26 -36 37.5t-53 11.5h-77v-274h-154v705h324q124 0 187.5 -54.5t63.5 -157.5q0 -80 -44.5 -134t-125.5 -71q55 -14 93 -79zM468 415.5q30 23.5 30 73.5q0 51 -30 74t-97 23h-149v-194h149q67 0 97 23.5zM427 -65v-65q0 -46 -13.5 -81t-46.5 -64
l-54 37q29 27 35 59h-70v114h149z" />
    <glyph glyph-name="uni0210" unicode="&#x210;" horiz-adv-x="701" 
d="M682 0h-170l-122 225q-15 26 -36 37.5t-53 11.5h-77v-274h-154v705h324q124 0 187.5 -54.5t63.5 -157.5q0 -80 -44.5 -134t-125.5 -71q55 -14 93 -79zM468 415.5q30 23.5 30 73.5q0 51 -30 74t-97 23h-149v-194h149q67 0 97 23.5zM246 765l-100 156h101l73 -156h-74z
M384 765l-99 156h100l73 -156h-74z" />
    <glyph glyph-name="uni1E5A" unicode="&#x1e5a;" horiz-adv-x="701" 
d="M682 0h-170l-122 225q-15 26 -36 37.5t-53 11.5h-77v-274h-154v705h324q124 0 187.5 -54.5t63.5 -157.5q0 -80 -44.5 -134t-125.5 -71q55 -14 93 -79zM468 415.5q30 23.5 30 73.5q0 51 -30 74t-97 23h-149v-194h149q67 0 97 23.5zM284 -67h138v-132h-138v132z" />
    <glyph glyph-name="uni0212" unicode="&#x212;" horiz-adv-x="701" 
d="M682 0h-170l-122 225q-15 26 -36 37.5t-53 11.5h-77v-274h-154v705h324q124 0 187.5 -54.5t63.5 -157.5q0 -80 -44.5 -134t-125.5 -71q55 -14 93 -79zM468 415.5q30 23.5 30 73.5q0 51 -30 74t-97 23h-149v-194h149q67 0 97 23.5zM464 885q47 -28 66 -81l-70 -30
q-30 50 -108 50t-108 -50l-70 30q19 53 66 81t112 28t112 -28z" />
    <glyph glyph-name="uni1E5E" unicode="&#x1e5e;" horiz-adv-x="701" 
d="M682 0h-170l-122 225q-15 26 -36 37.5t-53 11.5h-77v-274h-154v705h324q124 0 187.5 -54.5t63.5 -157.5q0 -80 -44.5 -134t-125.5 -71q55 -14 93 -79zM468 415.5q30 23.5 30 73.5q0 51 -30 74t-97 23h-149v-194h149q67 0 97 23.5zM196 -177v88h314v-88h-314z" />
    <glyph glyph-name="S" unicode="S" horiz-adv-x="651" 
d="M163 12.5q-74 21.5 -123 59.5l50 111q102 -71 229 -71q66 0 101.5 21.5t35.5 59.5q0 34 -32.5 53t-115.5 37q-93 19 -148.5 46t-81 66.5t-25.5 97.5q0 64 35.5 114t99.5 78.5t148 28.5q75 0 144.5 -22t110.5 -59l-50 -111q-97 71 -204 71q-61 0 -96 -23.5t-35 -64.5
q0 -24 13.5 -39.5t45 -27.5t89.5 -25q136 -30 195.5 -77t59.5 -130q0 -100 -77 -157.5t-215 -57.5q-80 0 -154 21.5z" />
    <glyph glyph-name="Sacute" unicode="&#x15a;" horiz-adv-x="651" 
d="M163 12.5q-74 21.5 -123 59.5l50 111q102 -71 229 -71q66 0 101.5 21.5t35.5 59.5q0 34 -32.5 53t-115.5 37q-93 19 -148.5 46t-81 66.5t-25.5 97.5q0 64 35.5 114t99.5 78.5t148 28.5q75 0 144.5 -22t110.5 -59l-50 -111q-97 71 -204 71q-61 0 -96 -23.5t-35 -64.5
q0 -24 13.5 -39.5t45 -27.5t89.5 -25q136 -30 195.5 -77t59.5 -130q0 -100 -77 -157.5t-215 -57.5q-80 0 -154 21.5zM376 765h-94l103 156h140z" />
    <glyph glyph-name="uni1E64" unicode="&#x1e64;" horiz-adv-x="651" 
d="M163 12.5q-74 21.5 -123 59.5l50 111q102 -71 229 -71q66 0 101.5 21.5t35.5 59.5q0 34 -32.5 53t-115.5 37q-93 19 -148.5 46t-81 66.5t-25.5 97.5q0 64 35.5 114t99.5 78.5t148 28.5q75 0 144.5 -22t110.5 -59l-50 -111q-97 71 -204 71q-61 0 -96 -23.5t-35 -64.5
q0 -24 13.5 -39.5t45 -27.5t89.5 -25q136 -30 195.5 -77t59.5 -130q0 -100 -77 -157.5t-215 -57.5q-80 0 -154 21.5zM401 765h-94l103 156h140zM125 920h162v-141h-162v141z" />
    <glyph glyph-name="Scaron" unicode="&#x160;" horiz-adv-x="651" 
d="M163 12.5q-74 21.5 -123 59.5l50 111q102 -71 229 -71q66 0 101.5 21.5t35.5 59.5q0 34 -32.5 53t-115.5 37q-93 19 -148.5 46t-81 66.5t-25.5 97.5q0 64 35.5 114t99.5 78.5t148 28.5q75 0 144.5 -22t110.5 -59l-50 -111q-97 71 -204 71q-61 0 -96 -23.5t-35 -64.5
q0 -24 13.5 -39.5t45 -27.5t89.5 -25q136 -30 195.5 -77t59.5 -130q0 -100 -77 -157.5t-215 -57.5q-80 0 -154 21.5zM391 921h113l-132 -156h-86l-132 156h113l62 -86z" />
    <glyph glyph-name="uni1E66" unicode="&#x1e66;" horiz-adv-x="651" 
d="M163 12.5q-74 21.5 -123 59.5l50 111q102 -71 229 -71q66 0 101.5 21.5t35.5 59.5q0 34 -32.5 53t-115.5 37q-93 19 -148.5 46t-81 66.5t-25.5 97.5q0 64 35.5 114t99.5 78.5t148 28.5q75 0 144.5 -22t110.5 -59l-50 -111q-97 71 -204 71q-61 0 -96 -23.5t-35 -64.5
q0 -24 13.5 -39.5t45 -27.5t89.5 -25q136 -30 195.5 -77t59.5 -130q0 -100 -77 -157.5t-215 -57.5q-80 0 -154 21.5zM391 921h113l-132 -156h-86l-132 156h113l62 -86zM248 1074h162v-141h-162v141z" />
    <glyph glyph-name="Scedilla" unicode="&#x15e;" horiz-adv-x="651" 
d="M541.5 56q-67.5 -57 -188.5 -64l-4 -33q4 1 12 1q38 0 61 -18.5t23 -50.5q0 -39 -35 -63.5t-100 -24.5q-22 0 -48 4.5t-46 13.5l12 58q45 -14 78 -14q46 0 46 26q0 19 -32 19q-18 0 -36 -6l-20 21l9 68q-69 5 -130 25.5t-103 53.5l50 111q102 -71 229 -71
q66 0 101.5 21.5t35.5 59.5q0 34 -32.5 53t-115.5 37q-93 19 -148.5 46t-81 66.5t-25.5 97.5q0 64 35.5 114t99.5 78.5t148 28.5q75 0 144.5 -22t110.5 -59l-50 -111q-97 71 -204 71q-61 0 -96 -23.5t-35 -64.5q0 -24 13.5 -39.5t45 -27.5t89.5 -25q136 -30 195.5 -77
t59.5 -130q0 -93 -67.5 -150z" />
    <glyph glyph-name="Scircumflex" unicode="&#x15c;" horiz-adv-x="651" 
d="M163 12.5q-74 21.5 -123 59.5l50 111q102 -71 229 -71q66 0 101.5 21.5t35.5 59.5q0 34 -32.5 53t-115.5 37q-93 19 -148.5 46t-81 66.5t-25.5 97.5q0 64 35.5 114t99.5 78.5t148 28.5q75 0 144.5 -22t110.5 -59l-50 -111q-97 71 -204 71q-61 0 -96 -23.5t-35 -64.5
q0 -24 13.5 -39.5t45 -27.5t89.5 -25q136 -30 195.5 -77t59.5 -130q0 -100 -77 -157.5t-215 -57.5q-80 0 -154 21.5zM267 765h-113l132 156h86l132 -156h-113l-62 85z" />
    <glyph glyph-name="Scommaaccent" unicode="&#x218;" horiz-adv-x="651" 
d="M163 12.5q-74 21.5 -123 59.5l50 111q102 -71 229 -71q66 0 101.5 21.5t35.5 59.5q0 34 -32.5 53t-115.5 37q-93 19 -148.5 46t-81 66.5t-25.5 97.5q0 64 35.5 114t99.5 78.5t148 28.5q75 0 144.5 -22t110.5 -59l-50 -111q-97 71 -204 71q-61 0 -96 -23.5t-35 -64.5
q0 -24 13.5 -39.5t45 -27.5t89.5 -25q136 -30 195.5 -77t59.5 -130q0 -100 -77 -157.5t-215 -57.5q-80 0 -154 21.5zM398 -65v-65q0 -46 -13.5 -81t-46.5 -64l-54 37q29 27 35 59h-70v114h149z" />
    <glyph glyph-name="uni1E60" unicode="&#x1e60;" horiz-adv-x="651" 
d="M163 12.5q-74 21.5 -123 59.5l50 111q102 -71 229 -71q66 0 101.5 21.5t35.5 59.5q0 34 -32.5 53t-115.5 37q-93 19 -148.5 46t-81 66.5t-25.5 97.5q0 64 35.5 114t99.5 78.5t148 28.5q75 0 144.5 -22t110.5 -59l-50 -111q-97 71 -204 71q-61 0 -96 -23.5t-35 -64.5
q0 -24 13.5 -39.5t45 -27.5t89.5 -25q136 -30 195.5 -77t59.5 -130q0 -100 -77 -157.5t-215 -57.5q-80 0 -154 21.5zM248 914h162v-141h-162v141z" />
    <glyph glyph-name="uni1E62" unicode="&#x1e62;" horiz-adv-x="651" 
d="M163 12.5q-74 21.5 -123 59.5l50 111q102 -71 229 -71q66 0 101.5 21.5t35.5 59.5q0 34 -32.5 53t-115.5 37q-93 19 -148.5 46t-81 66.5t-25.5 97.5q0 64 35.5 114t99.5 78.5t148 28.5q75 0 144.5 -22t110.5 -59l-50 -111q-97 71 -204 71q-61 0 -96 -23.5t-35 -64.5
q0 -24 13.5 -39.5t45 -27.5t89.5 -25q136 -30 195.5 -77t59.5 -130q0 -100 -77 -157.5t-215 -57.5q-80 0 -154 21.5zM255 -67h138v-132h-138v132z" />
    <glyph glyph-name="uni1E68" unicode="&#x1e68;" horiz-adv-x="651" 
d="M163 12.5q-74 21.5 -123 59.5l50 111q102 -71 229 -71q66 0 101.5 21.5t35.5 59.5q0 34 -32.5 53t-115.5 37q-93 19 -148.5 46t-81 66.5t-25.5 97.5q0 64 35.5 114t99.5 78.5t148 28.5q75 0 144.5 -22t110.5 -59l-50 -111q-97 71 -204 71q-61 0 -96 -23.5t-35 -64.5
q0 -24 13.5 -39.5t45 -27.5t89.5 -25q136 -30 195.5 -77t59.5 -130q0 -100 -77 -157.5t-215 -57.5q-80 0 -154 21.5zM255 -67h138v-132h-138v132zM248 914h162v-141h-162v141z" />
    <glyph glyph-name="uni1E9E" unicode="&#x1e9e;" horiz-adv-x="710" 
d="M634.5 308.5q38.5 -45.5 38.5 -111.5q0 -58 -29 -104t-80 -72.5t-115 -26.5q-57 0 -102.5 13.5t-84.5 42.5l41 110q78 -50 138 -50q39 0 62 25t23 68q0 49 -31 71t-103 22h-100v121h81q50 0 76 21.5t26 62.5q0 42 -30 66t-81 24q-68 0 -104.5 -37.5t-36.5 -108.5v-445
h-153v442q0 129 78 199.5t220 70.5q76 0 133 -24t88 -68.5t31 -104.5q0 -50 -24.5 -88.5t-68.5 -58.5q69 -14 107.5 -59.5z" />
    <glyph glyph-name="uni018F" unicode="&#x18f;" horiz-adv-x="767" 
d="M549 670q81 -44 124.5 -125.5t43.5 -191.5q0 -106 -40.5 -188t-114 -128t-168.5 -46q-107 0 -184.5 42.5t-118.5 124.5t-41 198v60h508q-13 86 -65 130t-138 44q-115 0 -207 -68l-49 111q46 37 117 59t144 22q108 0 189 -44zM507 158.5q43 46.5 53 138.5h-352
q8 -91 55 -138t126 -47q75 0 118 46.5z" />
    <glyph glyph-name="T" unicode="T" horiz-adv-x="622" 
d="M233 0v578h-221v127h598v-127h-221v-578h-156z" />
    <glyph glyph-name="Tbar" unicode="&#x166;" horiz-adv-x="622" 
d="M610 578h-221v-163h136v-118h-136v-297h-156v297h-136v118h136v163h-221v127h598v-127z" />
    <glyph glyph-name="Tcaron" unicode="&#x164;" horiz-adv-x="622" 
d="M233 0v578h-221v127h598v-127h-221v-578h-156zM373 921h113l-132 -156h-86l-132 156h113l62 -86z" />
    <glyph glyph-name="uni0162" unicode="&#x162;" horiz-adv-x="622" 
d="M341 0l-5 -41q4 1 12 1q38 0 61 -18.5t23 -50.5q0 -39 -35 -63.5t-100 -24.5q-22 0 -48 4.5t-46 13.5l12 58q45 -14 78 -14q46 0 46 26q0 19 -32 19q-18 0 -36 -6l-20 21l9 75h-27v578h-221v127h598v-127h-221v-578h-48z" />
    <glyph glyph-name="uni021A" unicode="&#x21a;" horiz-adv-x="622" 
d="M233 0v578h-221v127h598v-127h-221v-578h-156zM385 -65v-65q0 -46 -13.5 -81t-46.5 -64l-54 37q29 27 35 59h-70v114h149z" />
    <glyph glyph-name="uni1E6C" unicode="&#x1e6c;" horiz-adv-x="622" 
d="M233 0v578h-221v127h598v-127h-221v-578h-156zM242 -67h138v-132h-138v132z" />
    <glyph glyph-name="uni1E6E" unicode="&#x1e6e;" horiz-adv-x="622" 
d="M233 0v578h-221v127h598v-127h-221v-578h-156zM154 -177v88h314v-88h-314z" />
    <glyph glyph-name="U" unicode="U" horiz-adv-x="739" 
d="M143.5 67.5q-77.5 76.5 -77.5 223.5v414h153v-421q0 -84 38.5 -128t111.5 -44t112 44.5t39 127.5v421h153v-414q0 -146 -78 -223t-226 -77t-225.5 76.5z" />
    <glyph glyph-name="Uacute" unicode="&#xda;" horiz-adv-x="739" 
d="M143.5 67.5q-77.5 76.5 -77.5 223.5v414h153v-421q0 -84 38.5 -128t111.5 -44t112 44.5t39 127.5v421h153v-414q0 -146 -78 -223t-226 -77t-225.5 76.5zM416 765h-94l103 156h140z" />
    <glyph glyph-name="Ubreve" unicode="&#x16c;" horiz-adv-x="739" 
d="M143.5 67.5q-77.5 76.5 -77.5 223.5v414h153v-421q0 -84 38.5 -128t111.5 -44t112 44.5t39 127.5v421h153v-414q0 -146 -78 -223t-226 -77t-225.5 76.5zM257 802q-47 28 -66 81l70 29q30 -49 108 -49t108 49l70 -29q-19 -53 -66 -81t-112 -28t-112 28z" />
    <glyph glyph-name="Ucircumflex" unicode="&#xdb;" horiz-adv-x="739" 
d="M143.5 67.5q-77.5 76.5 -77.5 223.5v414h153v-421q0 -84 38.5 -128t111.5 -44t112 44.5t39 127.5v421h153v-414q0 -146 -78 -223t-226 -77t-225.5 76.5zM307 765h-113l132 156h86l132 -156h-113l-62 85z" />
    <glyph glyph-name="uni0214" unicode="&#x214;" horiz-adv-x="739" 
d="M143.5 67.5q-77.5 76.5 -77.5 223.5v414h153v-421q0 -84 38.5 -128t111.5 -44t112 44.5t39 127.5v421h153v-414q0 -146 -78 -223t-226 -77t-225.5 76.5zM263 765l-100 156h101l73 -156h-74zM401 765l-99 156h100l73 -156h-74z" />
    <glyph glyph-name="Udieresis" unicode="&#xdc;" horiz-adv-x="739" 
d="M143.5 67.5q-77.5 76.5 -77.5 223.5v414h153v-421q0 -84 38.5 -128t111.5 -44t112 44.5t39 127.5v421h153v-414q0 -146 -78 -223t-226 -77t-225.5 76.5zM204 909h139v-131h-139v131zM395 909h139v-131h-139v131z" />
    <glyph glyph-name="uni1EE4" unicode="&#x1ee4;" horiz-adv-x="739" 
d="M143.5 67.5q-77.5 76.5 -77.5 223.5v414h153v-421q0 -84 38.5 -128t111.5 -44t112 44.5t39 127.5v421h153v-414q0 -146 -78 -223t-226 -77t-225.5 76.5zM300 -67h138v-132h-138v132z" />
    <glyph glyph-name="Ugrave" unicode="&#xd9;" horiz-adv-x="739" 
d="M143.5 67.5q-77.5 76.5 -77.5 223.5v414h153v-421q0 -84 38.5 -128t111.5 -44t112 44.5t39 127.5v421h153v-414q0 -146 -78 -223t-226 -77t-225.5 76.5zM322 765l-149 156h140l103 -156h-94z" />
    <glyph glyph-name="uni1EE6" unicode="&#x1ee6;" horiz-adv-x="739" 
d="M143.5 67.5q-77.5 76.5 -77.5 223.5v414h153v-421q0 -84 38.5 -128t111.5 -44t112 44.5t39 127.5v421h153v-414q0 -146 -78 -223t-226 -77t-225.5 76.5zM406 765h-74v22q0 18 11.5 27t31.5 18l9 4.5t10 6.5t3 6q0 17 -33 17q-26 0 -57 -12l-20 53q45 18 95 18
q48 0 77.5 -18.5t29.5 -45.5q0 -19 -12.5 -30t-35.5 -21q-18 -9 -26.5 -15.5t-8.5 -16.5v-13z" />
    <glyph glyph-name="Uhorn" unicode="&#x1af;" horiz-adv-x="739" 
d="M785 826v-38q0 -57 -30.5 -97.5t-81.5 -53.5v-346q0 -146 -78 -223t-226 -77t-225.5 76.5t-77.5 223.5v414h153v-421q0 -84 38.5 -128t111.5 -44t112 44.5t39 127.5v421h44q51 0 71 22.5t20 79.5v19h130z" />
    <glyph glyph-name="uni1EE8" unicode="&#x1ee8;" horiz-adv-x="739" 
d="M785 826v-38q0 -57 -30.5 -97.5t-81.5 -53.5v-346q0 -146 -78 -223t-226 -77t-225.5 76.5t-77.5 223.5v414h153v-421q0 -84 38.5 -128t111.5 -44t112 44.5t39 127.5v421h44q51 0 71 22.5t20 79.5v19h130zM416 765h-94l103 156h140z" />
    <glyph glyph-name="uni1EF0" unicode="&#x1ef0;" horiz-adv-x="739" 
d="M785 826v-38q0 -57 -30.5 -97.5t-81.5 -53.5v-346q0 -146 -78 -223t-226 -77t-225.5 76.5t-77.5 223.5v414h153v-421q0 -84 38.5 -128t111.5 -44t112 44.5t39 127.5v421h44q51 0 71 22.5t20 79.5v19h130zM300 -67h138v-132h-138v132z" />
    <glyph glyph-name="uni1EEA" unicode="&#x1eea;" horiz-adv-x="739" 
d="M785 826v-38q0 -57 -30.5 -97.5t-81.5 -53.5v-346q0 -146 -78 -223t-226 -77t-225.5 76.5t-77.5 223.5v414h153v-421q0 -84 38.5 -128t111.5 -44t112 44.5t39 127.5v421h44q51 0 71 22.5t20 79.5v19h130zM322 765l-149 156h140l103 -156h-94z" />
    <glyph glyph-name="uni1EEC" unicode="&#x1eec;" horiz-adv-x="739" 
d="M785 826v-38q0 -57 -30.5 -97.5t-81.5 -53.5v-346q0 -146 -78 -223t-226 -77t-225.5 76.5t-77.5 223.5v414h153v-421q0 -84 38.5 -128t111.5 -44t112 44.5t39 127.5v421h44q51 0 71 22.5t20 79.5v19h130zM406 765h-74v22q0 18 11.5 27t31.5 18l9 4.5t10 6.5t3 6
q0 17 -33 17q-26 0 -57 -12l-20 53q45 18 95 18q48 0 77.5 -18.5t29.5 -45.5q0 -19 -12.5 -30t-35.5 -21q-18 -9 -26.5 -15.5t-8.5 -16.5v-13z" />
    <glyph glyph-name="uni1EEE" unicode="&#x1eee;" horiz-adv-x="739" 
d="M785 826v-38q0 -57 -30.5 -97.5t-81.5 -53.5v-346q0 -146 -78 -223t-226 -77t-225.5 76.5t-77.5 223.5v414h153v-421q0 -84 38.5 -128t111.5 -44t112 44.5t39 127.5v421h44q51 0 71 22.5t20 79.5v19h130zM225.5 881q30.5 37 78.5 37q18 0 34.5 -7t41.5 -22
q19 -12 31.5 -18t24.5 -6q19 0 29.5 13.5t12.5 36.5h65q0 -72 -30.5 -109t-78.5 -37q-18 0 -34.5 7t-41.5 22q-20 12 -32 17.5t-24 5.5q-19 0 -29.5 -13t-12.5 -36h-65q0 72 30.5 109z" />
    <glyph glyph-name="Uhungarumlaut" unicode="&#x170;" horiz-adv-x="739" 
d="M143.5 67.5q-77.5 76.5 -77.5 223.5v414h153v-421q0 -84 38.5 -128t111.5 -44t112 44.5t39 127.5v421h153v-414q0 -146 -78 -223t-226 -77t-225.5 76.5zM342 765h-74l73 156h101zM470 765h-74l73 156h101z" />
    <glyph glyph-name="uni0216" unicode="&#x216;" horiz-adv-x="739" 
d="M143.5 67.5q-77.5 76.5 -77.5 223.5v414h153v-421q0 -84 38.5 -128t111.5 -44t112 44.5t39 127.5v421h153v-414q0 -146 -78 -223t-226 -77t-225.5 76.5zM481 885q47 -28 66 -81l-70 -30q-30 50 -108 50t-108 -50l-70 30q19 53 66 81t112 28t112 -28z" />
    <glyph glyph-name="Umacron" unicode="&#x16a;" horiz-adv-x="739" 
d="M143.5 67.5q-77.5 76.5 -77.5 223.5v414h153v-421q0 -84 38.5 -128t111.5 -44t112 44.5t39 127.5v421h153v-414q0 -146 -78 -223t-226 -77t-225.5 76.5zM212 796v94h314v-94h-314z" />
    <glyph glyph-name="uni1E7A" unicode="&#x1e7a;" horiz-adv-x="739" 
d="M143.5 67.5q-77.5 76.5 -77.5 223.5v414h153v-421q0 -84 38.5 -128t111.5 -44t112 44.5t39 127.5v421h153v-414q0 -146 -78 -223t-226 -77t-225.5 76.5zM212 796v94h314v-94h-314zM204 1069h139v-131h-139v131zM395 1069h139v-131h-139v131z" />
    <glyph glyph-name="Uogonek" unicode="&#x172;" horiz-adv-x="739" 
d="M673 705v-414q0 -115 -48.5 -187.5t-142.5 -98.5q-30 -8 -45.5 -26.5t-15.5 -43.5q0 -26 15 -40t44 -14q23 0 55 13l16 -71q-45 -20 -99 -20q-56 0 -92 31t-36 79q0 45 33 78q-143 4 -217 80t-74 220v414h153v-421q0 -84 38.5 -128t111.5 -44t112 44.5t39 127.5v421h153z
" />
    <glyph glyph-name="Uring" unicode="&#x16e;" horiz-adv-x="739" 
d="M143.5 67.5q-77.5 76.5 -77.5 223.5v414h153v-421q0 -84 38.5 -128t111.5 -44t112 44.5t39 127.5v421h153v-414q0 -146 -78 -223t-226 -77t-225.5 76.5zM291.5 791q-31.5 31 -31.5 76q0 46 31.5 77t77.5 31t77.5 -31t31.5 -77q0 -45 -31.5 -76t-77.5 -31t-77.5 31z
M400 835q12 13 12 32q0 20 -12 33t-31 13t-31 -13t-12 -33q0 -19 12 -32t31 -13t31 13z" />
    <glyph glyph-name="Utilde" unicode="&#x168;" horiz-adv-x="739" 
d="M143.5 67.5q-77.5 76.5 -77.5 223.5v414h153v-421q0 -84 38.5 -128t111.5 -44t112 44.5t39 127.5v421h153v-414q0 -146 -78 -223t-226 -77t-225.5 76.5zM225.5 881q30.5 37 78.5 37q18 0 34.5 -7t41.5 -22q19 -12 31.5 -18t24.5 -6q19 0 29.5 13.5t12.5 36.5h65
q0 -72 -30.5 -109t-78.5 -37q-18 0 -34.5 7t-41.5 22q-20 12 -32 17.5t-24 5.5q-19 0 -29.5 -13t-12.5 -36h-65q0 72 30.5 109z" />
    <glyph glyph-name="uni1E78" unicode="&#x1e78;" horiz-adv-x="739" 
d="M143.5 67.5q-77.5 76.5 -77.5 223.5v414h153v-421q0 -84 38.5 -128t111.5 -44t112 44.5t39 127.5v421h153v-414q0 -146 -78 -223t-226 -77t-225.5 76.5zM225.5 881q30.5 37 78.5 37q18 0 34.5 -7t41.5 -22q19 -12 31.5 -18t24.5 -6q19 0 29.5 13.5t12.5 36.5h65
q0 -72 -30.5 -109t-78.5 -37q-18 0 -34.5 7t-41.5 22q-20 12 -32 17.5t-24 5.5q-19 0 -29.5 -13t-12.5 -36h-65q0 72 30.5 109zM416 925h-94l103 156h140z" />
    <glyph glyph-name="V" unicode="V" horiz-adv-x="728" 
d="M586 705h158l-317 -705h-125l-318 705h162l220 -511z" />
    <glyph glyph-name="W" unicode="W" horiz-adv-x="1115" 
d="M949 705h148l-251 -705h-125l-163 467l-165 -467h-125l-250 705h158l161 -487l171 487h109l165 -492z" />
    <glyph glyph-name="Wacute" unicode="&#x1e82;" horiz-adv-x="1115" 
d="M949 705h148l-251 -705h-125l-163 467l-165 -467h-125l-250 705h158l161 -487l171 487h109l165 -492zM604 765h-94l103 156h140z" />
    <glyph glyph-name="Wcircumflex" unicode="&#x174;" horiz-adv-x="1115" 
d="M949 705h148l-251 -705h-125l-163 467l-165 -467h-125l-250 705h158l161 -487l171 487h109l165 -492zM495 765h-113l132 156h86l132 -156h-113l-62 85z" />
    <glyph glyph-name="Wdieresis" unicode="&#x1e84;" horiz-adv-x="1115" 
d="M949 705h148l-251 -705h-125l-163 467l-165 -467h-125l-250 705h158l161 -487l171 487h109l165 -492zM392 909h139v-131h-139v131zM583 909h139v-131h-139v131z" />
    <glyph glyph-name="Wgrave" unicode="&#x1e80;" horiz-adv-x="1115" 
d="M949 705h148l-251 -705h-125l-163 467l-165 -467h-125l-250 705h158l161 -487l171 487h109l165 -492zM510 765l-149 156h140l103 -156h-94z" />
    <glyph glyph-name="X" unicode="X" horiz-adv-x="675" 
d="M425 357l269 -357h-182l-175 243l-176 -243h-181l269 357l-262 348h181l169 -234l170 234h181z" />
    <glyph glyph-name="Y" unicode="Y" horiz-adv-x="636" 
d="M688 705l-292 -386v-319h-156v319l-291 386h177l191 -261l194 261h177z" />
    <glyph glyph-name="Yacute" unicode="&#xdd;" horiz-adv-x="636" 
d="M688 705l-292 -386v-319h-156v319l-291 386h177l191 -261l194 261h177zM365 765h-94l103 156h140z" />
    <glyph glyph-name="Ycircumflex" unicode="&#x176;" horiz-adv-x="636" 
d="M688 705l-292 -386v-319h-156v319l-291 386h177l191 -261l194 261h177zM256 765h-113l132 156h86l132 -156h-113l-62 85z" />
    <glyph glyph-name="Ydieresis" unicode="&#x178;" horiz-adv-x="636" 
d="M688 705l-292 -386v-319h-156v319l-291 386h177l191 -261l194 261h177zM153 909h139v-131h-139v131zM344 909h139v-131h-139v131z" />
    <glyph glyph-name="uni1E8E" unicode="&#x1e8e;" horiz-adv-x="636" 
d="M688 705l-292 -386v-319h-156v319l-291 386h177l191 -261l194 261h177zM237 914h162v-141h-162v141z" />
    <glyph glyph-name="uni1EF4" unicode="&#x1ef4;" horiz-adv-x="636" 
d="M688 705l-292 -386v-319h-156v319l-291 386h177l191 -261l194 261h177zM250 -67h138v-132h-138v132z" />
    <glyph glyph-name="Ygrave" unicode="&#x1ef2;" horiz-adv-x="636" 
d="M688 705l-292 -386v-319h-156v319l-291 386h177l191 -261l194 261h177zM271 765l-149 156h140l103 -156h-94z" />
    <glyph glyph-name="uni1EF6" unicode="&#x1ef6;" horiz-adv-x="636" 
d="M688 705l-292 -386v-319h-156v319l-291 386h177l191 -261l194 261h177zM355 765h-74v22q0 18 11.5 27t31.5 18l9 4.5t10 6.5t3 6q0 17 -33 17q-26 0 -57 -12l-20 53q45 18 95 18q48 0 77.5 -18.5t29.5 -45.5q0 -19 -12.5 -30t-35.5 -21q-18 -9 -26.5 -15.5t-8.5 -16.5
v-13z" />
    <glyph glyph-name="uni0232" unicode="&#x232;" horiz-adv-x="636" 
d="M688 705l-292 -386v-319h-156v319l-291 386h177l191 -261l194 261h177zM161 796v94h314v-94h-314z" />
    <glyph glyph-name="uni1EF8" unicode="&#x1ef8;" horiz-adv-x="636" 
d="M688 705l-292 -386v-319h-156v319l-291 386h177l191 -261l194 261h177zM174.5 881q30.5 37 78.5 37q18 0 34.5 -7t41.5 -22q19 -12 31.5 -18t24.5 -6q19 0 29.5 13.5t12.5 36.5h65q0 -72 -30.5 -109t-78.5 -37q-18 0 -34.5 7t-41.5 22q-20 12 -32 17.5t-24 5.5
q-19 0 -29.5 -13t-12.5 -36h-65q0 72 30.5 109z" />
    <glyph glyph-name="Z" unicode="Z" horiz-adv-x="610" 
d="M223 123h351v-123h-524v114l338 468h-338v123h514v-112z" />
    <glyph glyph-name="Zacute" unicode="&#x179;" horiz-adv-x="610" 
d="M223 123h351v-123h-524v114l338 468h-338v123h514v-112zM353 765h-94l103 156h140z" />
    <glyph glyph-name="Zcaron" unicode="&#x17d;" horiz-adv-x="610" 
d="M223 123h351v-123h-524v114l338 468h-338v123h514v-112zM368 921h113l-132 -156h-86l-132 156h113l62 -86z" />
    <glyph glyph-name="Zdotaccent" unicode="&#x17b;" horiz-adv-x="610" 
d="M223 123h351v-123h-524v114l338 468h-338v123h514v-112zM225 914h162v-141h-162v141z" />
    <glyph glyph-name="uni1E92" unicode="&#x1e92;" horiz-adv-x="610" 
d="M223 123h351v-123h-524v114l338 468h-338v123h514v-112zM234 -67h138v-132h-138v132z" />
    <glyph glyph-name="Iacute_J.loclNLD" horiz-adv-x="673" 
d="M70 0v705h156v-705h-156zM195 765h-94l103 156h140zM292 115l76 5q40 2 59 22.5t19 61.5v501h157v-499q0 -199 -209 -211l-93 -5zM572 765h-94l103 156h140z" />
    <glyph glyph-name="a" unicode="a" horiz-adv-x="546" 
d="M438.5 451q52.5 -52 52.5 -161v-290h-143v73q-15 -38 -50 -59.5t-82 -21.5q-50 0 -90.5 20t-64 56t-23.5 80q0 54 27.5 85t88.5 45t167 14h26v18q0 44 -19 62t-66 18q-36 0 -80 -13t-84 -36l-40 101q42 26 103.5 43.5t114.5 17.5q110 0 162.5 -52zM320 125.5
q27 29.5 27 76.5v17h-17q-81 0 -113.5 -13t-32.5 -47q0 -27 18.5 -45t46.5 -18q44 0 71 29.5z" />
    <glyph glyph-name="aacute" unicode="&#xe1;" horiz-adv-x="546" 
d="M438.5 451q52.5 -52 52.5 -161v-290h-143v73q-15 -38 -50 -59.5t-82 -21.5q-50 0 -90.5 20t-64 56t-23.5 80q0 54 27.5 85t88.5 45t167 14h26v18q0 44 -19 62t-66 18q-36 0 -80 -13t-84 -36l-40 101q42 26 103.5 43.5t114.5 17.5q110 0 162.5 -52zM320 125.5
q27 29.5 27 76.5v17h-17q-81 0 -113.5 -13t-32.5 -47q0 -27 18.5 -45t46.5 -18q44 0 71 29.5zM326 555h-94l98 205h148z" />
    <glyph glyph-name="abreve" unicode="&#x103;" horiz-adv-x="546" 
d="M438.5 451q52.5 -52 52.5 -161v-290h-143v73q-15 -38 -50 -59.5t-82 -21.5q-50 0 -90.5 20t-64 56t-23.5 80q0 54 27.5 85t88.5 45t167 14h26v18q0 44 -19 62t-66 18q-36 0 -80 -13t-84 -36l-40 101q42 26 103.5 43.5t114.5 17.5q110 0 162.5 -52zM320 125.5
q27 29.5 27 76.5v17h-17q-81 0 -113.5 -13t-32.5 -47q0 -27 18.5 -45t46.5 -18q44 0 71 29.5zM162.5 614.5q-51.5 37.5 -69.5 107.5l70 29q43 -79 116 -79t116 79l70 -29q-18 -70 -69.5 -107.5t-116.5 -37.5t-116.5 37.5z" />
    <glyph glyph-name="uni1EAF" unicode="&#x1eaf;" horiz-adv-x="546" 
d="M438.5 451q52.5 -52 52.5 -161v-290h-143v73q-15 -38 -50 -59.5t-82 -21.5q-50 0 -90.5 20t-64 56t-23.5 80q0 54 27.5 85t88.5 45t167 14h26v18q0 44 -19 62t-66 18q-36 0 -80 -13t-84 -36l-40 101q42 26 103.5 43.5t114.5 17.5q110 0 162.5 -52zM320 125.5
q27 29.5 27 76.5v17h-17q-81 0 -113.5 -13t-32.5 -47q0 -27 18.5 -45t46.5 -18q44 0 71 29.5zM323 661h-88l100 142h130zM167 577.5q-47 27.5 -66 81.5l55 22q16 -27 50.5 -41t72.5 -14t72.5 14t50.5 41l55 -22q-19 -54 -66 -81.5t-112 -27.5t-112 27.5z" />
    <glyph glyph-name="uni1EB7" unicode="&#x1eb7;" horiz-adv-x="546" 
d="M438.5 451q52.5 -52 52.5 -161v-290h-143v73q-15 -38 -50 -59.5t-82 -21.5q-50 0 -90.5 20t-64 56t-23.5 80q0 54 27.5 85t88.5 45t167 14h26v18q0 44 -19 62t-66 18q-36 0 -80 -13t-84 -36l-40 101q42 26 103.5 43.5t114.5 17.5q110 0 162.5 -52zM320 125.5
q27 29.5 27 76.5v17h-17q-81 0 -113.5 -13t-32.5 -47q0 -27 18.5 -45t46.5 -18q44 0 71 29.5zM206 -67h138v-132h-138v132zM162.5 614.5q-51.5 37.5 -69.5 107.5l70 29q43 -79 116 -79t116 79l70 -29q-18 -70 -69.5 -107.5t-116.5 -37.5t-116.5 37.5z" />
    <glyph glyph-name="uni1EB1" unicode="&#x1eb1;" horiz-adv-x="546" 
d="M438.5 451q52.5 -52 52.5 -161v-290h-143v73q-15 -38 -50 -59.5t-82 -21.5q-50 0 -90.5 20t-64 56t-23.5 80q0 54 27.5 85t88.5 45t167 14h26v18q0 44 -19 62t-66 18q-36 0 -80 -13t-84 -36l-40 101q42 26 103.5 43.5t114.5 17.5q110 0 162.5 -52zM320 125.5
q27 29.5 27 76.5v17h-17q-81 0 -113.5 -13t-32.5 -47q0 -27 18.5 -45t46.5 -18q44 0 71 29.5zM235 661l-142 142h130l100 -142h-88zM167 577.5q-47 27.5 -66 81.5l55 22q16 -27 50.5 -41t72.5 -14t72.5 14t50.5 41l55 -22q-19 -54 -66 -81.5t-112 -27.5t-112 27.5z" />
    <glyph glyph-name="uni1EB3" unicode="&#x1eb3;" horiz-adv-x="546" 
d="M438.5 451q52.5 -52 52.5 -161v-290h-143v73q-15 -38 -50 -59.5t-82 -21.5q-50 0 -90.5 20t-64 56t-23.5 80q0 54 27.5 85t88.5 45t167 14h26v18q0 44 -19 62t-66 18q-36 0 -80 -13t-84 -36l-40 101q42 26 103.5 43.5t114.5 17.5q110 0 162.5 -52zM320 125.5
q27 29.5 27 76.5v17h-17q-81 0 -113.5 -13t-32.5 -47q0 -27 18.5 -45t46.5 -18q44 0 71 29.5zM316 662h-74v20q0 18 13 27.5t34 17.5q7 3 12.5 5.5t5.5 5.5q0 5 -8 9t-25 4q-25 0 -57 -11l-20 51q43 17 95 17q49 0 78 -16.5t29 -43.5q0 -19 -12.5 -29t-35.5 -19
q-18 -8 -26.5 -14t-8.5 -16v-8zM167 577.5q-47 27.5 -66 81.5l55 22q16 -27 50.5 -41t72.5 -14t72.5 14t50.5 41l55 -22q-19 -54 -66 -81.5t-112 -27.5t-112 27.5z" />
    <glyph glyph-name="uni1EB5" unicode="&#x1eb5;" horiz-adv-x="546" 
d="M438.5 451q52.5 -52 52.5 -161v-290h-143v73q-15 -38 -50 -59.5t-82 -21.5q-50 0 -90.5 20t-64 56t-23.5 80q0 54 27.5 85t88.5 45t167 14h26v18q0 44 -19 62t-66 18q-36 0 -80 -13t-84 -36l-40 101q42 26 103.5 43.5t114.5 17.5q110 0 162.5 -52zM320 125.5
q27 29.5 27 76.5v17h-17q-81 0 -113.5 -13t-32.5 -47q0 -27 18.5 -45t46.5 -18q44 0 71 29.5zM137 778q32 30 77 30q18 0 34 -4.5t42 -14.5q15 -6 29.5 -10.5t26.5 -4.5q39 0 42 31h65q0 -45 -32 -75t-77 -30q-16 0 -30.5 3.5t-27.5 8t-18 6.5q-15 6 -29.5 10.5t-26.5 4.5
q-39 0 -42 -30h-65q0 45 32 75zM167 577.5q-47 27.5 -66 81.5l55 22q16 -27 50.5 -41t72.5 -14t72.5 14t50.5 41l55 -22q-19 -54 -66 -81.5t-112 -27.5t-112 27.5z" />
    <glyph glyph-name="uni01CE" unicode="&#x1ce;" horiz-adv-x="546" 
d="M438.5 451q52.5 -52 52.5 -161v-290h-143v73q-15 -38 -50 -59.5t-82 -21.5q-50 0 -90.5 20t-64 56t-23.5 80q0 54 27.5 85t88.5 45t167 14h26v18q0 44 -19 62t-66 18q-36 0 -80 -13t-84 -36l-40 101q42 26 103.5 43.5t114.5 17.5q110 0 162.5 -52zM320 125.5
q27 29.5 27 76.5v17h-17q-81 0 -113.5 -13t-32.5 -47q0 -27 18.5 -45t46.5 -18q44 0 71 29.5zM337 760h117l-130 -205h-90l-130 205h117l58 -116z" />
    <glyph glyph-name="acircumflex" unicode="&#xe2;" horiz-adv-x="546" 
d="M438.5 451q52.5 -52 52.5 -161v-290h-143v73q-15 -38 -50 -59.5t-82 -21.5q-50 0 -90.5 20t-64 56t-23.5 80q0 54 27.5 85t88.5 45t167 14h26v18q0 44 -19 62t-66 18q-36 0 -80 -13t-84 -36l-40 101q42 26 103.5 43.5t114.5 17.5q110 0 162.5 -52zM320 125.5
q27 29.5 27 76.5v17h-17q-81 0 -113.5 -13t-32.5 -47q0 -27 18.5 -45t46.5 -18q44 0 71 29.5zM221 555h-117l130 205h90l130 -205h-117l-58 116z" />
    <glyph glyph-name="uni1EA5" unicode="&#x1ea5;" horiz-adv-x="546" 
d="M438.5 451q52.5 -52 52.5 -161v-290h-143v73q-15 -38 -50 -59.5t-82 -21.5q-50 0 -90.5 20t-64 56t-23.5 80q0 54 27.5 85t88.5 45t167 14h26v18q0 44 -19 62t-66 18q-36 0 -80 -13t-84 -36l-40 101q42 26 103.5 43.5t114.5 17.5q110 0 162.5 -52zM320 125.5
q27 29.5 27 76.5v17h-17q-81 0 -113.5 -13t-32.5 -47q0 -27 18.5 -45t46.5 -18q44 0 71 29.5zM447 661h-74l72 142h125zM215 555h-111l132 138h86l132 -138h-111l-64 71z" />
    <glyph glyph-name="uni1EAD" unicode="&#x1ead;" horiz-adv-x="546" 
d="M438.5 451q52.5 -52 52.5 -161v-290h-143v73q-15 -38 -50 -59.5t-82 -21.5q-50 0 -90.5 20t-64 56t-23.5 80q0 54 27.5 85t88.5 45t167 14h26v18q0 44 -19 62t-66 18q-36 0 -80 -13t-84 -36l-40 101q42 26 103.5 43.5t114.5 17.5q110 0 162.5 -52zM320 125.5
q27 29.5 27 76.5v17h-17q-81 0 -113.5 -13t-32.5 -47q0 -27 18.5 -45t46.5 -18q44 0 71 29.5zM206 -67h138v-132h-138v132zM221 555h-117l130 205h90l130 -205h-117l-58 116z" />
    <glyph glyph-name="uni1EA7" unicode="&#x1ea7;" horiz-adv-x="546" 
d="M438.5 451q52.5 -52 52.5 -161v-290h-143v73q-15 -38 -50 -59.5t-82 -21.5q-50 0 -90.5 20t-64 56t-23.5 80q0 54 27.5 85t88.5 45t167 14h26v18q0 44 -19 62t-66 18q-36 0 -80 -13t-84 -36l-40 101q42 26 103.5 43.5t114.5 17.5q110 0 162.5 -52zM320 125.5
q27 29.5 27 76.5v17h-17q-81 0 -113.5 -13t-32.5 -47q0 -27 18.5 -45t46.5 -18q44 0 71 29.5zM415 661l-122 142h125l71 -142h-74zM215 555h-111l132 138h86l132 -138h-111l-64 71z" />
    <glyph glyph-name="uni1EA9" unicode="&#x1ea9;" horiz-adv-x="546" 
d="M438.5 451q52.5 -52 52.5 -161v-290h-143v73q-15 -38 -50 -59.5t-82 -21.5q-50 0 -90.5 20t-64 56t-23.5 80q0 54 27.5 85t88.5 45t167 14h26v18q0 44 -19 62t-66 18q-36 0 -80 -13t-84 -36l-40 101q42 26 103.5 43.5t114.5 17.5q110 0 162.5 -52zM320 125.5
q27 29.5 27 76.5v17h-17q-81 0 -113.5 -13t-32.5 -47q0 -27 18.5 -45t46.5 -18q44 0 71 29.5zM447 662h-75v20q0 18 13 27.5t34 17.5q7 3 12.5 5.5t5.5 5.5q0 5 -8 9t-24 4q-25 0 -57 -11l-20 51q43 17 95 17q49 0 77.5 -16.5t28.5 -43.5q0 -19 -12 -29t-35 -19
q-18 -8 -26.5 -14t-8.5 -16v-8zM215 555h-111l132 138h86l132 -138h-111l-64 71z" />
    <glyph glyph-name="uni1EAB" unicode="&#x1eab;" horiz-adv-x="546" 
d="M438.5 451q52.5 -52 52.5 -161v-290h-143v73q-15 -38 -50 -59.5t-82 -21.5q-50 0 -90.5 20t-64 56t-23.5 80q0 54 27.5 85t88.5 45t167 14h26v18q0 44 -19 62t-66 18q-36 0 -80 -13t-84 -36l-40 101q42 26 103.5 43.5t114.5 17.5q110 0 162.5 -52zM320 125.5
q27 29.5 27 76.5v17h-17q-81 0 -113.5 -13t-32.5 -47q0 -27 18.5 -45t46.5 -18q44 0 71 29.5zM137 786q32 30 77 30q16 0 30.5 -3.5t27.5 -8t18 -6.5q15 -6 29.5 -10.5t26.5 -4.5q39 0 42 30h65q0 -45 -32 -75t-77 -30q-16 0 -30.5 3.5t-27.5 8t-18 6.5q-15 6 -29.5 10.5
t-26.5 4.5q-39 0 -42 -30h-65q0 45 32 75zM215 555h-111l132 138h86l132 -138h-111l-64 71z" />
    <glyph glyph-name="uni0201" unicode="&#x201;" horiz-adv-x="546" 
d="M438.5 451q52.5 -52 52.5 -161v-290h-143v73q-15 -38 -50 -59.5t-82 -21.5q-50 0 -90.5 20t-64 56t-23.5 80q0 54 27.5 85t88.5 45t167 14h26v18q0 44 -19 62t-66 18q-36 0 -80 -13t-84 -36l-40 101q42 26 103.5 43.5t114.5 17.5q110 0 162.5 -52zM320 125.5
q27 29.5 27 76.5v17h-17q-81 0 -113.5 -13t-32.5 -47q0 -27 18.5 -45t46.5 -18q44 0 71 29.5zM177 555l-78 205h109l34 -205h-65zM316 555l-78 205h109l34 -205h-65z" />
    <glyph glyph-name="adieresis" unicode="&#xe4;" horiz-adv-x="546" 
d="M438.5 451q52.5 -52 52.5 -161v-290h-143v73q-15 -38 -50 -59.5t-82 -21.5q-50 0 -90.5 20t-64 56t-23.5 80q0 54 27.5 85t88.5 45t167 14h26v18q0 44 -19 62t-66 18q-36 0 -80 -13t-84 -36l-40 101q42 26 103.5 43.5t114.5 17.5q110 0 162.5 -52zM320 125.5
q27 29.5 27 76.5v17h-17q-81 0 -113.5 -13t-32.5 -47q0 -27 18.5 -45t46.5 -18q44 0 71 29.5zM114 722h139v-132h-139v132zM305 722h139v-132h-139v132z" />
    <glyph glyph-name="uni0227" unicode="&#x227;" horiz-adv-x="546" 
d="M438.5 451q52.5 -52 52.5 -161v-290h-143v73q-15 -38 -50 -59.5t-82 -21.5q-50 0 -90.5 20t-64 56t-23.5 80q0 54 27.5 85t88.5 45t167 14h26v18q0 44 -19 62t-66 18q-36 0 -80 -13t-84 -36l-40 101q42 26 103.5 43.5t114.5 17.5q110 0 162.5 -52zM320 125.5
q27 29.5 27 76.5v17h-17q-81 0 -113.5 -13t-32.5 -47q0 -27 18.5 -45t46.5 -18q44 0 71 29.5zM198 727h162v-141h-162v141z" />
    <glyph glyph-name="uni1EA1" unicode="&#x1ea1;" horiz-adv-x="546" 
d="M438.5 451q52.5 -52 52.5 -161v-290h-143v73q-15 -38 -50 -59.5t-82 -21.5q-50 0 -90.5 20t-64 56t-23.5 80q0 54 27.5 85t88.5 45t167 14h26v18q0 44 -19 62t-66 18q-36 0 -80 -13t-84 -36l-40 101q42 26 103.5 43.5t114.5 17.5q110 0 162.5 -52zM320 125.5
q27 29.5 27 76.5v17h-17q-81 0 -113.5 -13t-32.5 -47q0 -27 18.5 -45t46.5 -18q44 0 71 29.5zM206 -67h138v-132h-138v132z" />
    <glyph glyph-name="agrave" unicode="&#xe0;" horiz-adv-x="546" 
d="M438.5 451q52.5 -52 52.5 -161v-290h-143v73q-15 -38 -50 -59.5t-82 -21.5q-50 0 -90.5 20t-64 56t-23.5 80q0 54 27.5 85t88.5 45t167 14h26v18q0 44 -19 62t-66 18q-36 0 -80 -13t-84 -36l-40 101q42 26 103.5 43.5t114.5 17.5q110 0 162.5 -52zM320 125.5
q27 29.5 27 76.5v17h-17q-81 0 -113.5 -13t-32.5 -47q0 -27 18.5 -45t46.5 -18q44 0 71 29.5zM232 555l-152 205h148l98 -205h-94z" />
    <glyph glyph-name="uni1EA3" unicode="&#x1ea3;" horiz-adv-x="546" 
d="M438.5 451q52.5 -52 52.5 -161v-290h-143v73q-15 -38 -50 -59.5t-82 -21.5q-50 0 -90.5 20t-64 56t-23.5 80q0 54 27.5 85t88.5 45t167 14h26v18q0 44 -19 62t-66 18q-36 0 -80 -13t-84 -36l-40 101q42 26 103.5 43.5t114.5 17.5q110 0 162.5 -52zM320 125.5
q27 29.5 27 76.5v17h-17q-81 0 -113.5 -13t-32.5 -47q0 -27 18.5 -45t46.5 -18q44 0 71 29.5zM318 555h-75v25q0 21 9.5 34.5t26.5 28.5q11 9 16.5 16t5.5 14q0 23 -33 23q-24 0 -50 -9l-21 57q41 18 86 18q55 0 85.5 -21.5t30.5 -53.5q0 -23 -12 -37.5t-35 -31.5
q-17 -12 -25.5 -21.5t-8.5 -21.5v-20z" />
    <glyph glyph-name="uni0203" unicode="&#x203;" horiz-adv-x="546" 
d="M438.5 451q52.5 -52 52.5 -161v-290h-143v73q-15 -38 -50 -59.5t-82 -21.5q-50 0 -90.5 20t-64 56t-23.5 80q0 54 27.5 85t88.5 45t167 14h26v18q0 44 -19 62t-66 18q-36 0 -80 -13t-84 -36l-40 101q42 26 103.5 43.5t114.5 17.5q110 0 162.5 -52zM320 125.5
q27 29.5 27 76.5v17h-17q-81 0 -113.5 -13t-32.5 -47q0 -27 18.5 -45t46.5 -18q44 0 71 29.5zM395.5 710.5q51.5 -37.5 69.5 -107.5l-70 -30q-43 80 -116 80t-116 -80l-70 30q18 70 69.5 107.5t116.5 37.5t116.5 -37.5z" />
    <glyph glyph-name="amacron" unicode="&#x101;" horiz-adv-x="546" 
d="M438.5 451q52.5 -52 52.5 -161v-290h-143v73q-15 -38 -50 -59.5t-82 -21.5q-50 0 -90.5 20t-64 56t-23.5 80q0 54 27.5 85t88.5 45t167 14h26v18q0 44 -19 62t-66 18q-36 0 -80 -13t-84 -36l-40 101q42 26 103.5 43.5t114.5 17.5q110 0 162.5 -52zM320 125.5
q27 29.5 27 76.5v17h-17q-81 0 -113.5 -13t-32.5 -47q0 -27 18.5 -45t46.5 -18q44 0 71 29.5zM122 609v94h314v-94h-314z" />
    <glyph glyph-name="aogonek" unicode="&#x105;" horiz-adv-x="546" 
d="M528 -177q-45 -20 -100 -20q-56 0 -91.5 31.5t-35.5 80.5q0 56 47 95v63q-15 -38 -49.5 -59.5t-80.5 -21.5q-51 0 -92 20t-64.5 56t-23.5 80q0 54 27.5 85t89 45t166.5 14h26v18q0 44 -19 62t-66 18q-36 0 -80 -13t-84 -36l-40 101q42 26 103.5 43.5t114.5 17.5
q110 0 162.5 -52t52.5 -161v-290h-10q-37 0 -60.5 -18t-23.5 -47q0 -26 15.5 -40t44.5 -14q23 0 54 13zM320 125.5q27 29.5 27 76.5v17h-17q-81 0 -113.5 -13.5t-32.5 -46.5q0 -28 18.5 -45.5t46.5 -17.5q44 0 71 29.5z" />
    <glyph glyph-name="aring" unicode="&#xe5;" horiz-adv-x="546" 
d="M438.5 451q52.5 -52 52.5 -161v-290h-143v73q-15 -38 -50 -59.5t-82 -21.5q-50 0 -90.5 20t-64 56t-23.5 80q0 54 27.5 85t88.5 45t167 14h26v18q0 44 -19 62t-66 18q-36 0 -80 -13t-84 -36l-40 101q42 26 103.5 43.5t114.5 17.5q110 0 162.5 -52zM320 125.5
q27 29.5 27 76.5v17h-17q-81 0 -113.5 -13t-32.5 -47q0 -27 18.5 -45t46.5 -18q44 0 71 29.5zM201.5 581q-31.5 31 -31.5 77q0 45 31.5 76t77.5 31t77.5 -31t31.5 -76q0 -46 -31.5 -77t-77.5 -31t-77.5 31zM310 625q12 13 12 33q0 19 -12 32t-31 13t-31 -13t-12 -32
q0 -20 12 -33t31 -13t31 13z" />
    <glyph glyph-name="aringacute" unicode="&#x1fb;" horiz-adv-x="546" 
d="M201 581q-32 31 -32 77q0 45 32 76t78 31q24 0 43 -9l67 98h139l-149 -152q9 -21 9 -44q0 -45 -32 -76.5t-77 -31.5q-46 0 -78 31zM247.5 690q-12.5 -13 -12.5 -32q0 -20 12.5 -33t31.5 -13t31 13t12 33q0 19 -12 32t-31 13t-31.5 -13zM438.5 451q52.5 -52 52.5 -161
v-290h-143v73q-15 -38 -50 -59.5t-82 -21.5q-50 0 -90.5 20t-64 56t-23.5 80q0 54 27.5 85t88.5 45t167 14h26v18q0 44 -19 62t-66 18q-36 0 -80 -13t-84 -36l-40 101q42 26 103.5 43.5t114.5 17.5q110 0 162.5 -52zM320 125.5q27 29.5 27 76.5v17h-17q-81 0 -113.5 -13
t-32.5 -47q0 -27 18.5 -45t46.5 -18q44 0 71 29.5z" />
    <glyph glyph-name="atilde" unicode="&#xe3;" horiz-adv-x="546" 
d="M438.5 451q52.5 -52 52.5 -161v-290h-143v73q-15 -38 -50 -59.5t-82 -21.5q-50 0 -90.5 20t-64 56t-23.5 80q0 54 27.5 85t88.5 45t167 14h26v18q0 44 -19 62t-66 18q-36 0 -80 -13t-84 -36l-40 101q42 26 103.5 43.5t114.5 17.5q110 0 162.5 -52zM320 125.5
q27 29.5 27 76.5v17h-17q-81 0 -113.5 -13t-32.5 -47q0 -27 18.5 -45t46.5 -18q44 0 71 29.5zM135.5 696q30.5 37 78.5 37q18 0 34.5 -7t41.5 -22q19 -12 31.5 -18t24.5 -6q19 0 29.5 13.5t12.5 36.5h65q0 -72 -30.5 -109t-78.5 -37q-18 0 -34.5 7t-41.5 22q-20 12 -32 17.5
t-24 5.5q-19 0 -29.5 -13t-12.5 -36h-65q0 72 30.5 109z" />
    <glyph glyph-name="ae" unicode="&#xe6;" horiz-adv-x="837" 
d="M804 217h-313q7 -59 34.5 -85.5t81.5 -26.5q82 0 149 48l40 -101q-35 -28 -86.5 -44t-103.5 -16q-70 0 -121 25t-81 73q-22 -47 -66.5 -72.5t-103.5 -25.5q-56 0 -100.5 20t-70 55.5t-25.5 80.5q0 54 27.5 85t88.5 45t166 14h26v18q0 42 -19 61t-60 19q-40 0 -84.5 -13
t-84.5 -36l-40 101q41 26 102.5 43.5t114.5 17.5q113 0 160 -63q30 30 70 46.5t88 16.5q62 0 110 -31t74.5 -87.5t26.5 -130.5v-37zM521.5 371.5q-25.5 -27.5 -30.5 -79.5h186q-3 52 -25.5 79.5t-61.5 27.5q-43 0 -68.5 -27.5zM319.5 126.5q26.5 30.5 26.5 75.5v17h-18
q-79 0 -111.5 -13.5t-32.5 -46.5q0 -28 19.5 -45.5t50.5 -17.5q39 0 65.5 30.5z" />
    <glyph glyph-name="aeacute" unicode="&#x1fd;" horiz-adv-x="837" 
d="M804 217h-313q7 -59 34.5 -85.5t81.5 -26.5q82 0 149 48l40 -101q-35 -28 -86.5 -44t-103.5 -16q-70 0 -121 25t-81 73q-22 -47 -66.5 -72.5t-103.5 -25.5q-56 0 -100.5 20t-70 55.5t-25.5 80.5q0 54 27.5 85t88.5 45t166 14h26v18q0 42 -19 61t-60 19q-40 0 -84.5 -13
t-84.5 -36l-40 101q41 26 102.5 43.5t114.5 17.5q113 0 160 -63q30 30 70 46.5t88 16.5q62 0 110 -31t74.5 -87.5t26.5 -130.5v-37zM521.5 371.5q-25.5 -27.5 -30.5 -79.5h186q-3 52 -25.5 79.5t-61.5 27.5q-43 0 -68.5 -27.5zM319.5 126.5q26.5 30.5 26.5 75.5v17h-18
q-79 0 -111.5 -13.5t-32.5 -46.5q0 -28 19.5 -45.5t50.5 -17.5q39 0 65.5 30.5zM464 555h-94l98 205h148z" />
    <glyph glyph-name="b" unicode="b" horiz-adv-x="613" 
d="M475 472q49 -31 76.5 -88.5t27.5 -133.5t-27.5 -134.5t-77 -91t-112.5 -32.5q-51 0 -92 21.5t-63 59.5v-73h-149v705h151v-280q22 37 62.5 57.5t90.5 20.5q64 0 113 -31zM400 144.5q29 37.5 29 105.5q0 67 -29 102.5t-82 35.5t-82 -36.5t-29 -103.5q0 -68 29 -104.5
t82 -36.5t82 37.5z" />
    <glyph glyph-name="c" unicode="c" horiz-adv-x="494" 
d="M103 60q-69 68 -69 185q0 77 33 135.5t93 90.5t139 32q54 0 104 -16.5t81 -44.5l-40 -103q-29 23 -63.5 35.5t-67.5 12.5q-59 0 -91.5 -35t-32.5 -104t32.5 -104.5t91.5 -35.5q33 0 67.5 12.5t63.5 35.5l40 -104q-33 -28 -84 -44t-108 -16q-120 0 -189 68z" />
    <glyph glyph-name="cacute" unicode="&#x107;" horiz-adv-x="494" 
d="M103 60q-69 68 -69 185q0 77 33 135.5t93 90.5t139 32q54 0 104 -16.5t81 -44.5l-40 -103q-29 23 -63.5 35.5t-67.5 12.5q-59 0 -91.5 -35t-32.5 -104t32.5 -104.5t91.5 -35.5q33 0 67.5 12.5t63.5 35.5l40 -104q-33 -28 -84 -44t-108 -16q-120 0 -189 68zM341 555h-94
l98 205h148z" />
    <glyph glyph-name="ccaron" unicode="&#x10d;" horiz-adv-x="494" 
d="M103 60q-69 68 -69 185q0 77 33 135.5t93 90.5t139 32q54 0 104 -16.5t81 -44.5l-40 -103q-29 23 -63.5 35.5t-67.5 12.5q-59 0 -91.5 -35t-32.5 -104t32.5 -104.5t91.5 -35.5q33 0 67.5 12.5t63.5 35.5l40 -104q-33 -28 -84 -44t-108 -16q-120 0 -189 68zM352 760h117
l-130 -205h-90l-130 205h117l58 -116z" />
    <glyph glyph-name="ccedilla" unicode="&#xe7;" horiz-adv-x="494" 
d="M409.5 11.5q-44.5 -15.5 -95.5 -18.5l-4 -34q4 1 12 1q38 0 61 -18.5t23 -50.5q0 -39 -35 -63.5t-100 -24.5q-22 0 -48 4.5t-46 13.5l12 58q45 -14 78 -14q46 0 46 26q0 19 -32 19q-18 0 -36 -6l-20 21l9 72q-94 16 -147 81.5t-53 166.5q0 77 33 135.5t93 90.5t139 32
q54 0 104 -16.5t81 -44.5l-40 -103q-29 23 -63.5 35.5t-67.5 12.5q-59 0 -91.5 -35t-32.5 -104t32.5 -104.5t91.5 -35.5q33 0 67.5 12.5t63.5 35.5l40 -104q-30 -25 -74.5 -40.5z" />
    <glyph glyph-name="uni1E09" unicode="&#x1e09;" horiz-adv-x="494" 
d="M493 760l-152 -205h-94l98 205h148zM221.5 352q-32.5 -35 -32.5 -104t32.5 -104.5t91.5 -35.5q33 0 67.5 12.5t63.5 35.5l40 -104q-30 -25 -74.5 -40.5t-95.5 -18.5l-4 -34q4 1 12 1q38 0 61 -18.5t23 -50.5q0 -39 -35 -63.5t-100 -24.5q-22 0 -48 4.5t-46 13.5l12 58
q45 -14 78 -14q46 0 46 26q0 19 -32 19q-18 0 -36 -6l-20 21l9 72q-94 16 -147 81.5t-53 166.5q0 77 33 135.5t93 90.5t139 32q54 0 104 -16.5t81 -44.5l-40 -103q-29 23 -63.5 35.5t-67.5 12.5q-59 0 -91.5 -35z" />
    <glyph glyph-name="ccircumflex" unicode="&#x109;" horiz-adv-x="494" 
d="M103 60q-69 68 -69 185q0 77 33 135.5t93 90.5t139 32q54 0 104 -16.5t81 -44.5l-40 -103q-29 23 -63.5 35.5t-67.5 12.5q-59 0 -91.5 -35t-32.5 -104t32.5 -104.5t91.5 -35.5q33 0 67.5 12.5t63.5 35.5l40 -104q-33 -28 -84 -44t-108 -16q-120 0 -189 68zM236 555h-117
l130 205h90l130 -205h-117l-58 116z" />
    <glyph glyph-name="cdotaccent" unicode="&#x10b;" horiz-adv-x="494" 
d="M103 60q-69 68 -69 185q0 77 33 135.5t93 90.5t139 32q54 0 104 -16.5t81 -44.5l-40 -103q-29 23 -63.5 35.5t-67.5 12.5q-59 0 -91.5 -35t-32.5 -104t32.5 -104.5t91.5 -35.5q33 0 67.5 12.5t63.5 35.5l40 -104q-33 -28 -84 -44t-108 -16q-120 0 -189 68zM213 727h162
v-141h-162v141z" />
    <glyph glyph-name="d" unicode="d" horiz-adv-x="613" 
d="M555 705v-705h-150v73q-22 -38 -62.5 -59.5t-91.5 -21.5q-63 0 -112.5 32.5t-77 91t-27.5 134.5t27.5 133.5t76.5 88.5t113 31q50 0 90.5 -21t62.5 -59v282h151zM376.5 143.5q28.5 36.5 28.5 104.5t-28.5 104t-81.5 36t-82 -35.5t-29 -102.5q0 -68 29 -105.5t82 -37.5
t81.5 36.5z" />
    <glyph glyph-name="eth" unicode="&#xf0;" horiz-adv-x="594" 
d="M538.5 430q22.5 -66 22.5 -133q0 -146 -71 -225.5t-202 -79.5q-75 0 -132.5 29t-89.5 82t-32 122q0 67 30.5 119t85 81.5t124.5 29.5q83 0 131 -42q-20 59 -62 103l-175 -48l-21 77l115 31q-49 28 -114 37l33 103q134 -19 230 -99l124 34l21 -77l-82 -22
q42 -56 64.5 -122zM375.5 137.5q28.5 30.5 28.5 87.5q0 58 -28 88t-82 30t-82 -30t-28 -88t28 -88t82 -30q53 0 81.5 30.5z" />
    <glyph glyph-name="dcaron" unicode="&#x10f;" horiz-adv-x="613" 
d="M404 705h151v-705h-150v73q-22 -38 -62.5 -59.5t-91.5 -21.5q-63 0 -112.5 32.5t-77 91t-27.5 134.5t27.5 133.5t76.5 88.5t113 31q50 0 90.5 -21t62.5 -59v282zM580 705h78l-26 -194h-52v194zM376.5 143.5q28.5 36.5 28.5 104.5t-28.5 104t-81.5 36t-82 -35.5
t-29 -102.5q0 -68 29 -105.5t82 -37.5t81.5 36.5z" />
    <glyph glyph-name="dcroat" unicode="&#x111;" horiz-adv-x="613" 
d="M640 533h-85v-533h-150v73q-22 -38 -62.5 -59.5t-91.5 -21.5q-63 0 -112.5 32.5t-77 91t-27.5 134.5t27.5 133.5t76.5 88.5t113 31q50 0 90.5 -21t62.5 -59v110h-186v104h186v68h151v-68h85v-104zM376.5 143.5q28.5 36.5 28.5 104.5t-28.5 104t-81.5 36t-82 -35.5
t-29 -102.5q0 -68 29 -105.5t82 -37.5t81.5 36.5z" />
    <glyph glyph-name="uni1E0D" unicode="&#x1e0d;" horiz-adv-x="613" 
d="M555 705v-705h-150v73q-22 -38 -62.5 -59.5t-91.5 -21.5q-63 0 -112.5 32.5t-77 91t-27.5 134.5t27.5 133.5t76.5 88.5t113 31q50 0 90.5 -21t62.5 -59v282h151zM376.5 143.5q28.5 36.5 28.5 104.5t-28.5 104t-81.5 36t-82 -35.5t-29 -102.5q0 -68 29 -105.5t82 -37.5
t81.5 36.5zM238 -67h138v-132h-138v132z" />
    <glyph glyph-name="uni1E0F" unicode="&#x1e0f;" horiz-adv-x="613" 
d="M555 705v-705h-150v73q-22 -38 -62.5 -59.5t-91.5 -21.5q-63 0 -112.5 32.5t-77 91t-27.5 134.5t27.5 133.5t76.5 88.5t113 31q50 0 90.5 -21t62.5 -59v282h151zM376.5 143.5q28.5 36.5 28.5 104.5t-28.5 104t-81.5 36t-82 -35.5t-29 -102.5q0 -68 29 -105.5t82 -37.5
t81.5 36.5zM150 -177v88h314v-88h-314z" />
    <glyph glyph-name="uni01C6" unicode="&#x1c6;" horiz-adv-x="1127" 
d="M555 705v-705h-150v73q-22 -38 -62.5 -59.5t-91.5 -21.5q-63 0 -112.5 32.5t-77 91t-27.5 134.5t27.5 133.5t76.5 88.5t113 31q50 0 90.5 -21t62.5 -59v282h151zM376.5 143.5q28.5 36.5 28.5 104.5t-28.5 104t-81.5 36t-82 -35.5t-29 -102.5q0 -68 29 -105.5t82 -37.5
t81.5 36.5zM836 113h258v-113h-435v105l244 273h-241v113h422v-101zM936 760h117l-130 -205h-90l-130 205h117l58 -116z" />
    <glyph glyph-name="e" unicode="e" horiz-adv-x="533" 
d="M500 217h-320q7 -59 38.5 -85.5t89.5 -26.5q38 0 75.5 12.5t68.5 35.5l40 -101q-36 -28 -87.5 -44t-103.5 -16q-124 0 -195.5 68.5t-71.5 186.5q0 75 31 133t86 90.5t125 32.5q103 0 163.5 -67t60.5 -182v-37zM211.5 371.5q-25.5 -27.5 -31.5 -79.5h193q-3 53 -26.5 80
t-66.5 27t-68.5 -27.5z" />
    <glyph glyph-name="eacute" unicode="&#xe9;" horiz-adv-x="533" 
d="M500 217h-320q7 -59 38.5 -85.5t89.5 -26.5q38 0 75.5 12.5t68.5 35.5l40 -101q-36 -28 -87.5 -44t-103.5 -16q-124 0 -195.5 68.5t-71.5 186.5q0 75 31 133t86 90.5t125 32.5q103 0 163.5 -67t60.5 -182v-37zM211.5 371.5q-25.5 -27.5 -31.5 -79.5h193q-3 53 -26.5 80
t-66.5 27t-68.5 -27.5zM323 555h-94l98 205h148z" />
    <glyph glyph-name="ebreve" unicode="&#x115;" horiz-adv-x="533" 
d="M500 217h-320q7 -59 38.5 -85.5t89.5 -26.5q38 0 75.5 12.5t68.5 35.5l40 -101q-36 -28 -87.5 -44t-103.5 -16q-124 0 -195.5 68.5t-71.5 186.5q0 75 31 133t86 90.5t125 32.5q103 0 163.5 -67t60.5 -182v-37zM211.5 371.5q-25.5 -27.5 -31.5 -79.5h193q-3 53 -26.5 80
t-66.5 27t-68.5 -27.5zM159.5 614.5q-51.5 37.5 -69.5 107.5l70 29q43 -79 116 -79t116 79l70 -29q-18 -70 -69.5 -107.5t-116.5 -37.5t-116.5 37.5z" />
    <glyph glyph-name="ecaron" unicode="&#x11b;" horiz-adv-x="533" 
d="M500 217h-320q7 -59 38.5 -85.5t89.5 -26.5q38 0 75.5 12.5t68.5 35.5l40 -101q-36 -28 -87.5 -44t-103.5 -16q-124 0 -195.5 68.5t-71.5 186.5q0 75 31 133t86 90.5t125 32.5q103 0 163.5 -67t60.5 -182v-37zM211.5 371.5q-25.5 -27.5 -31.5 -79.5h193q-3 53 -26.5 80
t-66.5 27t-68.5 -27.5zM334 760h117l-130 -205h-90l-130 205h117l58 -116z" />
    <glyph glyph-name="uni1E1D" unicode="&#x1e1d;" horiz-adv-x="533" 
d="M159.5 614.5q-51.5 37.5 -69.5 107.5l70 29q43 -79 116 -79t116 79l70 -29q-18 -70 -69.5 -107.5t-116.5 -37.5t-116.5 37.5zM500 217h-320q7 -59 38.5 -85.5t89.5 -26.5q38 0 75.5 12.5t68.5 35.5l40 -101q-31 -24 -75 -39.5t-91 -19.5l-4 -34q4 1 12 1q38 0 61 -18.5
t23 -50.5q0 -39 -35 -63.5t-100 -24.5q-22 0 -48 4.5t-46 13.5l12 58q45 -14 78 -14q46 0 46 26q0 19 -32 19q-18 0 -36 -6l-20 21l9 71q-100 15 -156 81t-56 170q0 75 31 133t86 90.5t125 32.5q103 0 163.5 -67t60.5 -182v-37zM211.5 371.5q-25.5 -27.5 -31.5 -79.5h193
q-3 53 -26.5 80t-66.5 27t-68.5 -27.5z" />
    <glyph glyph-name="ecircumflex" unicode="&#xea;" horiz-adv-x="533" 
d="M500 217h-320q7 -59 38.5 -85.5t89.5 -26.5q38 0 75.5 12.5t68.5 35.5l40 -101q-36 -28 -87.5 -44t-103.5 -16q-124 0 -195.5 68.5t-71.5 186.5q0 75 31 133t86 90.5t125 32.5q103 0 163.5 -67t60.5 -182v-37zM211.5 371.5q-25.5 -27.5 -31.5 -79.5h193q-3 53 -26.5 80
t-66.5 27t-68.5 -27.5zM218 555h-117l130 205h90l130 -205h-117l-58 116z" />
    <glyph glyph-name="uni1EBF" unicode="&#x1ebf;" horiz-adv-x="533" 
d="M500 217h-320q7 -59 38.5 -85.5t89.5 -26.5q38 0 75.5 12.5t68.5 35.5l40 -101q-36 -28 -87.5 -44t-103.5 -16q-124 0 -195.5 68.5t-71.5 186.5q0 75 31 133t86 90.5t125 32.5q103 0 163.5 -67t60.5 -182v-37zM211.5 371.5q-25.5 -27.5 -31.5 -79.5h193q-3 53 -26.5 80
t-66.5 27t-68.5 -27.5zM444 661h-74l72 142h125zM212 555h-111l132 138h86l132 -138h-111l-64 71z" />
    <glyph glyph-name="uni1EC7" unicode="&#x1ec7;" horiz-adv-x="533" 
d="M500 217h-320q7 -59 38.5 -85.5t89.5 -26.5q38 0 75.5 12.5t68.5 35.5l40 -101q-36 -28 -87.5 -44t-103.5 -16q-124 0 -195.5 68.5t-71.5 186.5q0 75 31 133t86 90.5t125 32.5q103 0 163.5 -67t60.5 -182v-37zM211.5 371.5q-25.5 -27.5 -31.5 -79.5h193q-3 53 -26.5 80
t-66.5 27t-68.5 -27.5zM228 -67h138v-132h-138v132zM218 555h-117l130 205h90l130 -205h-117l-58 116z" />
    <glyph glyph-name="uni1EC1" unicode="&#x1ec1;" horiz-adv-x="533" 
d="M500 217h-320q7 -59 38.5 -85.5t89.5 -26.5q38 0 75.5 12.5t68.5 35.5l40 -101q-36 -28 -87.5 -44t-103.5 -16q-124 0 -195.5 68.5t-71.5 186.5q0 75 31 133t86 90.5t125 32.5q103 0 163.5 -67t60.5 -182v-37zM211.5 371.5q-25.5 -27.5 -31.5 -79.5h193q-3 53 -26.5 80
t-66.5 27t-68.5 -27.5zM412 661l-122 142h125l71 -142h-74zM212 555h-111l132 138h86l132 -138h-111l-64 71z" />
    <glyph glyph-name="uni1EC3" unicode="&#x1ec3;" horiz-adv-x="533" 
d="M500 217h-320q7 -59 38.5 -85.5t89.5 -26.5q38 0 75.5 12.5t68.5 35.5l40 -101q-36 -28 -87.5 -44t-103.5 -16q-124 0 -195.5 68.5t-71.5 186.5q0 75 31 133t86 90.5t125 32.5q103 0 163.5 -67t60.5 -182v-37zM211.5 371.5q-25.5 -27.5 -31.5 -79.5h193q-3 53 -26.5 80
t-66.5 27t-68.5 -27.5zM444 662h-75v20q0 18 13 27.5t34 17.5q7 3 12.5 5.5t5.5 5.5q0 5 -8 9t-24 4q-25 0 -57 -11l-20 51q43 17 95 17q49 0 77.5 -16.5t28.5 -43.5q0 -19 -12 -29t-35 -19q-18 -8 -26.5 -14t-8.5 -16v-8zM212 555h-111l132 138h86l132 -138h-111l-64 71z
" />
    <glyph glyph-name="uni1EC5" unicode="&#x1ec5;" horiz-adv-x="533" 
d="M500 217h-320q7 -59 38.5 -85.5t89.5 -26.5q38 0 75.5 12.5t68.5 35.5l40 -101q-36 -28 -87.5 -44t-103.5 -16q-124 0 -195.5 68.5t-71.5 186.5q0 75 31 133t86 90.5t125 32.5q103 0 163.5 -67t60.5 -182v-37zM211.5 371.5q-25.5 -27.5 -31.5 -79.5h193q-3 53 -26.5 80
t-66.5 27t-68.5 -27.5zM134 786q32 30 77 30q16 0 30.5 -3.5t27.5 -8t18 -6.5q15 -6 29.5 -10.5t26.5 -4.5q39 0 42 30h65q0 -45 -32 -75t-77 -30q-16 0 -30.5 3.5t-27.5 8t-18 6.5q-15 6 -29.5 10.5t-26.5 4.5q-39 0 -42 -30h-65q0 45 32 75zM212 555h-111l132 138h86
l132 -138h-111l-64 71z" />
    <glyph glyph-name="uni0205" unicode="&#x205;" horiz-adv-x="533" 
d="M500 217h-320q7 -59 38.5 -85.5t89.5 -26.5q38 0 75.5 12.5t68.5 35.5l40 -101q-36 -28 -87.5 -44t-103.5 -16q-124 0 -195.5 68.5t-71.5 186.5q0 75 31 133t86 90.5t125 32.5q103 0 163.5 -67t60.5 -182v-37zM211.5 371.5q-25.5 -27.5 -31.5 -79.5h193q-3 53 -26.5 80
t-66.5 27t-68.5 -27.5zM174 555l-78 205h109l34 -205h-65zM313 555l-78 205h109l34 -205h-65z" />
    <glyph glyph-name="edieresis" unicode="&#xeb;" horiz-adv-x="533" 
d="M500 217h-320q7 -59 38.5 -85.5t89.5 -26.5q38 0 75.5 12.5t68.5 35.5l40 -101q-36 -28 -87.5 -44t-103.5 -16q-124 0 -195.5 68.5t-71.5 186.5q0 75 31 133t86 90.5t125 32.5q103 0 163.5 -67t60.5 -182v-37zM211.5 371.5q-25.5 -27.5 -31.5 -79.5h193q-3 53 -26.5 80
t-66.5 27t-68.5 -27.5zM111 722h139v-132h-139v132zM302 722h139v-132h-139v132z" />
    <glyph glyph-name="edotaccent" unicode="&#x117;" horiz-adv-x="533" 
d="M500 217h-320q7 -59 38.5 -85.5t89.5 -26.5q38 0 75.5 12.5t68.5 35.5l40 -101q-36 -28 -87.5 -44t-103.5 -16q-124 0 -195.5 68.5t-71.5 186.5q0 75 31 133t86 90.5t125 32.5q103 0 163.5 -67t60.5 -182v-37zM211.5 371.5q-25.5 -27.5 -31.5 -79.5h193q-3 53 -26.5 80
t-66.5 27t-68.5 -27.5zM195 727h162v-141h-162v141z" />
    <glyph glyph-name="uni1EB9" unicode="&#x1eb9;" horiz-adv-x="533" 
d="M500 217h-320q7 -59 38.5 -85.5t89.5 -26.5q38 0 75.5 12.5t68.5 35.5l40 -101q-36 -28 -87.5 -44t-103.5 -16q-124 0 -195.5 68.5t-71.5 186.5q0 75 31 133t86 90.5t125 32.5q103 0 163.5 -67t60.5 -182v-37zM211.5 371.5q-25.5 -27.5 -31.5 -79.5h193q-3 53 -26.5 80
t-66.5 27t-68.5 -27.5zM228 -67h138v-132h-138v132z" />
    <glyph glyph-name="egrave" unicode="&#xe8;" horiz-adv-x="533" 
d="M500 217h-320q7 -59 38.5 -85.5t89.5 -26.5q38 0 75.5 12.5t68.5 35.5l40 -101q-36 -28 -87.5 -44t-103.5 -16q-124 0 -195.5 68.5t-71.5 186.5q0 75 31 133t86 90.5t125 32.5q103 0 163.5 -67t60.5 -182v-37zM211.5 371.5q-25.5 -27.5 -31.5 -79.5h193q-3 53 -26.5 80
t-66.5 27t-68.5 -27.5zM229 555l-152 205h148l98 -205h-94z" />
    <glyph glyph-name="uni1EBB" unicode="&#x1ebb;" horiz-adv-x="533" 
d="M500 217h-320q7 -59 38.5 -85.5t89.5 -26.5q38 0 75.5 12.5t68.5 35.5l40 -101q-36 -28 -87.5 -44t-103.5 -16q-124 0 -195.5 68.5t-71.5 186.5q0 75 31 133t86 90.5t125 32.5q103 0 163.5 -67t60.5 -182v-37zM211.5 371.5q-25.5 -27.5 -31.5 -79.5h193q-3 53 -26.5 80
t-66.5 27t-68.5 -27.5zM315 555h-75v25q0 21 9.5 34.5t26.5 28.5q11 9 16.5 16t5.5 14q0 23 -33 23q-24 0 -50 -9l-21 57q41 18 86 18q55 0 85.5 -21.5t30.5 -53.5q0 -23 -12 -37.5t-35 -31.5q-17 -12 -25.5 -21.5t-8.5 -21.5v-20z" />
    <glyph glyph-name="uni0207" unicode="&#x207;" horiz-adv-x="533" 
d="M500 217h-320q7 -59 38.5 -85.5t89.5 -26.5q38 0 75.5 12.5t68.5 35.5l40 -101q-36 -28 -87.5 -44t-103.5 -16q-124 0 -195.5 68.5t-71.5 186.5q0 75 31 133t86 90.5t125 32.5q103 0 163.5 -67t60.5 -182v-37zM211.5 371.5q-25.5 -27.5 -31.5 -79.5h193q-3 53 -26.5 80
t-66.5 27t-68.5 -27.5zM392.5 710.5q51.5 -37.5 69.5 -107.5l-70 -30q-43 80 -116 80t-116 -80l-70 30q18 70 69.5 107.5t116.5 37.5t116.5 -37.5z" />
    <glyph glyph-name="emacron" unicode="&#x113;" horiz-adv-x="533" 
d="M500 217h-320q7 -59 38.5 -85.5t89.5 -26.5q38 0 75.5 12.5t68.5 35.5l40 -101q-36 -28 -87.5 -44t-103.5 -16q-124 0 -195.5 68.5t-71.5 186.5q0 75 31 133t86 90.5t125 32.5q103 0 163.5 -67t60.5 -182v-37zM211.5 371.5q-25.5 -27.5 -31.5 -79.5h193q-3 53 -26.5 80
t-66.5 27t-68.5 -27.5zM119 609v94h314v-94h-314z" />
    <glyph glyph-name="uni1E17" unicode="&#x1e17;" horiz-adv-x="533" 
d="M500 217h-320q7 -59 38.5 -85.5t89.5 -26.5q38 0 75.5 12.5t68.5 35.5l40 -101q-36 -28 -87.5 -44t-103.5 -16q-124 0 -195.5 68.5t-71.5 186.5q0 75 31 133t86 90.5t125 32.5q103 0 163.5 -67t60.5 -182v-37zM211.5 371.5q-25.5 -27.5 -31.5 -79.5h193q-3 53 -26.5 80
t-66.5 27t-68.5 -27.5zM119 609v94h314v-94h-314zM323 745h-94l98 205h148z" />
    <glyph glyph-name="uni1E15" unicode="&#x1e15;" horiz-adv-x="533" 
d="M500 217h-320q7 -59 38.5 -85.5t89.5 -26.5q38 0 75.5 12.5t68.5 35.5l40 -101q-36 -28 -87.5 -44t-103.5 -16q-124 0 -195.5 68.5t-71.5 186.5q0 75 31 133t86 90.5t125 32.5q103 0 163.5 -67t60.5 -182v-37zM211.5 371.5q-25.5 -27.5 -31.5 -79.5h193q-3 53 -26.5 80
t-66.5 27t-68.5 -27.5zM119 609v94h314v-94h-314zM229 745l-152 205h148l98 -205h-94z" />
    <glyph glyph-name="eogonek" unicode="&#x119;" horiz-adv-x="533" 
d="M500 217h-320q7 -59 38.5 -85.5t89.5 -26.5q38 0 75.5 12.5t68.5 35.5l40 -101q-14 -11 -57 -32q-41 -20 -58 -39.5t-17 -45.5t15.5 -40t44.5 -14q23 0 54 13l17 -71q-46 -20 -100 -20q-56 0 -91.5 31t-35.5 79q0 46 33 79q-123 1 -193 69.5t-70 185.5q0 75 31 133
t86 90.5t125 32.5q103 0 163.5 -67t60.5 -182v-37zM212 371q-26 -28 -32 -79h193q-3 53 -26.5 80t-66.5 27q-42 0 -68 -28z" />
    <glyph glyph-name="uni1EBD" unicode="&#x1ebd;" horiz-adv-x="533" 
d="M500 217h-320q7 -59 38.5 -85.5t89.5 -26.5q38 0 75.5 12.5t68.5 35.5l40 -101q-36 -28 -87.5 -44t-103.5 -16q-124 0 -195.5 68.5t-71.5 186.5q0 75 31 133t86 90.5t125 32.5q103 0 163.5 -67t60.5 -182v-37zM211.5 371.5q-25.5 -27.5 -31.5 -79.5h193q-3 53 -26.5 80
t-66.5 27t-68.5 -27.5zM132.5 696q30.5 37 78.5 37q18 0 34.5 -7t41.5 -22q19 -12 31.5 -18t24.5 -6q19 0 29.5 13.5t12.5 36.5h65q0 -72 -30.5 -109t-78.5 -37q-18 0 -34.5 7t-41.5 22q-20 12 -32 17.5t-24 5.5q-19 0 -29.5 -13t-12.5 -36h-65q0 72 30.5 109z" />
    <glyph glyph-name="uni0259" unicode="&#x259;" horiz-adv-x="533" 
d="M378 472q58 -31 89.5 -89t31.5 -135q0 -76 -29.5 -134t-82.5 -90t-122 -32q-108 0 -170 66t-62 181v39h321q-7 58 -36 85t-85 27q-70 0 -152 -49l-40 101q38 29 91.5 45t110.5 16q77 0 135 -31zM326 123q25 27 30 79h-192q8 -106 94 -106q43 0 68 27z" />
    <glyph glyph-name="f" unicode="f" horiz-adv-x="376" 
d="M248 491h123v-113h-123v-378h-151v378h-93v113h93q2 104 60.5 156.5t178.5 59.5l55 3l9 -111l-47 -2q-58 -2 -81.5 -21.5t-23.5 -64.5v-20z" />
    <glyph glyph-name="g" unicode="g" horiz-adv-x="617" 
d="M559 491v-438q0 -119 -68 -180t-201 -61q-66 0 -126.5 16t-106.5 45l40 104q95 -52 189 -52q124 0 124 117v54q-21 -38 -63 -60t-94 -22q-64 0 -113.5 30t-77.5 85.5t-28 128.5t28 128.5t77.5 86t113.5 30.5q51 0 92.5 -21.5t63.5 -59.5v69h150zM379.5 163
q29.5 34 29.5 95t-29.5 95.5t-82.5 34.5t-83 -34.5t-30 -95.5q0 -60 30 -94.5t83 -34.5t82.5 34z" />
    <glyph glyph-name="gbreve" unicode="&#x11f;" horiz-adv-x="617" 
d="M559 491v-438q0 -119 -68 -180t-201 -61q-66 0 -126.5 16t-106.5 45l40 104q95 -52 189 -52q124 0 124 117v54q-21 -38 -63 -60t-94 -22q-64 0 -113.5 30t-77.5 85.5t-28 128.5t28 128.5t77.5 86t113.5 30.5q51 0 92.5 -21.5t63.5 -59.5v69h150zM379.5 163
q29.5 34 29.5 95t-29.5 95.5t-82.5 34.5t-83 -34.5t-30 -95.5q0 -60 30 -94.5t83 -34.5t82.5 34zM192.5 614.5q-51.5 37.5 -69.5 107.5l70 29q43 -79 116 -79t116 79l70 -29q-18 -70 -69.5 -107.5t-116.5 -37.5t-116.5 37.5z" />
    <glyph glyph-name="gcaron" unicode="&#x1e7;" horiz-adv-x="617" 
d="M559 491v-438q0 -119 -68 -180t-201 -61q-66 0 -126.5 16t-106.5 45l40 104q95 -52 189 -52q124 0 124 117v54q-21 -38 -63 -60t-94 -22q-64 0 -113.5 30t-77.5 85.5t-28 128.5t28 128.5t77.5 86t113.5 30.5q51 0 92.5 -21.5t63.5 -59.5v69h150zM379.5 163
q29.5 34 29.5 95t-29.5 95.5t-82.5 34.5t-83 -34.5t-30 -95.5q0 -60 30 -94.5t83 -34.5t82.5 34zM367 760h117l-130 -205h-90l-130 205h117l58 -116z" />
    <glyph glyph-name="gcircumflex" unicode="&#x11d;" horiz-adv-x="617" 
d="M559 491v-438q0 -119 -68 -180t-201 -61q-66 0 -126.5 16t-106.5 45l40 104q95 -52 189 -52q124 0 124 117v54q-21 -38 -63 -60t-94 -22q-64 0 -113.5 30t-77.5 85.5t-28 128.5t28 128.5t77.5 86t113.5 30.5q51 0 92.5 -21.5t63.5 -59.5v69h150zM379.5 163
q29.5 34 29.5 95t-29.5 95.5t-82.5 34.5t-83 -34.5t-30 -95.5q0 -60 30 -94.5t83 -34.5t82.5 34zM251 555h-117l130 205h90l130 -205h-117l-58 116z" />
    <glyph glyph-name="gcommaaccent" unicode="&#x123;" horiz-adv-x="617" 
d="M559 491v-438q0 -119 -68 -180t-201 -61q-66 0 -126.5 16t-106.5 45l40 104q95 -52 189 -52q124 0 124 117v54q-21 -38 -63 -60t-94 -22q-64 0 -113.5 30t-77.5 85.5t-28 128.5t28 128.5t77.5 86t113.5 30.5q51 0 92.5 -21.5t63.5 -59.5v69h150zM379.5 163
q29.5 34 29.5 95t-29.5 95.5t-82.5 34.5t-83 -34.5t-30 -95.5q0 -60 30 -94.5t83 -34.5t82.5 34zM383 698v-114h-149v64q0 47 13.5 81t46.5 64l54 -37q-29 -26 -35 -58h70z" />
    <glyph glyph-name="gdotaccent" unicode="&#x121;" horiz-adv-x="617" 
d="M559 491v-438q0 -119 -68 -180t-201 -61q-66 0 -126.5 16t-106.5 45l40 104q95 -52 189 -52q124 0 124 117v54q-21 -38 -63 -60t-94 -22q-64 0 -113.5 30t-77.5 85.5t-28 128.5t28 128.5t77.5 86t113.5 30.5q51 0 92.5 -21.5t63.5 -59.5v69h150zM379.5 163
q29.5 34 29.5 95t-29.5 95.5t-82.5 34.5t-83 -34.5t-30 -95.5q0 -60 30 -94.5t83 -34.5t82.5 34zM228 727h162v-141h-162v141z" />
    <glyph glyph-name="uni1E21" unicode="&#x1e21;" horiz-adv-x="617" 
d="M559 491v-438q0 -119 -68 -180t-201 -61q-66 0 -126.5 16t-106.5 45l40 104q95 -52 189 -52q124 0 124 117v54q-21 -38 -63 -60t-94 -22q-64 0 -113.5 30t-77.5 85.5t-28 128.5t28 128.5t77.5 86t113.5 30.5q51 0 92.5 -21.5t63.5 -59.5v69h150zM379.5 163
q29.5 34 29.5 95t-29.5 95.5t-82.5 34.5t-83 -34.5t-30 -95.5q0 -60 30 -94.5t83 -34.5t82.5 34zM152 609v94h314v-94h-314z" />
    <glyph glyph-name="h" unicode="h" horiz-adv-x="595" 
d="M497 451.5q43 -51.5 43 -155.5v-296h-151v289q0 50 -18.5 73t-57.5 23q-47 0 -75.5 -30t-28.5 -80v-275h-151v705h151v-279q26 38 66.5 57.5t90.5 19.5q88 0 131 -51.5z" />
    <glyph glyph-name="hbar" unicode="&#x127;" horiz-adv-x="595" 
d="M497 451.5q43 -51.5 43 -155.5v-296h-151v289q0 50 -18.5 73t-57.5 23q-47 0 -75.5 -30t-28.5 -80v-275h-151v533h-85v104h85v68h151v-68h186v-104h-186v-107q26 38 66.5 57.5t90.5 19.5q88 0 131 -51.5z" />
    <glyph glyph-name="uni1E2B" unicode="&#x1e2b;" horiz-adv-x="595" 
d="M497 451.5q43 -51.5 43 -155.5v-296h-151v289q0 50 -18.5 73t-57.5 23q-47 0 -75.5 -30t-28.5 -80v-275h-151v705h151v-279q26 38 66.5 57.5t90.5 19.5q88 0 131 -51.5zM182.5 -190q-51.5 37 -69.5 108l70 29q43 -79 116 -79t116 79l70 -29q-18 -71 -69.5 -108
t-116.5 -37t-116.5 37z" />
    <glyph glyph-name="hcircumflex" unicode="&#x125;" horiz-adv-x="595" 
d="M497 451.5q43 -51.5 43 -155.5v-296h-151v289q0 50 -18.5 73t-57.5 23q-47 0 -75.5 -30t-28.5 -80v-275h-151v705h151v-279q26 38 66.5 57.5t90.5 19.5q88 0 131 -51.5zM74 765h-113l132 156h86l132 -156h-113l-62 85z" />
    <glyph glyph-name="uni1E25" unicode="&#x1e25;" horiz-adv-x="595" 
d="M497 451.5q43 -51.5 43 -155.5v-296h-151v289q0 50 -18.5 73t-57.5 23q-47 0 -75.5 -30t-28.5 -80v-275h-151v705h151v-279q26 38 66.5 57.5t90.5 19.5q88 0 131 -51.5zM230 -67h138v-132h-138v132z" />
    <glyph glyph-name="i" unicode="i" horiz-adv-x="267" 
d="M58 0v491h151v-491h-151zM53 727h162v-141h-162v141z" />
    <glyph glyph-name="dotlessi" unicode="&#x131;" horiz-adv-x="267" 
d="M58 0v491h151v-491h-151z" />
    <glyph glyph-name="iacute" unicode="&#xed;" horiz-adv-x="267" 
d="M58 0v491h151v-491h-151zM181 555h-94l98 205h148z" />
    <glyph glyph-name="ibreve" unicode="&#x12d;" horiz-adv-x="267" 
d="M58 0v491h151v-491h-151zM17.5 614.5q-51.5 37.5 -69.5 107.5l70 29q43 -79 116 -79t116 79l70 -29q-18 -70 -69.5 -107.5t-116.5 -37.5t-116.5 37.5z" />
    <glyph glyph-name="icircumflex" unicode="&#xee;" horiz-adv-x="267" 
d="M58 0v491h151v-491h-151zM76 555h-117l130 205h90l130 -205h-117l-58 116z" />
    <glyph glyph-name="uni0209" unicode="&#x209;" horiz-adv-x="267" 
d="M58 0v491h151v-491h-151zM32 555l-78 205h109l34 -205h-65zM171 555l-78 205h109l34 -205h-65z" />
    <glyph glyph-name="idieresis" unicode="&#xef;" horiz-adv-x="267" 
d="M58 0v491h151v-491h-151zM-31 722h139v-132h-139v132zM160 722h139v-132h-139v132z" />
    <glyph glyph-name="uni1E2F" unicode="&#x1e2f;" horiz-adv-x="267" 
d="M58 0v491h151v-491h-151zM-31 722h139v-132h-139v132zM160 722h139v-132h-139v132zM181 745h-94l98 205h148z" />
    <glyph glyph-name="i.loclTRK" horiz-adv-x="267" 
d="M58 0v491h151v-491h-151zM53 727h162v-141h-162v141z" />
    <glyph glyph-name="uni1ECB" unicode="&#x1ecb;" horiz-adv-x="267" 
d="M58 0v491h151v-491h-151zM53 727h162v-141h-162v141zM65 -67h138v-132h-138v132z" />
    <glyph glyph-name="igrave" unicode="&#xec;" horiz-adv-x="267" 
d="M58 0v491h151v-491h-151zM87 555l-152 205h148l98 -205h-94z" />
    <glyph glyph-name="uni1EC9" unicode="&#x1ec9;" horiz-adv-x="267" 
d="M58 0v491h151v-491h-151zM173 555h-75v25q0 21 9.5 34.5t26.5 28.5q11 9 16.5 16t5.5 14q0 23 -33 23q-24 0 -50 -9l-21 57q41 18 86 18q55 0 85.5 -21.5t30.5 -53.5q0 -23 -12 -37.5t-35 -31.5q-17 -12 -25.5 -21.5t-8.5 -21.5v-20z" />
    <glyph glyph-name="uni020B" unicode="&#x20b;" horiz-adv-x="267" 
d="M58 0v491h151v-491h-151zM250.5 710.5q51.5 -37.5 69.5 -107.5l-70 -30q-43 80 -116 80t-116 -80l-70 30q18 70 69.5 107.5t116.5 37.5t116.5 -37.5z" />
    <glyph glyph-name="imacron" unicode="&#x12b;" horiz-adv-x="267" 
d="M58 0v491h151v-491h-151zM-23 609v94h314v-94h-314z" />
    <glyph glyph-name="iogonek" unicode="&#x12f;" horiz-adv-x="267" 
d="M214 727v-141h-161v141h161zM247 -177q-46 -20 -100 -20q-55 0 -91.5 30.5t-36.5 81.5t39 87v489h151v-491h-9q-38 0 -61 -18.5t-23 -46.5q0 -26 15.5 -40t44.5 -14q23 0 54 13z" />
    <glyph glyph-name="itilde" unicode="&#x129;" horiz-adv-x="267" 
d="M58 0v491h151v-491h-151zM-9.5 696q30.5 37 78.5 37q18 0 34.5 -7t41.5 -22q19 -12 31.5 -18t24.5 -6q19 0 29.5 13.5t12.5 36.5h65q0 -72 -30.5 -109t-78.5 -37q-18 0 -34.5 7t-41.5 22q-20 12 -32 17.5t-24 5.5q-19 0 -29.5 -13t-12.5 -36h-65q0 72 30.5 109z" />
    <glyph glyph-name="j" unicode="j" horiz-adv-x="267" 
d="M209 32q0 -75 -22 -120t-70.5 -67.5t-131.5 -27.5l-47 -3l-11 108l51 4q43 3 61.5 21t18.5 57v487h151v-459zM52 727h162v-141h-162v141z" />
    <glyph glyph-name="uni0237" unicode="&#x237;" horiz-adv-x="267" 
d="M209 32q0 -75 -22 -120t-70.5 -67.5t-131.5 -27.5l-47 -3l-11 108l51 4q43 3 61.5 21t18.5 57v487h151v-459z" />
    <glyph glyph-name="jcircumflex" unicode="&#x135;" horiz-adv-x="267" 
d="M209 32q0 -75 -22 -120t-70.5 -67.5t-131.5 -27.5l-47 -3l-11 108l51 4q43 3 61.5 21t18.5 57v487h151v-459zM75 555h-117l130 205h90l130 -205h-117l-58 116z" />
    <glyph glyph-name="k" unicode="k" horiz-adv-x="558" 
d="M582 0h-185l-188 219v-219h-151v705h151v-424l181 209h180l-206 -234z" />
    <glyph glyph-name="kcommaaccent" unicode="&#x137;" horiz-adv-x="558" 
d="M582 0h-185l-188 219v-219h-151v705h151v-424l181 209h180l-206 -234zM353 -65v-65q0 -46 -13.5 -81t-46.5 -64l-54 37q29 27 35 59h-70v114h149z" />
    <glyph glyph-name="kgreenlandic" unicode="&#x138;" horiz-adv-x="558" 
d="M582 0h-185l-188 219v-219h-151v491h151v-210l181 209h180l-206 -234z" />
    <glyph glyph-name="l" unicode="l" horiz-adv-x="267" 
d="M58 0v705h151v-705h-151z" />
    <glyph glyph-name="lacute" unicode="&#x13a;" horiz-adv-x="267" 
d="M58 0v705h151v-705h-151zM181 765h-94l103 156h140z" />
    <glyph glyph-name="lcaron" unicode="&#x13e;" horiz-adv-x="267" 
d="M58 0v705h151v-705h-151zM287 511h-52v194h78z" />
    <glyph glyph-name="lcommaaccent" unicode="&#x13c;" horiz-adv-x="267" 
d="M58 0v705h151v-705h-151zM208 -65v-65q0 -46 -13.5 -81t-46.5 -64l-54 37q29 27 35 59h-70v114h149z" />
    <glyph glyph-name="ldot" unicode="&#x140;" horiz-adv-x="374" 
d="M58 0v705h151v-705h-151zM240 422h162v-140h-162v140z" />
    <glyph glyph-name="uni1E37" unicode="&#x1e37;" horiz-adv-x="267" 
d="M58 0v705h151v-705h-151zM65 -67h138v-132h-138v132z" />
    <glyph glyph-name="uni01C9" unicode="&#x1c9;" horiz-adv-x="534" 
d="M58 0v705h151v-705h-151zM476 32q0 -75 -22 -120t-70.5 -67.5t-131.5 -27.5l-47 -3l-11 108l51 4q43 3 61.5 21t18.5 57v487h151v-459zM319 727h162v-141h-162v141z" />
    <glyph glyph-name="uni1E3B" unicode="&#x1e3b;" horiz-adv-x="267" 
d="M58 0v705h151v-705h-151zM-23 -177v88h314v-88h-314z" />
    <glyph glyph-name="lslash" unicode="&#x142;" horiz-adv-x="351" 
d="M367 398l-116 -67v-331h-151v244l-60 -35l-56 101l116 67v328h151v-241l60 35z" />
    <glyph glyph-name="m" unicode="m" horiz-adv-x="885" 
d="M788 452q41 -51 41 -156v-296h-151v291q0 50 -15.5 72t-52.5 22q-43 0 -67 -30t-24 -84v-271h-151v291q0 50 -15.5 72t-52.5 22q-43 0 -67 -30t-24 -84v-271h-151v491h147v-66q23 38 61.5 58t88.5 20q109 0 146 -91q24 42 67 66.5t95 24.5q84 0 125 -51z" />
    <glyph glyph-name="uni1E43" unicode="&#x1e43;" horiz-adv-x="885" 
d="M788 452q41 -51 41 -156v-296h-151v291q0 50 -15.5 72t-52.5 22q-43 0 -67 -30t-24 -84v-271h-151v291q0 50 -15.5 72t-52.5 22q-43 0 -67 -30t-24 -84v-271h-151v491h147v-66q23 38 61.5 58t88.5 20q109 0 146 -91q24 42 67 66.5t95 24.5q84 0 125 -51zM375 -67h138
v-132h-138v132z" />
    <glyph glyph-name="n" unicode="n" horiz-adv-x="595" 
d="M497 451.5q43 -51.5 43 -155.5v-296h-151v289q0 50 -18.5 73t-57.5 23q-47 0 -75.5 -30t-28.5 -80v-275h-151v491h147v-70q26 40 67.5 61t93.5 21q88 0 131 -51.5z" />
    <glyph glyph-name="nacute" unicode="&#x144;" horiz-adv-x="595" 
d="M497 451.5q43 -51.5 43 -155.5v-296h-151v289q0 50 -18.5 73t-57.5 23q-47 0 -75.5 -30t-28.5 -80v-275h-151v491h147v-70q26 40 67.5 61t93.5 21q88 0 131 -51.5zM346 555h-94l98 205h148z" />
    <glyph glyph-name="napostrophe" unicode="&#x149;" horiz-adv-x="595" 
d="M222 760v-65q0 -46 -13.5 -81t-46.5 -64l-54 37q29 27 35 59h-70v114h149zM497 451.5q43 -51.5 43 -155.5v-296h-151v289q0 50 -18.5 73t-57.5 23q-47 0 -75.5 -30t-28.5 -80v-275h-151v491h147v-70q26 40 67.5 61t93.5 21q88 0 131 -51.5z" />
    <glyph glyph-name="ncaron" unicode="&#x148;" horiz-adv-x="595" 
d="M497 451.5q43 -51.5 43 -155.5v-296h-151v289q0 50 -18.5 73t-57.5 23q-47 0 -75.5 -30t-28.5 -80v-275h-151v491h147v-70q26 40 67.5 61t93.5 21q88 0 131 -51.5zM357 760h117l-130 -205h-90l-130 205h117l58 -116z" />
    <glyph glyph-name="ncommaaccent" unicode="&#x146;" horiz-adv-x="595" 
d="M497 451.5q43 -51.5 43 -155.5v-296h-151v289q0 50 -18.5 73t-57.5 23q-47 0 -75.5 -30t-28.5 -80v-275h-151v491h147v-70q26 40 67.5 61t93.5 21q88 0 131 -51.5zM373 -65v-65q0 -46 -13.5 -81t-46.5 -64l-54 37q29 27 35 59h-70v114h149z" />
    <glyph glyph-name="uni1E45" unicode="&#x1e45;" horiz-adv-x="595" 
d="M497 451.5q43 -51.5 43 -155.5v-296h-151v289q0 50 -18.5 73t-57.5 23q-47 0 -75.5 -30t-28.5 -80v-275h-151v491h147v-70q26 40 67.5 61t93.5 21q88 0 131 -51.5zM218 727h162v-141h-162v141z" />
    <glyph glyph-name="uni1E47" unicode="&#x1e47;" horiz-adv-x="595" 
d="M497 451.5q43 -51.5 43 -155.5v-296h-151v289q0 50 -18.5 73t-57.5 23q-47 0 -75.5 -30t-28.5 -80v-275h-151v491h147v-70q26 40 67.5 61t93.5 21q88 0 131 -51.5zM230 -67h138v-132h-138v132z" />
    <glyph glyph-name="eng" unicode="&#x14b;" horiz-adv-x="595" 
d="M540 296v-263q0 -75 -22 -120t-70.5 -67.5t-131.5 -27.5l-48 -3l-9 108l50 4q43 3 61.5 21t18.5 57v284q0 51 -18.5 73.5t-57.5 22.5q-47 0 -75.5 -30t-28.5 -80v-275h-151v491h147v-70q26 40 67.5 61t93.5 21q174 0 174 -207z" />
    <glyph glyph-name="uni01CC" unicode="&#x1cc;" horiz-adv-x="862" 
d="M497 451.5q43 -51.5 43 -155.5v-296h-151v289q0 50 -18.5 73t-57.5 23q-47 0 -75.5 -30t-28.5 -80v-275h-151v491h147v-70q26 40 67.5 61t93.5 21q88 0 131 -51.5zM804 32q0 -75 -22 -120t-70.5 -67.5t-131.5 -27.5l-47 -3l-11 108l51 4q43 3 61.5 21t18.5 57v487h151
v-459zM647 727h162v-141h-162v141z" />
    <glyph glyph-name="uni1E49" unicode="&#x1e49;" horiz-adv-x="595" 
d="M497 451.5q43 -51.5 43 -155.5v-296h-151v289q0 50 -18.5 73t-57.5 23q-47 0 -75.5 -30t-28.5 -80v-275h-151v491h147v-70q26 40 67.5 61t93.5 21q88 0 131 -51.5zM142 -177v88h314v-88h-314z" />
    <glyph glyph-name="ntilde" unicode="&#xf1;" horiz-adv-x="595" 
d="M497 451.5q43 -51.5 43 -155.5v-296h-151v289q0 50 -18.5 73t-57.5 23q-47 0 -75.5 -30t-28.5 -80v-275h-151v491h147v-70q26 40 67.5 61t93.5 21q88 0 131 -51.5zM155.5 696q30.5 37 78.5 37q18 0 34.5 -7t41.5 -22q19 -12 31.5 -18t24.5 -6q19 0 29.5 13.5t12.5 36.5
h65q0 -72 -30.5 -109t-78.5 -37q-18 0 -34.5 7t-41.5 22q-20 12 -32 17.5t-24 5.5q-19 0 -29.5 -13t-12.5 -36h-65q0 72 30.5 109z" />
    <glyph glyph-name="o" unicode="o" horiz-adv-x="588" 
d="M157 23.5q-59 31.5 -91 89t-32 135.5t32 135.5t91 88.5t137 31t137 -31t91 -88.5t32 -135.5t-32 -135.5t-91 -89t-137 -31.5t-137 31.5zM404 248q0 71 -28.5 106t-81.5 35q-110 0 -110 -141t110 -141t110 141z" />
    <glyph glyph-name="oacute" unicode="&#xf3;" horiz-adv-x="588" 
d="M157 23.5q-59 31.5 -91 89t-32 135.5t32 135.5t91 88.5t137 31t137 -31t91 -88.5t32 -135.5t-32 -135.5t-91 -89t-137 -31.5t-137 31.5zM404 248q0 71 -28.5 106t-81.5 35q-110 0 -110 -141t110 -141t110 141zM341 555h-94l98 205h148z" />
    <glyph glyph-name="obreve" unicode="&#x14f;" horiz-adv-x="588" 
d="M157 23.5q-59 31.5 -91 89t-32 135.5t32 135.5t91 88.5t137 31t137 -31t91 -88.5t32 -135.5t-32 -135.5t-91 -89t-137 -31.5t-137 31.5zM404 248q0 71 -28.5 106t-81.5 35q-110 0 -110 -141t110 -141t110 141zM177.5 614.5q-51.5 37.5 -69.5 107.5l70 29q43 -79 116 -79
t116 79l70 -29q-18 -70 -69.5 -107.5t-116.5 -37.5t-116.5 37.5z" />
    <glyph glyph-name="ocircumflex" unicode="&#xf4;" horiz-adv-x="588" 
d="M157 23.5q-59 31.5 -91 89t-32 135.5t32 135.5t91 88.5t137 31t137 -31t91 -88.5t32 -135.5t-32 -135.5t-91 -89t-137 -31.5t-137 31.5zM404 248q0 71 -28.5 106t-81.5 35q-110 0 -110 -141t110 -141t110 141zM236 555h-117l130 205h90l130 -205h-117l-58 116z" />
    <glyph glyph-name="uni1ED1" unicode="&#x1ed1;" horiz-adv-x="588" 
d="M157 23.5q-59 31.5 -91 89t-32 135.5t32 135.5t91 88.5t137 31t137 -31t91 -88.5t32 -135.5t-32 -135.5t-91 -89t-137 -31.5t-137 31.5zM404 248q0 71 -28.5 106t-81.5 35q-110 0 -110 -141t110 -141t110 141zM462 661h-74l72 142h125zM230 555h-111l132 138h86l132 -138
h-111l-64 71z" />
    <glyph glyph-name="uni1ED9" unicode="&#x1ed9;" horiz-adv-x="588" 
d="M157 23.5q-59 31.5 -91 89t-32 135.5t32 135.5t91 88.5t137 31t137 -31t91 -88.5t32 -135.5t-32 -135.5t-91 -89t-137 -31.5t-137 31.5zM404 248q0 71 -28.5 106t-81.5 35q-110 0 -110 -141t110 -141t110 141zM225 -67h138v-132h-138v132zM236 555h-117l130 205h90
l130 -205h-117l-58 116z" />
    <glyph glyph-name="uni1ED3" unicode="&#x1ed3;" horiz-adv-x="588" 
d="M157 23.5q-59 31.5 -91 89t-32 135.5t32 135.5t91 88.5t137 31t137 -31t91 -88.5t32 -135.5t-32 -135.5t-91 -89t-137 -31.5t-137 31.5zM404 248q0 71 -28.5 106t-81.5 35q-110 0 -110 -141t110 -141t110 141zM430 661l-122 142h125l71 -142h-74zM230 555h-111l132 138
h86l132 -138h-111l-64 71z" />
    <glyph glyph-name="uni1ED5" unicode="&#x1ed5;" horiz-adv-x="588" 
d="M157 23.5q-59 31.5 -91 89t-32 135.5t32 135.5t91 88.5t137 31t137 -31t91 -88.5t32 -135.5t-32 -135.5t-91 -89t-137 -31.5t-137 31.5zM404 248q0 71 -28.5 106t-81.5 35q-110 0 -110 -141t110 -141t110 141zM462 662h-75v20q0 18 13 27.5t34 17.5q7 3 12.5 5.5t5.5 5.5
q0 5 -8 9t-24 4q-25 0 -57 -11l-20 51q43 17 95 17q49 0 77.5 -16.5t28.5 -43.5q0 -19 -12 -29t-35 -19q-18 -8 -26.5 -14t-8.5 -16v-8zM230 555h-111l132 138h86l132 -138h-111l-64 71z" />
    <glyph glyph-name="uni1ED7" unicode="&#x1ed7;" horiz-adv-x="588" 
d="M157 23.5q-59 31.5 -91 89t-32 135.5t32 135.5t91 88.5t137 31t137 -31t91 -88.5t32 -135.5t-32 -135.5t-91 -89t-137 -31.5t-137 31.5zM404 248q0 71 -28.5 106t-81.5 35q-110 0 -110 -141t110 -141t110 141zM152 786q32 30 77 30q16 0 30.5 -3.5t27.5 -8t18 -6.5
q15 -6 29.5 -10.5t26.5 -4.5q39 0 42 30h65q0 -45 -32 -75t-77 -30q-16 0 -30.5 3.5t-27.5 8t-18 6.5q-15 6 -29.5 10.5t-26.5 4.5q-39 0 -42 -30h-65q0 45 32 75zM230 555h-111l132 138h86l132 -138h-111l-64 71z" />
    <glyph glyph-name="uni020D" unicode="&#x20d;" horiz-adv-x="588" 
d="M157 23.5q-59 31.5 -91 89t-32 135.5t32 135.5t91 88.5t137 31t137 -31t91 -88.5t32 -135.5t-32 -135.5t-91 -89t-137 -31.5t-137 31.5zM404 248q0 71 -28.5 106t-81.5 35q-110 0 -110 -141t110 -141t110 141zM192 555l-78 205h109l34 -205h-65zM331 555l-78 205h109
l34 -205h-65z" />
    <glyph glyph-name="odieresis" unicode="&#xf6;" horiz-adv-x="588" 
d="M157 23.5q-59 31.5 -91 89t-32 135.5t32 135.5t91 88.5t137 31t137 -31t91 -88.5t32 -135.5t-32 -135.5t-91 -89t-137 -31.5t-137 31.5zM404 248q0 71 -28.5 106t-81.5 35q-110 0 -110 -141t110 -141t110 141zM129 722h139v-132h-139v132zM320 722h139v-132h-139v132z
" />
    <glyph glyph-name="uni022B" unicode="&#x22b;" horiz-adv-x="588" 
d="M157 23.5q-59 31.5 -91 89t-32 135.5t32 135.5t91 88.5t137 31t137 -31t91 -88.5t32 -135.5t-32 -135.5t-91 -89t-137 -31.5t-137 31.5zM404 248q0 71 -28.5 106t-81.5 35q-110 0 -110 -141t110 -141t110 141zM129 722h139v-132h-139v132zM320 722h139v-132h-139v132z
M137 799v94h314v-94h-314z" />
    <glyph glyph-name="uni0231" unicode="&#x231;" horiz-adv-x="588" 
d="M157 23.5q-59 31.5 -91 89t-32 135.5t32 135.5t91 88.5t137 31t137 -31t91 -88.5t32 -135.5t-32 -135.5t-91 -89t-137 -31.5t-137 31.5zM404 248q0 71 -28.5 106t-81.5 35q-110 0 -110 -141t110 -141t110 141zM213 727h162v-141h-162v141zM137 799v94h314v-94h-314z" />
    <glyph glyph-name="uni1ECD" unicode="&#x1ecd;" horiz-adv-x="588" 
d="M157 23.5q-59 31.5 -91 89t-32 135.5t32 135.5t91 88.5t137 31t137 -31t91 -88.5t32 -135.5t-32 -135.5t-91 -89t-137 -31.5t-137 31.5zM404 248q0 71 -28.5 106t-81.5 35q-110 0 -110 -141t110 -141t110 141zM225 -67h138v-132h-138v132z" />
    <glyph glyph-name="ograve" unicode="&#xf2;" horiz-adv-x="588" 
d="M157 23.5q-59 31.5 -91 89t-32 135.5t32 135.5t91 88.5t137 31t137 -31t91 -88.5t32 -135.5t-32 -135.5t-91 -89t-137 -31.5t-137 31.5zM404 248q0 71 -28.5 106t-81.5 35q-110 0 -110 -141t110 -141t110 141zM247 555l-152 205h148l98 -205h-94z" />
    <glyph glyph-name="uni1ECF" unicode="&#x1ecf;" horiz-adv-x="588" 
d="M157 23.5q-59 31.5 -91 89t-32 135.5t32 135.5t91 88.5t137 31t137 -31t91 -88.5t32 -135.5t-32 -135.5t-91 -89t-137 -31.5t-137 31.5zM404 248q0 71 -28.5 106t-81.5 35q-110 0 -110 -141t110 -141t110 141zM333 555h-75v25q0 21 9.5 34.5t26.5 28.5q11 9 16.5 16
t5.5 14q0 23 -33 23q-24 0 -50 -9l-21 57q41 18 86 18q55 0 85.5 -21.5t30.5 -53.5q0 -23 -12 -37.5t-35 -31.5q-17 -12 -25.5 -21.5t-8.5 -21.5v-20z" />
    <glyph glyph-name="ohorn" unicode="&#x1a1;" horiz-adv-x="588" 
d="M552.5 486.5q-25.5 -39.5 -69.5 -55.5q35 -33 53 -80.5t18 -103.5q0 -77 -32 -135t-91 -89t-137 -31t-137 31t-91 89t-32 135q0 78 32 136t90 89t135 31q25 0 61 -6l22 -2q34 0 54 21.5t20 79.5v20h130v-38q0 -52 -25.5 -91.5zM404 248q0 71 -28.5 106t-81.5 35
q-110 0 -110 -141t110 -141t110 141z" />
    <glyph glyph-name="uni1EDB" unicode="&#x1edb;" horiz-adv-x="588" 
d="M552.5 486.5q-25.5 -39.5 -69.5 -55.5q35 -33 53 -80.5t18 -103.5q0 -77 -32 -135t-91 -89t-137 -31t-137 31t-91 89t-32 135q0 78 32 136t90 89t135 31q25 0 61 -6l22 -2q34 0 54 21.5t20 79.5v20h130v-38q0 -52 -25.5 -91.5zM404 248q0 71 -28.5 106t-81.5 35
q-110 0 -110 -141t110 -141t110 141zM341 555h-94l98 205h148z" />
    <glyph glyph-name="uni1EE3" unicode="&#x1ee3;" horiz-adv-x="588" 
d="M552.5 486.5q-25.5 -39.5 -69.5 -55.5q35 -33 53 -80.5t18 -103.5q0 -77 -32 -135t-91 -89t-137 -31t-137 31t-91 89t-32 135q0 78 32 136t90 89t135 31q25 0 61 -6l22 -2q34 0 54 21.5t20 79.5v20h130v-38q0 -52 -25.5 -91.5zM404 248q0 71 -28.5 106t-81.5 35
q-110 0 -110 -141t110 -141t110 141zM225 -67h138v-132h-138v132z" />
    <glyph glyph-name="uni1EDD" unicode="&#x1edd;" horiz-adv-x="588" 
d="M552.5 486.5q-25.5 -39.5 -69.5 -55.5q35 -33 53 -80.5t18 -103.5q0 -77 -32 -135t-91 -89t-137 -31t-137 31t-91 89t-32 135q0 78 32 136t90 89t135 31q25 0 61 -6l22 -2q34 0 54 21.5t20 79.5v20h130v-38q0 -52 -25.5 -91.5zM404 248q0 71 -28.5 106t-81.5 35
q-110 0 -110 -141t110 -141t110 141zM247 555l-152 205h148l98 -205h-94z" />
    <glyph glyph-name="uni1EDF" unicode="&#x1edf;" horiz-adv-x="588" 
d="M552.5 486.5q-25.5 -39.5 -69.5 -55.5q35 -33 53 -80.5t18 -103.5q0 -77 -32 -135t-91 -89t-137 -31t-137 31t-91 89t-32 135q0 78 32 136t90 89t135 31q25 0 61 -6l22 -2q34 0 54 21.5t20 79.5v20h130v-38q0 -52 -25.5 -91.5zM404 248q0 71 -28.5 106t-81.5 35
q-110 0 -110 -141t110 -141t110 141zM333 555h-75v25q0 21 9.5 34.5t26.5 28.5q11 9 16.5 16t5.5 14q0 23 -33 23q-24 0 -50 -9l-21 57q41 18 86 18q55 0 85.5 -21.5t30.5 -53.5q0 -23 -12 -37.5t-35 -31.5q-17 -12 -25.5 -21.5t-8.5 -21.5v-20z" />
    <glyph glyph-name="uni1EE1" unicode="&#x1ee1;" horiz-adv-x="588" 
d="M552.5 486.5q-25.5 -39.5 -69.5 -55.5q35 -33 53 -80.5t18 -103.5q0 -77 -32 -135t-91 -89t-137 -31t-137 31t-91 89t-32 135q0 78 32 136t90 89t135 31q25 0 61 -6l22 -2q34 0 54 21.5t20 79.5v20h130v-38q0 -52 -25.5 -91.5zM404 248q0 71 -28.5 106t-81.5 35
q-110 0 -110 -141t110 -141t110 141zM150.5 696q30.5 37 78.5 37q18 0 34.5 -7t41.5 -22q19 -12 31.5 -18t24.5 -6q19 0 29.5 13.5t12.5 36.5h65q0 -72 -30.5 -109t-78.5 -37q-18 0 -34.5 7t-41.5 22q-20 12 -32 17.5t-24 5.5q-19 0 -29.5 -13t-12.5 -36h-65q0 72 30.5 109z
" />
    <glyph glyph-name="ohungarumlaut" unicode="&#x151;" horiz-adv-x="588" 
d="M157 23.5q-59 31.5 -91 89t-32 135.5t32 135.5t91 88.5t137 31t137 -31t91 -88.5t32 -135.5t-32 -135.5t-91 -89t-137 -31.5t-137 31.5zM404 248q0 71 -28.5 106t-81.5 35q-110 0 -110 -141t110 -141t110 141zM257 555h-65l34 205h109zM396 555h-65l34 205h109z" />
    <glyph glyph-name="uni020F" unicode="&#x20f;" horiz-adv-x="588" 
d="M157 23.5q-59 31.5 -91 89t-32 135.5t32 135.5t91 88.5t137 31t137 -31t91 -88.5t32 -135.5t-32 -135.5t-91 -89t-137 -31.5t-137 31.5zM404 248q0 71 -28.5 106t-81.5 35q-110 0 -110 -141t110 -141t110 141zM410.5 710.5q51.5 -37.5 69.5 -107.5l-70 -30
q-43 80 -116 80t-116 -80l-70 30q18 70 69.5 107.5t116.5 37.5t116.5 -37.5z" />
    <glyph glyph-name="omacron" unicode="&#x14d;" horiz-adv-x="588" 
d="M157 23.5q-59 31.5 -91 89t-32 135.5t32 135.5t91 88.5t137 31t137 -31t91 -88.5t32 -135.5t-32 -135.5t-91 -89t-137 -31.5t-137 31.5zM404 248q0 71 -28.5 106t-81.5 35q-110 0 -110 -141t110 -141t110 141zM137 609v94h314v-94h-314z" />
    <glyph glyph-name="uni1E53" unicode="&#x1e53;" horiz-adv-x="588" 
d="M157 23.5q-59 31.5 -91 89t-32 135.5t32 135.5t91 88.5t137 31t137 -31t91 -88.5t32 -135.5t-32 -135.5t-91 -89t-137 -31.5t-137 31.5zM404 248q0 71 -28.5 106t-81.5 35q-110 0 -110 -141t110 -141t110 141zM137 609v94h314v-94h-314zM341 745h-94l98 205h148z" />
    <glyph glyph-name="uni1E51" unicode="&#x1e51;" horiz-adv-x="588" 
d="M157 23.5q-59 31.5 -91 89t-32 135.5t32 135.5t91 88.5t137 31t137 -31t91 -88.5t32 -135.5t-32 -135.5t-91 -89t-137 -31.5t-137 31.5zM404 248q0 71 -28.5 106t-81.5 35q-110 0 -110 -141t110 -141t110 141zM137 609v94h314v-94h-314zM247 745l-152 205h148l98 -205
h-94z" />
    <glyph glyph-name="uni01EB" unicode="&#x1eb;" horiz-adv-x="588" 
d="M325 -65q0 -26 15 -40t44 -14q23 0 54 13l17 -71q-45 -20 -100 -20t-91 31t-36 79q0 47 34 81q-106 11 -167 78.5t-61 175.5q0 78 32 135.5t91 88.5t137 31t137 -31t91 -88.5t32 -135.5q0 -91 -44 -155.5t-120 -86.5q-65 -18 -65 -71zM404 248q0 71 -28.5 106t-81.5 35
q-110 0 -110 -141t110 -141t110 141z" />
    <glyph glyph-name="oslash" unicode="&#xf8;" horiz-adv-x="588" 
d="M530 367.5q24 -52.5 24 -119.5q0 -78 -32 -135.5t-91 -89t-137 -31.5q-48 0 -93 13l-40 -68l-71 42l37 63q-45 33 -69 86t-24 120q0 78 32 135.5t91 88.5t137 31q53 0 93 -13l40 68l71 -42l-37 -63q45 -33 69 -85.5zM197 162l130 224q-13 4 -33 4q-113 0 -113 -142
q0 -54 16 -86zM406 248q0 52 -15 84l-130 -223q15 -3 33 -3q112 0 112 142z" />
    <glyph glyph-name="oslashacute" unicode="&#x1ff;" horiz-adv-x="588" 
d="M530 367.5q24 -52.5 24 -119.5q0 -78 -32 -135.5t-91 -89t-137 -31.5q-48 0 -93 13l-40 -68l-71 42l37 63q-45 33 -69 86t-24 120q0 78 32 135.5t91 88.5t137 31q53 0 93 -13l40 68l71 -42l-37 -63q45 -33 69 -85.5zM197 162l130 224q-13 4 -33 4q-113 0 -113 -142
q0 -54 16 -86zM406 248q0 52 -15 84l-130 -223q15 -3 33 -3q112 0 112 142zM341 555h-94l98 205h148z" />
    <glyph glyph-name="otilde" unicode="&#xf5;" horiz-adv-x="588" 
d="M157 23.5q-59 31.5 -91 89t-32 135.5t32 135.5t91 88.5t137 31t137 -31t91 -88.5t32 -135.5t-32 -135.5t-91 -89t-137 -31.5t-137 31.5zM404 248q0 71 -28.5 106t-81.5 35q-110 0 -110 -141t110 -141t110 141zM150.5 696q30.5 37 78.5 37q18 0 34.5 -7t41.5 -22
q19 -12 31.5 -18t24.5 -6q19 0 29.5 13.5t12.5 36.5h65q0 -72 -30.5 -109t-78.5 -37q-18 0 -34.5 7t-41.5 22q-20 12 -32 17.5t-24 5.5q-19 0 -29.5 -13t-12.5 -36h-65q0 72 30.5 109z" />
    <glyph glyph-name="uni1E4D" unicode="&#x1e4d;" horiz-adv-x="588" 
d="M157 23.5q-59 31.5 -91 89t-32 135.5t32 135.5t91 88.5t137 31t137 -31t91 -88.5t32 -135.5t-32 -135.5t-91 -89t-137 -31.5t-137 31.5zM404 248q0 71 -28.5 106t-81.5 35q-110 0 -110 -141t110 -141t110 141zM150.5 696q30.5 37 78.5 37q18 0 34.5 -7t41.5 -22
q19 -12 31.5 -18t24.5 -6q19 0 29.5 13.5t12.5 36.5h65q0 -72 -30.5 -109t-78.5 -37q-18 0 -34.5 7t-41.5 22q-20 12 -32 17.5t-24 5.5q-19 0 -29.5 -13t-12.5 -36h-65q0 72 30.5 109zM341 745h-94l98 205h148z" />
    <glyph glyph-name="uni1E4F" unicode="&#x1e4f;" horiz-adv-x="588" 
d="M157 23.5q-59 31.5 -91 89t-32 135.5t32 135.5t91 88.5t137 31t137 -31t91 -88.5t32 -135.5t-32 -135.5t-91 -89t-137 -31.5t-137 31.5zM404 248q0 71 -28.5 106t-81.5 35q-110 0 -110 -141t110 -141t110 141zM150.5 696q30.5 37 78.5 37q18 0 34.5 -7t41.5 -22
q19 -12 31.5 -18t24.5 -6q19 0 29.5 13.5t12.5 36.5h65q0 -72 -30.5 -109t-78.5 -37q-18 0 -34.5 7t-41.5 22q-20 12 -32 17.5t-24 5.5q-19 0 -29.5 -13t-12.5 -36h-65q0 72 30.5 109zM129 912h139v-132h-139v132zM320 912h139v-132h-139v132z" />
    <glyph glyph-name="uni022D" unicode="&#x22d;" horiz-adv-x="588" 
d="M157 23.5q-59 31.5 -91 89t-32 135.5t32 135.5t91 88.5t137 31t137 -31t91 -88.5t32 -135.5t-32 -135.5t-91 -89t-137 -31.5t-137 31.5zM404 248q0 71 -28.5 106t-81.5 35q-110 0 -110 -141t110 -141t110 141zM150.5 696q30.5 37 78.5 37q18 0 34.5 -7t41.5 -22
q19 -12 31.5 -18t24.5 -6q19 0 29.5 13.5t12.5 36.5h65q0 -72 -30.5 -109t-78.5 -37q-18 0 -34.5 7t-41.5 22q-20 12 -32 17.5t-24 5.5q-19 0 -29.5 -13t-12.5 -36h-65q0 72 30.5 109zM137 799v94h314v-94h-314z" />
    <glyph glyph-name="oe" unicode="&#x153;" horiz-adv-x="898" 
d="M866 217h-314q7 -59 34.5 -85.5t81.5 -26.5q82 0 150 48l40 -101q-36 -28 -87.5 -44t-103.5 -16q-63 0 -111 21t-79 61q-32 -40 -79.5 -61t-107.5 -21q-77 0 -135 31.5t-89.5 89.5t-31.5 135t31.5 135t89.5 89t135 31q61 0 109 -21.5t79 -61.5q30 40 75 61.5t101 21.5
q62 0 110.5 -31t75 -87.5t26.5 -130.5v-37zM582.5 371.5q-25.5 -27.5 -30.5 -79.5h187q-3 52 -25.5 79.5t-62.5 27.5q-43 0 -68.5 -27.5zM372.5 142q27.5 35 27.5 106t-27.5 106t-80.5 35t-80.5 -35t-27.5 -106t27.5 -106t80.5 -35t80.5 35z" />
    <glyph glyph-name="p" unicode="p" horiz-adv-x="613" 
d="M474.5 470.5q49.5 -32.5 77 -91t27.5 -134.5t-27.5 -133.5t-76.5 -88.5t-113 -31q-50 0 -90.5 20.5t-62.5 57.5v-250h-151v671h149v-69q22 38 63 59.5t92 21.5q63 0 112.5 -32.5zM400 142.5q29 35.5 29 102.5q0 68 -29 105.5t-82 37.5t-82 -36.5t-29 -104.5
q0 -67 29 -103.5t82 -36.5t82 35.5z" />
    <glyph glyph-name="thorn" unicode="&#xfe;" horiz-adv-x="613" 
d="M474.5 470.5q49.5 -32.5 77 -91t27.5 -134.5t-27.5 -133.5t-76.5 -88.5t-113 -31q-50 0 -90.5 20.5t-62.5 57.5v-250h-151v885h151v-280q22 37 62.5 57.5t90.5 20.5q63 0 112.5 -32.5zM400 142.5q29 35.5 29 102.5q0 68 -29 105.5t-82 37.5t-82 -36.5t-29 -104.5
q0 -67 29 -103.5t82 -36.5t82 35.5z" />
    <glyph glyph-name="q" unicode="q" horiz-adv-x="613" 
d="M555 491v-671h-151v251q-22 -37 -62.5 -58t-90.5 -21q-64 0 -113 31t-76.5 88.5t-27.5 133.5t27.5 134.5t77 91t112.5 32.5q51 0 91.5 -21.5t62.5 -59.5v69h150zM376.5 143q28.5 36 28.5 104t-28.5 104.5t-81.5 36.5t-82 -37.5t-29 -105.5q0 -67 29 -102.5t82 -35.5
t81.5 36z" />
    <glyph glyph-name="r" unicode="r" horiz-adv-x="401" 
d="M409 379l-85 -9q-63 -6 -89 -35.5t-26 -78.5v-256h-151v491h145v-83q37 85 153 93l44 3z" />
    <glyph glyph-name="racute" unicode="&#x155;" horiz-adv-x="401" 
d="M409 379l-85 -9q-63 -6 -89 -35.5t-26 -78.5v-256h-151v491h145v-83q37 85 153 93l44 3zM281 555h-94l98 205h148z" />
    <glyph glyph-name="rcaron" unicode="&#x159;" horiz-adv-x="401" 
d="M409 379l-85 -9q-63 -6 -89 -35.5t-26 -78.5v-256h-151v491h145v-83q37 85 153 93l44 3zM292 760h117l-130 -205h-90l-130 205h117l58 -116z" />
    <glyph glyph-name="rcommaaccent" unicode="&#x157;" horiz-adv-x="401" 
d="M409 379l-85 -9q-63 -6 -89 -35.5t-26 -78.5v-256h-151v491h145v-83q37 85 153 93l44 3zM208 -65v-65q0 -46 -13.5 -81t-46.5 -64l-54 37q29 27 35 59h-70v114h149z" />
    <glyph glyph-name="uni0211" unicode="&#x211;" horiz-adv-x="401" 
d="M409 379l-85 -9q-63 -6 -89 -35.5t-26 -78.5v-256h-151v491h145v-83q37 85 153 93l44 3zM132 555l-78 205h109l34 -205h-65zM271 555l-78 205h109l34 -205h-65z" />
    <glyph glyph-name="uni1E5B" unicode="&#x1e5b;" horiz-adv-x="401" 
d="M409 379l-85 -9q-63 -6 -89 -35.5t-26 -78.5v-256h-151v491h145v-83q37 85 153 93l44 3zM65 -67h138v-132h-138v132z" />
    <glyph glyph-name="uni0213" unicode="&#x213;" horiz-adv-x="401" 
d="M409 379l-85 -9q-63 -6 -89 -35.5t-26 -78.5v-256h-151v491h145v-83q37 85 153 93l44 3zM350.5 710.5q51.5 -37.5 69.5 -107.5l-70 -30q-43 80 -116 80t-116 -80l-70 30q18 70 69.5 107.5t116.5 37.5t116.5 -37.5z" />
    <glyph glyph-name="uni1E5F" unicode="&#x1e5f;" horiz-adv-x="401" 
d="M409 379l-85 -9q-63 -6 -89 -35.5t-26 -78.5v-256h-151v491h145v-83q37 85 153 93l44 3zM-23 -177v88h314v-88h-314z" />
    <glyph glyph-name="s" unicode="s" horiz-adv-x="487" 
d="M122.5 7.5q-56.5 15.5 -97.5 44.5l40 104q40 -27 88 -42t97 -15q35 0 54.5 11.5t19.5 31.5q0 18 -13.5 28t-50.5 18l-80 18q-71 16 -104.5 49.5t-33.5 91.5q0 46 26.5 81t75 55t110.5 20q53 0 103 -16t90 -45l-40 -100q-78 54 -154 54q-35 0 -55 -12t-20 -34
q0 -16 12 -25t42 -17l83 -19q75 -17 109.5 -51.5t34.5 -93.5q0 -71 -56.5 -111.5t-155.5 -40.5q-68 0 -124.5 15.5z" />
    <glyph glyph-name="sacute" unicode="&#x15b;" horiz-adv-x="487" 
d="M122.5 7.5q-56.5 15.5 -97.5 44.5l40 104q40 -27 88 -42t97 -15q35 0 54.5 11.5t19.5 31.5q0 18 -13.5 28t-50.5 18l-80 18q-71 16 -104.5 49.5t-33.5 91.5q0 46 26.5 81t75 55t110.5 20q53 0 103 -16t90 -45l-40 -100q-78 54 -154 54q-35 0 -55 -12t-20 -34
q0 -16 12 -25t42 -17l83 -19q75 -17 109.5 -51.5t34.5 -93.5q0 -71 -56.5 -111.5t-155.5 -40.5q-68 0 -124.5 15.5zM300 555h-94l98 205h148z" />
    <glyph glyph-name="uni1E65" unicode="&#x1e65;" horiz-adv-x="487" 
d="M122.5 7.5q-56.5 15.5 -97.5 44.5l40 104q40 -27 88 -42t97 -15q35 0 54.5 11.5t19.5 31.5q0 18 -13.5 28t-50.5 18l-80 18q-71 16 -104.5 49.5t-33.5 91.5q0 46 26.5 81t75 55t110.5 20q53 0 103 -16t90 -45l-40 -100q-78 54 -154 54q-35 0 -55 -12t-20 -34
q0 -16 12 -25t42 -17l83 -19q75 -17 109.5 -51.5t34.5 -93.5q0 -71 -56.5 -111.5t-155.5 -40.5q-68 0 -124.5 15.5zM317 555h-94l98 205h148zM70 758h162v-141h-162v141z" />
    <glyph glyph-name="scaron" unicode="&#x161;" horiz-adv-x="487" 
d="M122.5 7.5q-56.5 15.5 -97.5 44.5l40 104q40 -27 88 -42t97 -15q35 0 54.5 11.5t19.5 31.5q0 18 -13.5 28t-50.5 18l-80 18q-71 16 -104.5 49.5t-33.5 91.5q0 46 26.5 81t75 55t110.5 20q53 0 103 -16t90 -45l-40 -100q-78 54 -154 54q-35 0 -55 -12t-20 -34
q0 -16 12 -25t42 -17l83 -19q75 -17 109.5 -51.5t34.5 -93.5q0 -71 -56.5 -111.5t-155.5 -40.5q-68 0 -124.5 15.5zM311 760h117l-130 -205h-90l-130 205h117l58 -116z" />
    <glyph glyph-name="uni1E67" unicode="&#x1e67;" horiz-adv-x="487" 
d="M122.5 7.5q-56.5 15.5 -97.5 44.5l40 104q40 -27 88 -42t97 -15q35 0 54.5 11.5t19.5 31.5q0 18 -13.5 28t-50.5 18l-80 18q-71 16 -104.5 49.5t-33.5 91.5q0 46 26.5 81t75 55t110.5 20q53 0 103 -16t90 -45l-40 -100q-78 54 -154 54q-35 0 -55 -12t-20 -34
q0 -16 12 -25t42 -17l83 -19q75 -17 109.5 -51.5t34.5 -93.5q0 -71 -56.5 -111.5t-155.5 -40.5q-68 0 -124.5 15.5zM311 760h117l-130 -205h-90l-130 205h117l58 -116zM172 917h162v-141h-162v141z" />
    <glyph glyph-name="scedilla" unicode="&#x15f;" horiz-adv-x="487" 
d="M410 38q-49 -40 -137 -45l-4 -34q4 1 12 1q38 0 61 -18.5t23 -50.5q0 -39 -35 -63.5t-100 -24.5q-22 0 -48 4.5t-46 13.5l12 58q45 -14 78 -14q46 0 46 26q0 19 -32 19q-18 0 -36 -6l-20 21l9 70q-101 9 -168 57l40 104q40 -27 88 -42t97 -15q35 0 54.5 11.5t19.5 31.5
q0 18 -13.5 28t-50.5 18l-80 18q-71 16 -104.5 49.5t-33.5 91.5q0 46 26.5 81t75 55t110.5 20q53 0 103 -16t90 -45l-40 -100q-78 54 -154 54q-35 0 -55 -12t-20 -34q0 -16 12 -25t42 -17l83 -19q75 -17 109.5 -51.5t34.5 -93.5q0 -66 -49 -106z" />
    <glyph glyph-name="scircumflex" unicode="&#x15d;" horiz-adv-x="487" 
d="M122.5 7.5q-56.5 15.5 -97.5 44.5l40 104q40 -27 88 -42t97 -15q35 0 54.5 11.5t19.5 31.5q0 18 -13.5 28t-50.5 18l-80 18q-71 16 -104.5 49.5t-33.5 91.5q0 46 26.5 81t75 55t110.5 20q53 0 103 -16t90 -45l-40 -100q-78 54 -154 54q-35 0 -55 -12t-20 -34
q0 -16 12 -25t42 -17l83 -19q75 -17 109.5 -51.5t34.5 -93.5q0 -71 -56.5 -111.5t-155.5 -40.5q-68 0 -124.5 15.5zM195 555h-117l130 205h90l130 -205h-117l-58 116z" />
    <glyph glyph-name="scommaaccent" unicode="&#x219;" horiz-adv-x="487" 
d="M122.5 7.5q-56.5 15.5 -97.5 44.5l40 104q40 -27 88 -42t97 -15q35 0 54.5 11.5t19.5 31.5q0 18 -13.5 28t-50.5 18l-80 18q-71 16 -104.5 49.5t-33.5 91.5q0 46 26.5 81t75 55t110.5 20q53 0 103 -16t90 -45l-40 -100q-78 54 -154 54q-35 0 -55 -12t-20 -34
q0 -16 12 -25t42 -17l83 -19q75 -17 109.5 -51.5t34.5 -93.5q0 -71 -56.5 -111.5t-155.5 -40.5q-68 0 -124.5 15.5zM318 -65v-65q0 -46 -13.5 -81t-46.5 -64l-54 37q29 27 35 59h-70v114h149z" />
    <glyph glyph-name="uni1E61" unicode="&#x1e61;" horiz-adv-x="487" 
d="M122.5 7.5q-56.5 15.5 -97.5 44.5l40 104q40 -27 88 -42t97 -15q35 0 54.5 11.5t19.5 31.5q0 18 -13.5 28t-50.5 18l-80 18q-71 16 -104.5 49.5t-33.5 91.5q0 46 26.5 81t75 55t110.5 20q53 0 103 -16t90 -45l-40 -100q-78 54 -154 54q-35 0 -55 -12t-20 -34
q0 -16 12 -25t42 -17l83 -19q75 -17 109.5 -51.5t34.5 -93.5q0 -71 -56.5 -111.5t-155.5 -40.5q-68 0 -124.5 15.5zM172 727h162v-141h-162v141z" />
    <glyph glyph-name="uni1E63" unicode="&#x1e63;" horiz-adv-x="487" 
d="M122.5 7.5q-56.5 15.5 -97.5 44.5l40 104q40 -27 88 -42t97 -15q35 0 54.5 11.5t19.5 31.5q0 18 -13.5 28t-50.5 18l-80 18q-71 16 -104.5 49.5t-33.5 91.5q0 46 26.5 81t75 55t110.5 20q53 0 103 -16t90 -45l-40 -100q-78 54 -154 54q-35 0 -55 -12t-20 -34
q0 -16 12 -25t42 -17l83 -19q75 -17 109.5 -51.5t34.5 -93.5q0 -71 -56.5 -111.5t-155.5 -40.5q-68 0 -124.5 15.5zM175 -67h138v-132h-138v132z" />
    <glyph glyph-name="uni1E69" unicode="&#x1e69;" horiz-adv-x="487" 
d="M122.5 7.5q-56.5 15.5 -97.5 44.5l40 104q40 -27 88 -42t97 -15q35 0 54.5 11.5t19.5 31.5q0 18 -13.5 28t-50.5 18l-80 18q-71 16 -104.5 49.5t-33.5 91.5q0 46 26.5 81t75 55t110.5 20q53 0 103 -16t90 -45l-40 -100q-78 54 -154 54q-35 0 -55 -12t-20 -34
q0 -16 12 -25t42 -17l83 -19q75 -17 109.5 -51.5t34.5 -93.5q0 -71 -56.5 -111.5t-155.5 -40.5q-68 0 -124.5 15.5zM175 -67h138v-132h-138v132zM172 727h162v-141h-162v141z" />
    <glyph glyph-name="germandbls" unicode="&#xdf;" horiz-adv-x="679" 
d="M58 444q0 130 71.5 199.5t204.5 69.5q98 0 153 -39t55 -109q0 -39 -18 -67.5t-51 -62.5q-23 -24 -34 -39.5t-11 -32.5q0 -20 19.5 -31t60.5 -24q47 -15 76.5 -30t51.5 -44.5t22 -76.5q0 -75 -55.5 -120t-147.5 -45q-57 0 -110.5 16t-91.5 44l40 104q41 -25 82.5 -39
t77.5 -14q68 0 68 41q0 22 -20.5 34t-64.5 26q-46 15 -74.5 29.5t-49.5 42t-21 71.5q0 37 16.5 65t48.5 64q23 24 34 41t11 35q0 26 -19 39.5t-55 13.5q-56 0 -87 -36t-31 -102v-467h-151v444z" />
    <glyph glyph-name="t" unicode="t" horiz-adv-x="387" 
d="M378 106l-8 -110q-29 -4 -58 -4q-112 0 -163.5 49t-51.5 149v188h-93v113h93v144h151v-144h123v-113h-123v-187q0 -88 82 -88q23 0 48 3z" />
    <glyph glyph-name="tbar" unicode="&#x167;" horiz-adv-x="397" 
d="M383 106l-8 -110q-29 -4 -58 -4q-112 0 -163.5 49t-51.5 149v36h-73v105h73v47h-93v113h93v144h151v-144h123v-113h-123v-47h103v-105h-103v-35q0 -88 82 -88q23 0 48 3z" />
    <glyph glyph-name="tcaron" unicode="&#x165;" horiz-adv-x="387" 
d="M405 705l-31 -174h-84v174h115zM330 103q23 0 48 3l-8 -110q-29 -4 -58 -4q-112 0 -163.5 49t-51.5 149v188h-93v113h93v144h151v-144h123v-113h-123v-187q0 -88 82 -88z" />
    <glyph glyph-name="uni0163" unicode="&#x163;" horiz-adv-x="387" 
d="M272 -6l-4 -35q4 1 12 1q38 0 61 -18.5t23 -50.5q0 -39 -35 -63.5t-100 -24.5q-22 0 -48 4.5t-46 13.5l12 58q45 -14 78 -14q46 0 46 26q0 19 -32 19q-18 0 -36 -6l-20 21l11 87q-50 22 -73.5 66t-23.5 112v188h-93v113h93v144h151v-144h123v-113h-123v-187q0 -88 82 -88
q23 0 48 3l-8 -110q-29 -4 -58 -4q-14 0 -40 2z" />
    <glyph glyph-name="uni021B" unicode="&#x21b;" horiz-adv-x="387" 
d="M378 106l-8 -110q-29 -4 -58 -4q-112 0 -163.5 49t-51.5 149v188h-93v113h93v144h151v-144h123v-113h-123v-187q0 -88 82 -88q23 0 48 3zM317 -65v-65q0 -46 -13.5 -81t-46.5 -64l-54 37q29 27 35 59h-70v114h149z" />
    <glyph glyph-name="uni1E97" unicode="&#x1e97;" horiz-adv-x="387" 
d="M378 106l-8 -110q-29 -4 -58 -4q-112 0 -163.5 49t-51.5 149v188h-93v113h93v144h151v-144h123v-113h-123v-187q0 -88 82 -88q23 0 48 3zM8 839h139v-131h-139v131zM199 839h139v-131h-139v131z" />
    <glyph glyph-name="uni1E6D" unicode="&#x1e6d;" horiz-adv-x="387" 
d="M378 106l-8 -110q-29 -4 -58 -4q-112 0 -163.5 49t-51.5 149v188h-93v113h93v144h151v-144h123v-113h-123v-187q0 -88 82 -88q23 0 48 3zM174 -67h138v-132h-138v132z" />
    <glyph glyph-name="uni1E6F" unicode="&#x1e6f;" horiz-adv-x="387" 
d="M378 106l-8 -110q-29 -4 -58 -4q-112 0 -163.5 49t-51.5 149v188h-93v113h93v144h151v-144h123v-113h-123v-187q0 -88 82 -88q23 0 48 3zM86 -177v88h314v-88h-314z" />
    <glyph glyph-name="u" unicode="u" horiz-adv-x="589" 
d="M531 491v-491h-147v70q-23 -38 -60.5 -58t-84.5 -20q-93 0 -138.5 51.5t-45.5 155.5v292h151v-295q0 -44 18.5 -65t56.5 -21q44 0 71.5 30t27.5 79v272h151z" />
    <glyph glyph-name="uacute" unicode="&#xfa;" horiz-adv-x="589" 
d="M531 491v-491h-147v70q-23 -38 -60.5 -58t-84.5 -20q-93 0 -138.5 51.5t-45.5 155.5v292h151v-295q0 -44 18.5 -65t56.5 -21q44 0 71.5 30t27.5 79v272h151zM341 555h-94l98 205h148z" />
    <glyph glyph-name="ubreve" unicode="&#x16d;" horiz-adv-x="589" 
d="M531 491v-491h-147v70q-23 -38 -60.5 -58t-84.5 -20q-93 0 -138.5 51.5t-45.5 155.5v292h151v-295q0 -44 18.5 -65t56.5 -21q44 0 71.5 30t27.5 79v272h151zM177.5 614.5q-51.5 37.5 -69.5 107.5l70 29q43 -79 116 -79t116 79l70 -29q-18 -70 -69.5 -107.5t-116.5 -37.5
t-116.5 37.5z" />
    <glyph glyph-name="ucircumflex" unicode="&#xfb;" horiz-adv-x="589" 
d="M531 491v-491h-147v70q-23 -38 -60.5 -58t-84.5 -20q-93 0 -138.5 51.5t-45.5 155.5v292h151v-295q0 -44 18.5 -65t56.5 -21q44 0 71.5 30t27.5 79v272h151zM236 555h-117l130 205h90l130 -205h-117l-58 116z" />
    <glyph glyph-name="uni0215" unicode="&#x215;" horiz-adv-x="589" 
d="M531 491v-491h-147v70q-23 -38 -60.5 -58t-84.5 -20q-93 0 -138.5 51.5t-45.5 155.5v292h151v-295q0 -44 18.5 -65t56.5 -21q44 0 71.5 30t27.5 79v272h151zM192 555l-78 205h109l34 -205h-65zM331 555l-78 205h109l34 -205h-65z" />
    <glyph glyph-name="udieresis" unicode="&#xfc;" horiz-adv-x="589" 
d="M531 491v-491h-147v70q-23 -38 -60.5 -58t-84.5 -20q-93 0 -138.5 51.5t-45.5 155.5v292h151v-295q0 -44 18.5 -65t56.5 -21q44 0 71.5 30t27.5 79v272h151zM129 722h139v-132h-139v132zM320 722h139v-132h-139v132z" />
    <glyph glyph-name="uni1EE5" unicode="&#x1ee5;" horiz-adv-x="589" 
d="M531 491v-491h-147v70q-23 -38 -60.5 -58t-84.5 -20q-93 0 -138.5 51.5t-45.5 155.5v292h151v-295q0 -44 18.5 -65t56.5 -21q44 0 71.5 30t27.5 79v272h151zM225 -67h138v-132h-138v132z" />
    <glyph glyph-name="ugrave" unicode="&#xf9;" horiz-adv-x="589" 
d="M531 491v-491h-147v70q-23 -38 -60.5 -58t-84.5 -20q-93 0 -138.5 51.5t-45.5 155.5v292h151v-295q0 -44 18.5 -65t56.5 -21q44 0 71.5 30t27.5 79v272h151zM247 555l-152 205h148l98 -205h-94z" />
    <glyph glyph-name="uni1EE7" unicode="&#x1ee7;" horiz-adv-x="589" 
d="M531 491v-491h-147v70q-23 -38 -60.5 -58t-84.5 -20q-93 0 -138.5 51.5t-45.5 155.5v292h151v-295q0 -44 18.5 -65t56.5 -21q44 0 71.5 30t27.5 79v272h151zM333 555h-75v25q0 21 9.5 34.5t26.5 28.5q11 9 16.5 16t5.5 14q0 23 -33 23q-24 0 -50 -9l-21 57q41 18 86 18
q55 0 85.5 -21.5t30.5 -53.5q0 -23 -12 -37.5t-35 -31.5q-17 -12 -25.5 -21.5t-8.5 -21.5v-20z" />
    <glyph glyph-name="uhorn" unicode="&#x1b0;" horiz-adv-x="613" 
d="M643 616v-38q0 -57 -30.5 -98t-81.5 -54v-426h-147v70q-23 -38 -60.5 -58t-84.5 -20q-93 0 -138.5 51.5t-45.5 155.5v292h151v-295q0 -44 18.5 -65t56.5 -21q44 0 71.5 30t27.5 79v272h42q50 0 70.5 23.5t20.5 81.5v20h130z" />
    <glyph glyph-name="uni1EE9" unicode="&#x1ee9;" horiz-adv-x="613" 
d="M643 616v-38q0 -57 -30.5 -98t-81.5 -54v-426h-147v70q-23 -38 -60.5 -58t-84.5 -20q-93 0 -138.5 51.5t-45.5 155.5v292h151v-295q0 -44 18.5 -65t56.5 -21q44 0 71.5 30t27.5 79v272h42q50 0 70.5 23.5t20.5 81.5v20h130zM341 555h-94l98 205h148z" />
    <glyph glyph-name="uni1EF1" unicode="&#x1ef1;" horiz-adv-x="613" 
d="M643 616v-38q0 -57 -30.5 -98t-81.5 -54v-426h-147v70q-23 -38 -60.5 -58t-84.5 -20q-93 0 -138.5 51.5t-45.5 155.5v292h151v-295q0 -44 18.5 -65t56.5 -21q44 0 71.5 30t27.5 79v272h42q50 0 70.5 23.5t20.5 81.5v20h130zM225 -67h138v-132h-138v132z" />
    <glyph glyph-name="uni1EEB" unicode="&#x1eeb;" horiz-adv-x="613" 
d="M643 616v-38q0 -57 -30.5 -98t-81.5 -54v-426h-147v70q-23 -38 -60.5 -58t-84.5 -20q-93 0 -138.5 51.5t-45.5 155.5v292h151v-295q0 -44 18.5 -65t56.5 -21q44 0 71.5 30t27.5 79v272h42q50 0 70.5 23.5t20.5 81.5v20h130zM247 555l-152 205h148l98 -205h-94z" />
    <glyph glyph-name="uni1EED" unicode="&#x1eed;" horiz-adv-x="613" 
d="M643 616v-38q0 -57 -30.5 -98t-81.5 -54v-426h-147v70q-23 -38 -60.5 -58t-84.5 -20q-93 0 -138.5 51.5t-45.5 155.5v292h151v-295q0 -44 18.5 -65t56.5 -21q44 0 71.5 30t27.5 79v272h42q50 0 70.5 23.5t20.5 81.5v20h130zM333 555h-75v25q0 21 9.5 34.5t26.5 28.5
q11 9 16.5 16t5.5 14q0 23 -33 23q-24 0 -50 -9l-21 57q41 18 86 18q55 0 85.5 -21.5t30.5 -53.5q0 -23 -12 -37.5t-35 -31.5q-17 -12 -25.5 -21.5t-8.5 -21.5v-20z" />
    <glyph glyph-name="uni1EEF" unicode="&#x1eef;" horiz-adv-x="613" 
d="M643 616v-38q0 -57 -30.5 -98t-81.5 -54v-426h-147v70q-23 -38 -60.5 -58t-84.5 -20q-93 0 -138.5 51.5t-45.5 155.5v292h151v-295q0 -44 18.5 -65t56.5 -21q44 0 71.5 30t27.5 79v272h42q50 0 70.5 23.5t20.5 81.5v20h130zM150.5 696q30.5 37 78.5 37q18 0 34.5 -7
t41.5 -22q19 -12 31.5 -18t24.5 -6q19 0 29.5 13.5t12.5 36.5h65q0 -72 -30.5 -109t-78.5 -37q-18 0 -34.5 7t-41.5 22q-20 12 -32 17.5t-24 5.5q-19 0 -29.5 -13t-12.5 -36h-65q0 72 30.5 109z" />
    <glyph glyph-name="uhungarumlaut" unicode="&#x171;" horiz-adv-x="589" 
d="M531 491v-491h-147v70q-23 -38 -60.5 -58t-84.5 -20q-93 0 -138.5 51.5t-45.5 155.5v292h151v-295q0 -44 18.5 -65t56.5 -21q44 0 71.5 30t27.5 79v272h151zM257 555h-65l34 205h109zM396 555h-65l34 205h109z" />
    <glyph glyph-name="uni0217" unicode="&#x217;" horiz-adv-x="589" 
d="M531 491v-491h-147v70q-23 -38 -60.5 -58t-84.5 -20q-93 0 -138.5 51.5t-45.5 155.5v292h151v-295q0 -44 18.5 -65t56.5 -21q44 0 71.5 30t27.5 79v272h151zM410.5 710.5q51.5 -37.5 69.5 -107.5l-70 -30q-43 80 -116 80t-116 -80l-70 30q18 70 69.5 107.5t116.5 37.5
t116.5 -37.5z" />
    <glyph glyph-name="umacron" unicode="&#x16b;" horiz-adv-x="589" 
d="M531 491v-491h-147v70q-23 -38 -60.5 -58t-84.5 -20q-93 0 -138.5 51.5t-45.5 155.5v292h151v-295q0 -44 18.5 -65t56.5 -21q44 0 71.5 30t27.5 79v272h151zM137 609v94h314v-94h-314z" />
    <glyph glyph-name="uni1E7B" unicode="&#x1e7b;" horiz-adv-x="589" 
d="M531 491v-491h-147v70q-23 -38 -60.5 -58t-84.5 -20q-93 0 -138.5 51.5t-45.5 155.5v292h151v-295q0 -44 18.5 -65t56.5 -21q44 0 71.5 30t27.5 79v272h151zM137 609v94h314v-94h-314zM129 912h139v-132h-139v132zM320 912h139v-132h-139v132z" />
    <glyph glyph-name="uogonek" unicode="&#x173;" horiz-adv-x="589" 
d="M568 -177q-45 -20 -100 -20q-56 0 -91.5 31.5t-35.5 80.5q0 54 43 91v64q-23 -38 -60.5 -58t-84.5 -20q-93 0 -138.5 51.5t-45.5 155.5v292h151v-295q0 -44 18.5 -65t56.5 -21q44 0 71.5 30t27.5 79v272h151v-491h-10q-37 0 -60 -18t-23 -47q0 -26 15 -40t44 -14
q23 0 54 13z" />
    <glyph glyph-name="uring" unicode="&#x16f;" horiz-adv-x="589" 
d="M531 491v-491h-147v70q-23 -38 -60.5 -58t-84.5 -20q-93 0 -138.5 51.5t-45.5 155.5v292h151v-295q0 -44 18.5 -65t56.5 -21q44 0 71.5 30t27.5 79v272h151zM216.5 581q-31.5 31 -31.5 77q0 45 31.5 76t77.5 31t77.5 -31t31.5 -76q0 -46 -31.5 -77t-77.5 -31t-77.5 31z
M325 625q12 13 12 33q0 19 -12 32t-31 13t-31 -13t-12 -32q0 -20 12 -33t31 -13t31 13z" />
    <glyph glyph-name="utilde" unicode="&#x169;" horiz-adv-x="589" 
d="M531 491v-491h-147v70q-23 -38 -60.5 -58t-84.5 -20q-93 0 -138.5 51.5t-45.5 155.5v292h151v-295q0 -44 18.5 -65t56.5 -21q44 0 71.5 30t27.5 79v272h151zM150.5 696q30.5 37 78.5 37q18 0 34.5 -7t41.5 -22q19 -12 31.5 -18t24.5 -6q19 0 29.5 13.5t12.5 36.5h65
q0 -72 -30.5 -109t-78.5 -37q-18 0 -34.5 7t-41.5 22q-20 12 -32 17.5t-24 5.5q-19 0 -29.5 -13t-12.5 -36h-65q0 72 30.5 109z" />
    <glyph glyph-name="uni1E79" unicode="&#x1e79;" horiz-adv-x="589" 
d="M531 491v-491h-147v70q-23 -38 -60.5 -58t-84.5 -20q-93 0 -138.5 51.5t-45.5 155.5v292h151v-295q0 -44 18.5 -65t56.5 -21q44 0 71.5 30t27.5 79v272h151zM150.5 696q30.5 37 78.5 37q18 0 34.5 -7t41.5 -22q19 -12 31.5 -18t24.5 -6q19 0 29.5 13.5t12.5 36.5h65
q0 -72 -30.5 -109t-78.5 -37q-18 0 -34.5 7t-41.5 22q-20 12 -32 17.5t-24 5.5q-19 0 -29.5 -13t-12.5 -36h-65q0 72 30.5 109zM341 745h-94l98 205h148z" />
    <glyph glyph-name="v" unicode="v" horiz-adv-x="534" 
d="M398 490h148l-216 -490h-128l-213 490h157l124 -312z" />
    <glyph glyph-name="w" unicode="w" horiz-adv-x="863" 
d="M718 491h147l-199 -491h-128l-108 277l-105 -277h-127l-200 491h154l116 -311l116 311h102l117 -314z" />
    <glyph glyph-name="wacute" unicode="&#x1e83;" horiz-adv-x="863" 
d="M718 491h147l-199 -491h-128l-108 277l-105 -277h-127l-200 491h154l116 -311l116 311h102l117 -314zM479 555h-94l98 205h148z" />
    <glyph glyph-name="wcircumflex" unicode="&#x175;" horiz-adv-x="863" 
d="M718 491h147l-199 -491h-128l-108 277l-105 -277h-127l-200 491h154l116 -311l116 311h102l117 -314zM374 555h-117l130 205h90l130 -205h-117l-58 116z" />
    <glyph glyph-name="wdieresis" unicode="&#x1e85;" horiz-adv-x="863" 
d="M718 491h147l-199 -491h-128l-108 277l-105 -277h-127l-200 491h154l116 -311l116 311h102l117 -314zM267 722h139v-132h-139v132zM458 722h139v-132h-139v132z" />
    <glyph glyph-name="wgrave" unicode="&#x1e81;" horiz-adv-x="863" 
d="M718 491h147l-199 -491h-128l-108 277l-105 -277h-127l-200 491h154l116 -311l116 311h102l117 -314zM385 555l-152 205h148l98 -205h-94z" />
    <glyph glyph-name="x" unicode="x" horiz-adv-x="540" 
d="M356 253l208 -253h-177l-117 147l-116 -147h-178l208 253l-196 238h179l103 -133l104 133h178z" />
    <glyph glyph-name="y" unicode="y" horiz-adv-x="534" 
d="M398 490h148l-296 -670h-153l94 207l-202 463h157l124 -312z" />
    <glyph glyph-name="yacute" unicode="&#xfd;" horiz-adv-x="534" 
d="M398 490h148l-296 -670h-153l94 207l-202 463h157l124 -312zM314 555h-94l98 205h148z" />
    <glyph glyph-name="ycircumflex" unicode="&#x177;" horiz-adv-x="534" 
d="M398 490h148l-296 -670h-153l94 207l-202 463h157l124 -312zM209 555h-117l130 205h90l130 -205h-117l-58 116z" />
    <glyph glyph-name="ydieresis" unicode="&#xff;" horiz-adv-x="534" 
d="M398 490h148l-296 -670h-153l94 207l-202 463h157l124 -312zM102 722h139v-132h-139v132zM293 722h139v-132h-139v132z" />
    <glyph glyph-name="uni1E8F" unicode="&#x1e8f;" horiz-adv-x="534" 
d="M398 490h148l-296 -670h-153l94 207l-202 463h157l124 -312zM186 727h162v-141h-162v141z" />
    <glyph glyph-name="uni1EF5" unicode="&#x1ef5;" horiz-adv-x="534" 
d="M398 490h148l-296 -670h-153l94 207l-202 463h157l124 -312zM354 -67h138v-132h-138v132z" />
    <glyph glyph-name="ygrave" unicode="&#x1ef3;" horiz-adv-x="534" 
d="M398 490h148l-296 -670h-153l94 207l-202 463h157l124 -312zM220 555l-152 205h148l98 -205h-94z" />
    <glyph glyph-name="uni1EF7" unicode="&#x1ef7;" horiz-adv-x="534" 
d="M398 490h148l-296 -670h-153l94 207l-202 463h157l124 -312zM306 555h-75v25q0 21 9.5 34.5t26.5 28.5q11 9 16.5 16t5.5 14q0 23 -33 23q-24 0 -50 -9l-21 57q41 18 86 18q55 0 85.5 -21.5t30.5 -53.5q0 -23 -12 -37.5t-35 -31.5q-17 -12 -25.5 -21.5t-8.5 -21.5v-20z
" />
    <glyph glyph-name="uni0233" unicode="&#x233;" horiz-adv-x="534" 
d="M398 490h148l-296 -670h-153l94 207l-202 463h157l124 -312zM110 609v94h314v-94h-314z" />
    <glyph glyph-name="uni1EF9" unicode="&#x1ef9;" horiz-adv-x="534" 
d="M398 490h148l-296 -670h-153l94 207l-202 463h157l124 -312zM123.5 696q30.5 37 78.5 37q18 0 34.5 -7t41.5 -22q19 -12 31.5 -18t24.5 -6q19 0 29.5 13.5t12.5 36.5h65q0 -72 -30.5 -109t-78.5 -37q-18 0 -34.5 7t-41.5 22q-20 12 -32 17.5t-24 5.5q-19 0 -29.5 -13
t-12.5 -36h-65q0 72 30.5 109z" />
    <glyph glyph-name="z" unicode="z" horiz-adv-x="514" 
d="M223 113h258v-113h-435v105l244 273h-241v113h422v-101z" />
    <glyph glyph-name="zacute" unicode="&#x17a;" horiz-adv-x="514" 
d="M223 113h258v-113h-435v105l244 273h-241v113h422v-101zM312 555h-94l98 205h148z" />
    <glyph glyph-name="zcaron" unicode="&#x17e;" horiz-adv-x="514" 
d="M223 113h258v-113h-435v105l244 273h-241v113h422v-101zM323 760h117l-130 -205h-90l-130 205h117l58 -116z" />
    <glyph glyph-name="zdotaccent" unicode="&#x17c;" horiz-adv-x="514" 
d="M223 113h258v-113h-435v105l244 273h-241v113h422v-101zM184 727h162v-141h-162v141z" />
    <glyph glyph-name="uni1E93" unicode="&#x1e93;" horiz-adv-x="514" 
d="M223 113h258v-113h-435v105l244 273h-241v113h422v-101zM186 -67h138v-132h-138v132z" />
    <glyph glyph-name="iacute_j.loclNLD" horiz-adv-x="534" 
d="M58 0v491h151v-491h-151zM181 555h-94l98 205h148zM476 32q0 -75 -22 -120t-70.5 -67.5t-131.5 -27.5l-47 -3l-11 108l51 4q43 3 61.5 21t18.5 57v487h151v-459zM447 555h-94l98 205h148z" />
    <glyph glyph-name="a.ss01" horiz-adv-x="613" 
d="M555 491v-491h-150v73q-22 -38 -62.5 -59.5t-91.5 -21.5q-64 0 -113 31t-76.5 88.5t-27.5 133.5t27.5 134.5t77 91t112.5 32.5q51 0 91.5 -21.5t62.5 -59.5v69h150zM376.5 143q28.5 36 28.5 104t-28.5 104.5t-81.5 36.5t-82 -37.5t-29 -105.5q0 -67 29 -102.5t82 -35.5
t81.5 36z" />
    <glyph glyph-name="aacute.ss01" horiz-adv-x="613" 
d="M555 491v-491h-150v73q-22 -38 -62.5 -59.5t-91.5 -21.5q-64 0 -113 31t-76.5 88.5t-27.5 133.5t27.5 134.5t77 91t112.5 32.5q51 0 91.5 -21.5t62.5 -59.5v69h150zM376.5 143q28.5 36 28.5 104t-28.5 104.5t-81.5 36.5t-82 -37.5t-29 -105.5q0 -67 29 -102.5t82 -35.5
t81.5 36zM353 555h-94l98 205h148z" />
    <glyph glyph-name="abreve.ss01" horiz-adv-x="613" 
d="M555 491v-491h-150v73q-22 -38 -62.5 -59.5t-91.5 -21.5q-64 0 -113 31t-76.5 88.5t-27.5 133.5t27.5 134.5t77 91t112.5 32.5q51 0 91.5 -21.5t62.5 -59.5v69h150zM376.5 143q28.5 36 28.5 104t-28.5 104.5t-81.5 36.5t-82 -37.5t-29 -105.5q0 -67 29 -102.5t82 -35.5
t81.5 36zM189.5 614.5q-51.5 37.5 -69.5 107.5l70 29q43 -79 116 -79t116 79l70 -29q-18 -70 -69.5 -107.5t-116.5 -37.5t-116.5 37.5z" />
    <glyph glyph-name="uni1EAF.ss01" horiz-adv-x="613" 
d="M555 491v-491h-150v73q-22 -38 -62.5 -59.5t-91.5 -21.5q-64 0 -113 31t-76.5 88.5t-27.5 133.5t27.5 134.5t77 91t112.5 32.5q51 0 91.5 -21.5t62.5 -59.5v69h150zM376.5 143q28.5 36 28.5 104t-28.5 104.5t-81.5 36.5t-82 -37.5t-29 -105.5q0 -67 29 -102.5t82 -35.5
t81.5 36zM350 661h-88l100 142h130zM194 577.5q-47 27.5 -66 81.5l55 22q16 -27 50.5 -41t72.5 -14t72.5 14t50.5 41l55 -22q-19 -54 -66 -81.5t-112 -27.5t-112 27.5z" />
    <glyph glyph-name="uni1EB7.ss01" horiz-adv-x="613" 
d="M555 491v-491h-150v73q-22 -38 -62.5 -59.5t-91.5 -21.5q-64 0 -113 31t-76.5 88.5t-27.5 133.5t27.5 134.5t77 91t112.5 32.5q51 0 91.5 -21.5t62.5 -59.5v69h150zM376.5 143q28.5 36 28.5 104t-28.5 104.5t-81.5 36.5t-82 -37.5t-29 -105.5q0 -67 29 -102.5t82 -35.5
t81.5 36zM237 -67h138v-132h-138v132zM189.5 614.5q-51.5 37.5 -69.5 107.5l70 29q43 -79 116 -79t116 79l70 -29q-18 -70 -69.5 -107.5t-116.5 -37.5t-116.5 37.5z" />
    <glyph glyph-name="uni1EB1.ss01" horiz-adv-x="613" 
d="M555 491v-491h-150v73q-22 -38 -62.5 -59.5t-91.5 -21.5q-64 0 -113 31t-76.5 88.5t-27.5 133.5t27.5 134.5t77 91t112.5 32.5q51 0 91.5 -21.5t62.5 -59.5v69h150zM376.5 143q28.5 36 28.5 104t-28.5 104.5t-81.5 36.5t-82 -37.5t-29 -105.5q0 -67 29 -102.5t82 -35.5
t81.5 36zM262 661l-142 142h130l100 -142h-88zM194 577.5q-47 27.5 -66 81.5l55 22q16 -27 50.5 -41t72.5 -14t72.5 14t50.5 41l55 -22q-19 -54 -66 -81.5t-112 -27.5t-112 27.5z" />
    <glyph glyph-name="uni1EB3.ss01" horiz-adv-x="613" 
d="M555 491v-491h-150v73q-22 -38 -62.5 -59.5t-91.5 -21.5q-64 0 -113 31t-76.5 88.5t-27.5 133.5t27.5 134.5t77 91t112.5 32.5q51 0 91.5 -21.5t62.5 -59.5v69h150zM376.5 143q28.5 36 28.5 104t-28.5 104.5t-81.5 36.5t-82 -37.5t-29 -105.5q0 -67 29 -102.5t82 -35.5
t81.5 36zM343 662h-74v20q0 18 13 27.5t34 17.5q7 3 12.5 5.5t5.5 5.5q0 5 -8 9t-25 4q-25 0 -57 -11l-20 51q43 17 95 17q49 0 78 -16.5t29 -43.5q0 -19 -12.5 -29t-35.5 -19q-18 -8 -26.5 -14t-8.5 -16v-8zM194 577.5q-47 27.5 -66 81.5l55 22q16 -27 50.5 -41t72.5 -14
t72.5 14t50.5 41l55 -22q-19 -54 -66 -81.5t-112 -27.5t-112 27.5z" />
    <glyph glyph-name="uni1EB5.ss01" horiz-adv-x="613" 
d="M555 491v-491h-150v73q-22 -38 -62.5 -59.5t-91.5 -21.5q-64 0 -113 31t-76.5 88.5t-27.5 133.5t27.5 134.5t77 91t112.5 32.5q51 0 91.5 -21.5t62.5 -59.5v69h150zM376.5 143q28.5 36 28.5 104t-28.5 104.5t-81.5 36.5t-82 -37.5t-29 -105.5q0 -67 29 -102.5t82 -35.5
t81.5 36zM164 778q32 30 77 30q18 0 34 -4.5t42 -14.5q15 -6 29.5 -10.5t26.5 -4.5q39 0 42 31h65q0 -45 -32 -75t-77 -30q-16 0 -30.5 3.5t-27.5 8t-18 6.5q-15 6 -29.5 10.5t-26.5 4.5q-39 0 -42 -30h-65q0 45 32 75zM194 577.5q-47 27.5 -66 81.5l55 22q16 -27 50.5 -41
t72.5 -14t72.5 14t50.5 41l55 -22q-19 -54 -66 -81.5t-112 -27.5t-112 27.5z" />
    <glyph glyph-name="uni01CE.ss01" horiz-adv-x="613" 
d="M555 491v-491h-150v73q-22 -38 -62.5 -59.5t-91.5 -21.5q-64 0 -113 31t-76.5 88.5t-27.5 133.5t27.5 134.5t77 91t112.5 32.5q51 0 91.5 -21.5t62.5 -59.5v69h150zM376.5 143q28.5 36 28.5 104t-28.5 104.5t-81.5 36.5t-82 -37.5t-29 -105.5q0 -67 29 -102.5t82 -35.5
t81.5 36zM364 760h117l-130 -205h-90l-130 205h117l58 -116z" />
    <glyph glyph-name="acircumflex.ss01" horiz-adv-x="613" 
d="M555 491v-491h-150v73q-22 -38 -62.5 -59.5t-91.5 -21.5q-64 0 -113 31t-76.5 88.5t-27.5 133.5t27.5 134.5t77 91t112.5 32.5q51 0 91.5 -21.5t62.5 -59.5v69h150zM376.5 143q28.5 36 28.5 104t-28.5 104.5t-81.5 36.5t-82 -37.5t-29 -105.5q0 -67 29 -102.5t82 -35.5
t81.5 36zM248 555h-117l130 205h90l130 -205h-117l-58 116z" />
    <glyph glyph-name="uni1EA5.ss01" horiz-adv-x="613" 
d="M555 491v-491h-150v73q-22 -38 -62.5 -59.5t-91.5 -21.5q-64 0 -113 31t-76.5 88.5t-27.5 133.5t27.5 134.5t77 91t112.5 32.5q51 0 91.5 -21.5t62.5 -59.5v69h150zM376.5 143q28.5 36 28.5 104t-28.5 104.5t-81.5 36.5t-82 -37.5t-29 -105.5q0 -67 29 -102.5t82 -35.5
t81.5 36zM474 661h-74l72 142h125zM242 555h-111l132 138h86l132 -138h-111l-64 71z" />
    <glyph glyph-name="uni1EAD.ss01" horiz-adv-x="613" 
d="M555 491v-491h-150v73q-22 -38 -62.5 -59.5t-91.5 -21.5q-64 0 -113 31t-76.5 88.5t-27.5 133.5t27.5 134.5t77 91t112.5 32.5q51 0 91.5 -21.5t62.5 -59.5v69h150zM376.5 143q28.5 36 28.5 104t-28.5 104.5t-81.5 36.5t-82 -37.5t-29 -105.5q0 -67 29 -102.5t82 -35.5
t81.5 36zM237 -67h138v-132h-138v132zM248 555h-117l130 205h90l130 -205h-117l-58 116z" />
    <glyph glyph-name="uni1EA7.ss01" horiz-adv-x="613" 
d="M555 491v-491h-150v73q-22 -38 -62.5 -59.5t-91.5 -21.5q-64 0 -113 31t-76.5 88.5t-27.5 133.5t27.5 134.5t77 91t112.5 32.5q51 0 91.5 -21.5t62.5 -59.5v69h150zM376.5 143q28.5 36 28.5 104t-28.5 104.5t-81.5 36.5t-82 -37.5t-29 -105.5q0 -67 29 -102.5t82 -35.5
t81.5 36zM442 661l-122 142h125l71 -142h-74zM242 555h-111l132 138h86l132 -138h-111l-64 71z" />
    <glyph glyph-name="uni1EA9.ss01" horiz-adv-x="613" 
d="M555 491v-491h-150v73q-22 -38 -62.5 -59.5t-91.5 -21.5q-64 0 -113 31t-76.5 88.5t-27.5 133.5t27.5 134.5t77 91t112.5 32.5q51 0 91.5 -21.5t62.5 -59.5v69h150zM376.5 143q28.5 36 28.5 104t-28.5 104.5t-81.5 36.5t-82 -37.5t-29 -105.5q0 -67 29 -102.5t82 -35.5
t81.5 36zM474 662h-75v20q0 18 13 27.5t34 17.5q7 3 12.5 5.5t5.5 5.5q0 5 -8 9t-24 4q-25 0 -57 -11l-20 51q43 17 95 17q49 0 77.5 -16.5t28.5 -43.5q0 -19 -12 -29t-35 -19q-18 -8 -26.5 -14t-8.5 -16v-8zM242 555h-111l132 138h86l132 -138h-111l-64 71z" />
    <glyph glyph-name="uni1EAB.ss01" horiz-adv-x="613" 
d="M555 491v-491h-150v73q-22 -38 -62.5 -59.5t-91.5 -21.5q-64 0 -113 31t-76.5 88.5t-27.5 133.5t27.5 134.5t77 91t112.5 32.5q51 0 91.5 -21.5t62.5 -59.5v69h150zM376.5 143q28.5 36 28.5 104t-28.5 104.5t-81.5 36.5t-82 -37.5t-29 -105.5q0 -67 29 -102.5t82 -35.5
t81.5 36zM164 786q32 30 77 30q16 0 30.5 -3.5t27.5 -8t18 -6.5q15 -6 29.5 -10.5t26.5 -4.5q39 0 42 30h65q0 -45 -32 -75t-77 -30q-16 0 -30.5 3.5t-27.5 8t-18 6.5q-15 6 -29.5 10.5t-26.5 4.5q-39 0 -42 -30h-65q0 45 32 75zM242 555h-111l132 138h86l132 -138h-111
l-64 71z" />
    <glyph glyph-name="uni0201.ss01" horiz-adv-x="613" 
d="M555 491v-491h-150v73q-22 -38 -62.5 -59.5t-91.5 -21.5q-64 0 -113 31t-76.5 88.5t-27.5 133.5t27.5 134.5t77 91t112.5 32.5q51 0 91.5 -21.5t62.5 -59.5v69h150zM376.5 143q28.5 36 28.5 104t-28.5 104.5t-81.5 36.5t-82 -37.5t-29 -105.5q0 -67 29 -102.5t82 -35.5
t81.5 36zM204 555l-78 205h109l34 -205h-65zM343 555l-78 205h109l34 -205h-65z" />
    <glyph glyph-name="adieresis.ss01" horiz-adv-x="613" 
d="M555 491v-491h-150v73q-22 -38 -62.5 -59.5t-91.5 -21.5q-64 0 -113 31t-76.5 88.5t-27.5 133.5t27.5 134.5t77 91t112.5 32.5q51 0 91.5 -21.5t62.5 -59.5v69h150zM376.5 143q28.5 36 28.5 104t-28.5 104.5t-81.5 36.5t-82 -37.5t-29 -105.5q0 -67 29 -102.5t82 -35.5
t81.5 36zM141 722h139v-132h-139v132zM332 722h139v-132h-139v132z" />
    <glyph glyph-name="uni0227.ss01" horiz-adv-x="613" 
d="M555 491v-491h-150v73q-22 -38 -62.5 -59.5t-91.5 -21.5q-64 0 -113 31t-76.5 88.5t-27.5 133.5t27.5 134.5t77 91t112.5 32.5q51 0 91.5 -21.5t62.5 -59.5v69h150zM376.5 143q28.5 36 28.5 104t-28.5 104.5t-81.5 36.5t-82 -37.5t-29 -105.5q0 -67 29 -102.5t82 -35.5
t81.5 36zM225 727h162v-141h-162v141z" />
    <glyph glyph-name="uni1EA1.ss01" horiz-adv-x="613" 
d="M555 491v-491h-150v73q-22 -38 -62.5 -59.5t-91.5 -21.5q-64 0 -113 31t-76.5 88.5t-27.5 133.5t27.5 134.5t77 91t112.5 32.5q51 0 91.5 -21.5t62.5 -59.5v69h150zM376.5 143q28.5 36 28.5 104t-28.5 104.5t-81.5 36.5t-82 -37.5t-29 -105.5q0 -67 29 -102.5t82 -35.5
t81.5 36zM237 -67h138v-132h-138v132z" />
    <glyph glyph-name="agrave.ss01" horiz-adv-x="613" 
d="M555 491v-491h-150v73q-22 -38 -62.5 -59.5t-91.5 -21.5q-64 0 -113 31t-76.5 88.5t-27.5 133.5t27.5 134.5t77 91t112.5 32.5q51 0 91.5 -21.5t62.5 -59.5v69h150zM376.5 143q28.5 36 28.5 104t-28.5 104.5t-81.5 36.5t-82 -37.5t-29 -105.5q0 -67 29 -102.5t82 -35.5
t81.5 36zM259 555l-152 205h148l98 -205h-94z" />
    <glyph glyph-name="uni1EA3.ss01" horiz-adv-x="613" 
d="M555 491v-491h-150v73q-22 -38 -62.5 -59.5t-91.5 -21.5q-64 0 -113 31t-76.5 88.5t-27.5 133.5t27.5 134.5t77 91t112.5 32.5q51 0 91.5 -21.5t62.5 -59.5v69h150zM376.5 143q28.5 36 28.5 104t-28.5 104.5t-81.5 36.5t-82 -37.5t-29 -105.5q0 -67 29 -102.5t82 -35.5
t81.5 36zM345 555h-75v25q0 21 9.5 34.5t26.5 28.5q11 9 16.5 16t5.5 14q0 23 -33 23q-24 0 -50 -9l-21 57q41 18 86 18q55 0 85.5 -21.5t30.5 -53.5q0 -23 -12 -37.5t-35 -31.5q-17 -12 -25.5 -21.5t-8.5 -21.5v-20z" />
    <glyph glyph-name="uni0203.ss01" horiz-adv-x="613" 
d="M555 491v-491h-150v73q-22 -38 -62.5 -59.5t-91.5 -21.5q-64 0 -113 31t-76.5 88.5t-27.5 133.5t27.5 134.5t77 91t112.5 32.5q51 0 91.5 -21.5t62.5 -59.5v69h150zM376.5 143q28.5 36 28.5 104t-28.5 104.5t-81.5 36.5t-82 -37.5t-29 -105.5q0 -67 29 -102.5t82 -35.5
t81.5 36zM422.5 710.5q51.5 -37.5 69.5 -107.5l-70 -30q-43 80 -116 80t-116 -80l-70 30q18 70 69.5 107.5t116.5 37.5t116.5 -37.5z" />
    <glyph glyph-name="amacron.ss01" horiz-adv-x="613" 
d="M555 491v-491h-150v73q-22 -38 -62.5 -59.5t-91.5 -21.5q-64 0 -113 31t-76.5 88.5t-27.5 133.5t27.5 134.5t77 91t112.5 32.5q51 0 91.5 -21.5t62.5 -59.5v69h150zM376.5 143q28.5 36 28.5 104t-28.5 104.5t-81.5 36.5t-82 -37.5t-29 -105.5q0 -67 29 -102.5t82 -35.5
t81.5 36zM149 609v94h314v-94h-314z" />
    <glyph glyph-name="aogonek.ss01" horiz-adv-x="613" 
d="M592 -177q-45 -20 -100 -20q-56 0 -91.5 31t-35.5 81q0 52 40 89v69q-22 -38 -62.5 -59.5t-91.5 -21.5q-64 0 -113.5 31.5t-76.5 89t-27 132.5t27.5 133.5t77 91.5t112.5 33q50 0 91 -22t63 -60v70h150v-491h-10q-37 0 -60.5 -18t-23.5 -47q0 -26 15.5 -40t44.5 -14
q23 0 54 13zM376.5 143q28.5 36 28.5 104t-28.5 104.5t-81.5 36.5q-52 0 -81.5 -37.5t-29.5 -105.5q0 -67 29 -102.5t82 -35.5t81.5 36z" />
    <glyph glyph-name="aring.ss01" horiz-adv-x="613" 
d="M555 491v-491h-150v73q-22 -38 -62.5 -59.5t-91.5 -21.5q-64 0 -113 31t-76.5 88.5t-27.5 133.5t27.5 134.5t77 91t112.5 32.5q51 0 91.5 -21.5t62.5 -59.5v69h150zM376.5 143q28.5 36 28.5 104t-28.5 104.5t-81.5 36.5t-82 -37.5t-29 -105.5q0 -67 29 -102.5t82 -35.5
t81.5 36zM228.5 581q-31.5 31 -31.5 77q0 45 31.5 76t77.5 31t77.5 -31t31.5 -76q0 -46 -31.5 -77t-77.5 -31t-77.5 31zM337 625q12 13 12 33q0 19 -12 32t-31 13t-31 -13t-12 -32q0 -20 12 -33t31 -13t31 13z" />
    <glyph glyph-name="aringacute.ss01" horiz-adv-x="613" 
d="M228.5 581q-31.5 31 -31.5 77q0 45 31.5 76t77.5 31q23 0 44 -9l70 98l129 -8l-144 -143q10 -23 10 -45q0 -46 -31.5 -77t-77.5 -31t-77.5 31zM275 690q-12 -13 -12 -32q0 -20 12 -33t31 -13t31 13t12 33q0 19 -12 32t-31 13t-31 -13zM555 491v-491h-150v73
q-22 -38 -62.5 -59.5t-91.5 -21.5q-64 0 -113 31t-76.5 88.5t-27.5 133.5t27.5 134.5t77 91t112.5 32.5q51 0 91.5 -21.5t62.5 -59.5v69h150zM376.5 143q28.5 36 28.5 104t-28.5 104.5t-81.5 36.5t-82 -37.5t-29 -105.5q0 -67 29 -102.5t82 -35.5t81.5 36z" />
    <glyph glyph-name="atilde.ss01" horiz-adv-x="613" 
d="M555 491v-491h-150v73q-22 -38 -62.5 -59.5t-91.5 -21.5q-64 0 -113 31t-76.5 88.5t-27.5 133.5t27.5 134.5t77 91t112.5 32.5q51 0 91.5 -21.5t62.5 -59.5v69h150zM376.5 143q28.5 36 28.5 104t-28.5 104.5t-81.5 36.5t-82 -37.5t-29 -105.5q0 -67 29 -102.5t82 -35.5
t81.5 36zM162.5 696q30.5 37 78.5 37q18 0 34.5 -7t41.5 -22q19 -12 31.5 -18t24.5 -6q19 0 29.5 13.5t12.5 36.5h65q0 -72 -30.5 -109t-78.5 -37q-18 0 -34.5 7t-41.5 22q-20 12 -32 17.5t-24 5.5q-19 0 -29.5 -13t-12.5 -36h-65q0 72 30.5 109z" />
    <glyph glyph-name="I_J.loclNLD" horiz-adv-x="673" 
d="M70 0v705h156v-705h-156zM292 115l76 5q40 2 59 22.5t19 61.5v501h157v-499q0 -199 -209 -211l-93 -5z" />
    <glyph glyph-name="i_j.loclNLD" horiz-adv-x="534" 
d="M58 0v491h151v-491h-151zM53 727h162v-141h-162v141zM476 32q0 -75 -22 -120t-70.5 -67.5t-131.5 -27.5l-47 -3l-11 108l51 4q43 3 61.5 21t18.5 57v487h151v-459zM319 727h162v-141h-162v141z" />
    <glyph glyph-name="ordfeminine" unicode="&#xaa;" horiz-adv-x="339" 
d="M282 676.5q36 -33.5 36 -105.5v-165h-117v48q-11 -26 -33 -39.5t-50 -13.5q-44 0 -73 29t-29 67q0 44 36.5 64.5t124.5 20.5h22v10q0 15 -10 22t-34 7q-45 0 -94 -23l-23 86q55 26 133 26q75 0 111 -33.5zM187 490.5q12 10.5 12 30.5v6h-9q-37 0 -50 -6.5t-13 -18.5
q0 -9 7.5 -15.5t21.5 -6.5q19 0 31 10.5z" />
    <glyph glyph-name="ordmasculine" unicode="&#xba;" horiz-adv-x="374" 
d="M59 445.5q-44 44.5 -44 110.5t44 110t128 44t127.5 -44t43.5 -110t-43.5 -110.5t-127.5 -44.5t-128 44.5zM224.5 513.5q13.5 15.5 13.5 42.5q0 29 -13.5 43.5t-37.5 14.5q-49 0 -49 -58q0 -28 13 -43t36 -15q24 0 37.5 15.5z" />
    <glyph glyph-name="uni0394" unicode="&#x394;" horiz-adv-x="751" 
d="M451 672l269 -565l-32 -107l-657 1l15 140l271 564zM377 538l-185 -410h368z" />
    <glyph glyph-name="Sigma" unicode="&#x3a3;" horiz-adv-x="605" 
d="M559 705v-125h-337l195 -269l-1 -96l-194 -270h337v-125h-514v112l237 331l-237 330v112h514z" />
    <glyph glyph-name="uni03A9" unicode="&#x3a9;" horiz-adv-x="812" 
d="M751 367.5q-14 -40.5 -49 -96.5t-103 -146h152v-125h-290v121q87 144 117.5 211t30.5 114q0 71 -52.5 109t-150.5 38t-150.5 -38t-52.5 -109q0 -48 31 -116t117 -209v-121h-290v125h151q-68 91 -103 146.5t-48.5 96t-13.5 83.5q0 81 43 140.5t124 91.5t192 32
q109 0 190 -32.5t125 -92t44 -139.5q0 -43 -14 -83.5z" />
    <glyph glyph-name="uni03BC" unicode="&#x3bc;" horiz-adv-x="589" 
d="M531 491v-491h-147v70q-23 -38 -60.5 -58t-84.5 -20q-13 0 -33 2v-174h-151v671h151v-295q0 -44 18.5 -65t56.5 -21q44 0 71.5 30t27.5 79v272h151z" />
    <glyph glyph-name="pi" unicode="&#x3c0;" horiz-adv-x="616" 
d="M609 100l-10 -109l-48 3q-83 5 -131.5 27.5t-70.5 67.5t-22 120v169h-74q-2 -101 -16.5 -189.5t-48.5 -188.5l-155 -1q32 112 49 200t22 179h-100v113h577v-113h-103v-195q0 -39 18.5 -57.5t61.5 -21.5z" />
    <glyph glyph-name="zero" unicode="0" 
d="M104.5 84q-67.5 93 -67.5 269q0 174 68 266.5t195 92.5t195 -92.5t68 -266.5q0 -176 -67.5 -269t-195.5 -93t-195.5 93zM384.5 168q26.5 58 26.5 185q0 126 -26.5 183t-84.5 57t-84.5 -57t-26.5 -183q0 -127 26.5 -185t84.5 -58t84.5 58z" />
    <glyph glyph-name="one" unicode="1" 
d="M413 125h152v-125h-460v125h152v407l-120 -70l-59 112l224 131h111v-580z" />
    <glyph glyph-name="two" unicode="2" horiz-adv-x="601" 
d="M551 125v-125h-485v115l235 249q74 78 74 144q0 84 -96 84q-44 0 -92 -17.5t-94 -50.5l-49 111q42 36 108 57.5t135 21.5q110 0 175.5 -53t65.5 -142q0 -61 -25.5 -113t-85.5 -116l-157 -165h291z" />
    <glyph glyph-name="three" unicode="3" 
d="M512.5 300.5q33.5 -44.5 33.5 -108.5q0 -93 -71 -146.5t-192 -53.5q-73 0 -140 21t-109 58l49 111q96 -68 193 -68q64 0 93 22.5t29 70.5q0 47 -29 68t-93 21h-101v121h84q61 0 90.5 21t29.5 65q0 43 -26 66t-75 23q-44 0 -92 -17.5t-93 -50.5l-49 111q42 36 108.5 57.5
t136.5 21.5q72 0 126 -23.5t83.5 -66.5t29.5 -100t-29.5 -99.5t-81.5 -61.5q62 -18 95.5 -62.5z" />
    <glyph glyph-name="four" unicode="4" 
d="M579 248v-119h-96v-129h-152v129h-295v115l322 461h125v-457h96zM178 248h153v220z" />
    <glyph glyph-name="five" unicode="5" 
d="M459 427.5q51 -28.5 79 -79.5t28 -118q0 -71 -33.5 -125t-95 -83.5t-143.5 -29.5q-67 0 -133 21.5t-107 57.5l49 111q97 -68 193 -68q61 0 92.5 28t31.5 83q0 52 -32.5 82t-88.5 30q-35 0 -69.5 -13t-62.5 -36h-89v417h454v-119h-302v-157q48 27 113 27t116 -28.5z" />
    <glyph glyph-name="six" unicode="6" 
d="M461.5 429q48.5 -29 76 -81t27.5 -118q0 -69 -31 -123.5t-86 -85t-124 -30.5q-137 0 -212 91t-75 260q0 116 36 199.5t103 128t159 44.5q65 0 126 -20.5t104 -58.5l-50 -111q-92 68 -174 68q-68 0 -106.5 -55.5t-42.5 -161.5q23 38 65 60.5t94 22.5q62 0 110.5 -29z
M390.5 143q28.5 31 28.5 82q0 50 -28.5 81t-75.5 31t-76 -31t-29 -81t29 -81.5t76 -31.5t75.5 31z" />
    <glyph glyph-name="seven" unicode="7" 
d="M47 705h507v-116l-314 -589h-166l313 580h-340v125z" />
    <glyph glyph-name="eight" unicode="8" 
d="M538 300.5q33 -44.5 33 -108.5q0 -94 -72 -147t-199 -53t-199 53t-72 147q0 66 33 110t95 61q-52 20 -81 62t-29 98q0 88 68 139.5t185 51.5q118 0 185.5 -51t67.5 -140q0 -57 -29 -100t-80 -60q61 -18 94 -62.5zM193 506q0 -90 107 -90t107 90q0 89 -107 89t-107 -89z
M426 204q0 93 -126 93t-126 -93t126 -93t126 93z" />
    <glyph glyph-name="nine" unicode="9" 
d="M488 623q75 -91 75 -260q0 -116 -35.5 -199.5t-103 -128t-159.5 -44.5q-65 0 -126 20.5t-104 58.5l50 111q92 -68 174 -68q69 0 106.5 55t42.5 162q-23 -38 -65 -60.5t-94 -22.5q-62 0 -110.5 29t-76 81t-27.5 118q0 69 31 123.5t86 85t124 30.5q137 0 212 -91zM361 399
q29 31 29 81t-29 81.5t-76 31.5t-75.5 -31t-28.5 -82q0 -50 28.5 -81t75.5 -31t76 31z" />
    <glyph glyph-name="one.ss01" 
d="M302 705h110v-705h-156v532l-120 -70l-59 112z" />
    <glyph glyph-name="one.tosf.ss01" 
d="M302 491h110v-491h-156v318l-120 -71l-59 113z" />
    <glyph glyph-name="zero.tosf" 
d="M163.5 25q-60.5 33 -95 91.5t-34.5 131.5t34.5 131.5t95 91t136.5 32.5t136.5 -32.5t95 -91t34.5 -131.5t-34.5 -131.5t-95 -91.5t-136.5 -33t-136.5 33zM389.5 146q34.5 39 34.5 102t-34.5 102t-89.5 39t-89.5 -39t-34.5 -102t34.5 -102t89.5 -39t89.5 39z" />
    <glyph glyph-name="one.tosf" 
d="M413 113h152v-113h-460v113h152v220l-126 -73l-53 100l224 131h111v-378z" />
    <glyph glyph-name="two.tosf" 
d="M534 113v-113h-454v111q154 67 219 117.5t65 97.5q0 30 -20.5 45.5t-66.5 15.5q-75 0 -175 -48l-40 103q46 29 108.5 45t126.5 16q104 0 162 -43t58 -119q0 -147 -240 -228h257z" />
    <glyph glyph-name="three.tosf" 
d="M503 104.5q32 -43.5 32 -100.5t-31.5 -100.5t-88.5 -67.5t-131 -24q-69 0 -133 16t-109 44l40 104q51 -25 97.5 -36.5t95.5 -11.5q58 0 85.5 22t27.5 69q0 84 -129 84h-84v112h66q128 0 128 93q0 38 -25.5 58.5t-70.5 20.5q-74 0 -171 -48l-40 103q44 28 105 44.5
t117 16.5q113 0 173 -47t60 -135q0 -51 -27.5 -93.5t-72.5 -62.5q54 -17 86 -60.5z" />
    <glyph glyph-name="four.tosf" 
d="M564 113v-113h-86v-180h-141v180h-296v115l312 376h125v-378h86zM171 113h166v199z" />
    <glyph glyph-name="five.tosf" 
d="M457.5 224.5q48.5 -27.5 75.5 -77.5t27 -114q0 -103 -70 -162t-190 -59q-62 0 -123.5 16t-104.5 44l40 104q97 -48 183 -48q55 0 86 28t31 77q0 47 -30.5 75.5t-82.5 28.5q-33 0 -67.5 -13t-62.5 -36h-78v403h435v-113h-294v-155q53 29 114 29q63 0 111.5 -27.5z" />
    <glyph glyph-name="six.tosf" 
d="M456.5 431.5q47.5 -26.5 76 -79t28.5 -125.5q0 -68 -30.5 -122t-84.5 -84t-122 -30q-134 0 -208 91.5t-74 259.5q0 115 36 199t102.5 128.5t157.5 44.5q50 0 108.5 -17t95.5 -43l-40 -104q-82 48 -157 48q-70 0 -110.5 -59.5t-43.5 -167.5q23 40 66 63.5t94 23.5
q58 0 105.5 -26.5zM390 140q29 33 29 85t-29 84.5t-75 32.5t-75.5 -32.5t-29.5 -84.5t29.5 -85t75.5 -33t75 33z" />
    <glyph glyph-name="seven.tosf" 
d="M57 491h487v-116l-306 -555h-161l310 558h-330v113z" />
    <glyph glyph-name="eight.tosf" 
d="M533 300.5q33 -44.5 33 -108.5q0 -60 -32.5 -105.5t-93 -70t-140.5 -24.5t-140.5 24.5t-93 70t-32.5 105.5q0 65 33.5 109.5t94.5 61.5q-52 20 -81 62t-29 98q0 57 31 100.5t87 67t130 23.5t130.5 -23.5t87 -67t30.5 -100.5t-29 -100t-80 -60q61 -18 94 -62.5zM222.5 575
q-28.5 -24 -28.5 -67q0 -42 29 -67.5t77 -25.5t77 25.5t29 67.5q0 43 -28.5 67t-77.5 24t-77.5 -24zM391.5 132.5q33.5 25.5 33.5 69.5t-33.5 70t-91.5 26t-91.5 -26t-33.5 -70t33.5 -69.5t91.5 -25.5t91.5 25.5z" />
    <glyph glyph-name="nine.tosf" 
d="M426.5 463q63.5 -40 97.5 -114.5t34 -177.5q0 -109 -36 -190t-103 -124.5t-157 -43.5q-50 0 -108.5 17t-95.5 43l40 104q85 -48 157 -48q67 0 107.5 53.5t45.5 147.5q-22 -39 -62.5 -62t-88.5 -23q-64 0 -113 28.5t-76.5 80t-27.5 117.5t30.5 119t84.5 83t121 30
q87 0 150.5 -40zM360.5 193q29.5 32 29.5 81t-29.5 81t-75.5 32q-45 0 -74 -32t-29 -81t29 -81t74 -32q46 0 75.5 32z" />
    <glyph glyph-name="uni2080" unicode="&#x2080;" horiz-adv-x="380" 
d="M64.5 51.5q-45.5 55.5 -45.5 161.5q0 103 45.5 158.5t125.5 55.5t125.5 -55.5t45.5 -159.5q0 -105 -45.5 -160.5t-125.5 -55.5t-125.5 55.5zM225.5 118q11.5 28 11.5 94q0 64 -11.5 92.5t-35.5 28.5t-35.5 -28.5t-11.5 -92.5q0 -66 11.5 -94t35.5 -28t35.5 28z" />
    <glyph glyph-name="uni2081" unicode="&#x2081;" horiz-adv-x="380" 
d="M282 101h80v-101h-290v101h80v185l-67 -36l-49 90l154 83h92v-322z" />
    <glyph glyph-name="uni2082" unicode="&#x2082;" horiz-adv-x="380" 
d="M349 101v-101h-304v94l131 139q35 39 35 63q0 34 -47 34q-25 0 -54.5 -9t-57.5 -26l-20 93q27 18 70.5 28.5t84.5 10.5q69 0 111.5 -33.5t42.5 -88.5q0 -36 -17.5 -68t-64.5 -75l-67 -61h157z" />
    <glyph glyph-name="uni2083" unicode="&#x2083;" horiz-adv-x="380" 
d="M331.5 181q20.5 -26 20.5 -64q0 -53 -43.5 -87.5t-125.5 -34.5q-41 0 -85 11t-72 28l20 93q62 -35 126 -35q60 0 60 36t-55 36h-71v98h59q29 0 41.5 8t12.5 27q0 15 -12.5 24t-36.5 9q-28 0 -59 -9.5t-59 -25.5l-20 93q27 17 69.5 28t78.5 11q76 0 118.5 -34t42.5 -85
q0 -32 -17.5 -55.5t-49.5 -34.5q37 -11 57.5 -37z" />
    <glyph glyph-name="uni2084" unicode="&#x2084;" horiz-adv-x="380" 
d="M373 156v-93h-59v-63h-114v63h-187v89l200 271h101v-267h59zM117 156h83v111z" />
    <glyph glyph-name="uni2085" unicode="&#x2085;" horiz-adv-x="380" 
d="M321 242.5q38 -35.5 38 -98.5q0 -69 -48.5 -109t-124.5 -40q-40 0 -83 10.5t-71 28.5l20 93q58 -33 121 -33q66 0 66 44q0 42 -62 42q-36 0 -75 -15h-56v258h288v-100h-174v-58q26 13 65 13q58 0 96 -35.5z" />
    <glyph glyph-name="uni2086" unicode="&#x2086;" horiz-adv-x="380" 
d="M320 238.5q38 -33.5 38 -97.5q0 -68 -44.5 -106.5t-115.5 -38.5q-80 0 -127.5 52t-47.5 157q0 106 54 164t143 58q31 0 66 -9.5t65 -29.5l-20 -93q-57 34 -109 34q-36 0 -55 -19.5t-23 -64.5q16 13 38 20t44 7q56 0 94 -33.5zM236 97q13 13 13 38t-13 38t-36 13
q-25 0 -38.5 -13t-13.5 -38q0 -24 13.5 -37.5t36.5 -13.5q25 0 38 13z" />
    <glyph glyph-name="uni2087" unicode="&#x2087;" horiz-adv-x="380" 
d="M30 423h321v-104l-166 -320l-146 1l173 318h-182v105z" />
    <glyph glyph-name="uni2088" unicode="&#x2088;" horiz-adv-x="380" 
d="M364 119q0 -57 -46.5 -90.5t-127.5 -33.5t-127.5 33.5t-46.5 90.5q0 38 20.5 64t58.5 36q-33 12 -50.5 36t-17.5 56q0 53 44 84.5t119 31.5t119 -31.5t44 -84.5q0 -33 -18 -57.5t-51 -34.5q80 -23 80 -100zM140 298q0 -39 50 -39q24 0 37 10t13 29q0 38 -50 38t-50 -38z
M249 127q0 41 -59 41t-59 -41t59 -41t59 41z" />
    <glyph glyph-name="uni2089" unicode="&#x2089;" horiz-adv-x="380" 
d="M309.5 375q47.5 -52 47.5 -157q0 -106 -54 -164t-143 -58q-31 0 -66 9.5t-65 29.5l20 93q60 -34 109 -34q36 0 55 19.5t23 64.5q-16 -13 -38 -20t-44 -7q-56 0 -94 33.5t-38 97.5q0 68 44.5 106.5t115.5 38.5q80 0 127.5 -52zM218.5 250q13.5 13 13.5 38t-13 38t-37 13
q-25 0 -38 -13t-13 -38t13 -38t36 -13q25 0 38.5 13z" />
    <glyph glyph-name="zero.dnom" horiz-adv-x="380" 
d="M64.5 51.5q-45.5 55.5 -45.5 161.5q0 103 45.5 158.5t125.5 55.5t125.5 -55.5t45.5 -159.5q0 -105 -45.5 -160.5t-125.5 -55.5t-125.5 55.5zM225.5 118q11.5 28 11.5 94q0 64 -11.5 92.5t-35.5 28.5t-35.5 -28.5t-11.5 -92.5q0 -66 11.5 -94t35.5 -28t35.5 28z" />
    <glyph glyph-name="one.dnom" horiz-adv-x="380" 
d="M282 101h80v-101h-290v101h80v185l-67 -36l-49 90l154 83h92v-322z" />
    <glyph glyph-name="two.dnom" horiz-adv-x="380" 
d="M349 101v-101h-304v94l131 139q35 39 35 63q0 34 -47 34q-25 0 -54.5 -9t-57.5 -26l-20 93q27 18 70.5 28.5t84.5 10.5q69 0 111.5 -33.5t42.5 -88.5q0 -36 -17.5 -68t-64.5 -75l-67 -61h157z" />
    <glyph glyph-name="three.dnom" horiz-adv-x="380" 
d="M331.5 181q20.5 -26 20.5 -64q0 -53 -43.5 -87.5t-125.5 -34.5q-41 0 -85 11t-72 28l20 93q62 -35 126 -35q60 0 60 36t-55 36h-71v98h59q29 0 41.5 8t12.5 27q0 15 -12.5 24t-36.5 9q-28 0 -59 -9.5t-59 -25.5l-20 93q27 17 69.5 28t78.5 11q76 0 118.5 -34t42.5 -85
q0 -32 -17.5 -55.5t-49.5 -34.5q37 -11 57.5 -37z" />
    <glyph glyph-name="four.dnom" horiz-adv-x="380" 
d="M373 156v-93h-59v-63h-114v63h-187v89l200 271h101v-267h59zM117 156h83v111z" />
    <glyph glyph-name="five.dnom" horiz-adv-x="380" 
d="M321 242.5q38 -35.5 38 -98.5q0 -69 -48.5 -109t-124.5 -40q-40 0 -83 10.5t-71 28.5l20 93q58 -33 121 -33q66 0 66 44q0 42 -62 42q-36 0 -75 -15h-56v258h288v-100h-174v-58q26 13 65 13q58 0 96 -35.5z" />
    <glyph glyph-name="six.dnom" horiz-adv-x="380" 
d="M320 238.5q38 -33.5 38 -97.5q0 -68 -44.5 -106.5t-115.5 -38.5q-80 0 -127.5 52t-47.5 157q0 106 54 164t143 58q31 0 66 -9.5t65 -29.5l-20 -93q-57 34 -109 34q-36 0 -55 -19.5t-23 -64.5q16 13 38 20t44 7q56 0 94 -33.5zM236 97q13 13 13 38t-13 38t-36 13
q-25 0 -38.5 -13t-13.5 -38q0 -24 13.5 -37.5t36.5 -13.5q25 0 38 13z" />
    <glyph glyph-name="seven.dnom" horiz-adv-x="380" 
d="M30 423h321v-104l-166 -320l-146 1l173 318h-182v105z" />
    <glyph glyph-name="eight.dnom" horiz-adv-x="380" 
d="M364 119q0 -57 -46.5 -90.5t-127.5 -33.5t-127.5 33.5t-46.5 90.5q0 38 20.5 64t58.5 36q-33 12 -50.5 36t-17.5 56q0 53 44 84.5t119 31.5t119 -31.5t44 -84.5q0 -33 -18 -57.5t-51 -34.5q80 -23 80 -100zM140 298q0 -39 50 -39q24 0 37 10t13 29q0 38 -50 38t-50 -38z
M249 127q0 41 -59 41t-59 -41t59 -41t59 41z" />
    <glyph glyph-name="nine.dnom" horiz-adv-x="380" 
d="M309.5 375q47.5 -52 47.5 -157q0 -106 -54 -164t-143 -58q-31 0 -66 9.5t-65 29.5l20 93q60 -34 109 -34q36 0 55 19.5t23 64.5q-16 -13 -38 -20t-44 -7q-56 0 -94 33.5t-38 97.5q0 68 44.5 106.5t115.5 38.5q80 0 127.5 -52zM218.5 250q13.5 13 13.5 38t-13 38t-37 13
q-25 0 -38 -13t-13 -38t13 -38t36 -13q25 0 38.5 13z" />
    <glyph glyph-name="zero.numr" horiz-adv-x="380" 
d="M64.5 333.5q-45.5 55.5 -45.5 161.5q0 103 45.5 158.5t125.5 55.5t125.5 -55.5t45.5 -159.5q0 -105 -45.5 -160.5t-125.5 -55.5t-125.5 55.5zM225.5 400q11.5 28 11.5 94q0 64 -11.5 92.5t-35.5 28.5t-35.5 -28.5t-11.5 -92.5q0 -66 11.5 -94t35.5 -28t35.5 28z" />
    <glyph glyph-name="one.numr" horiz-adv-x="380" 
d="M282 383h80v-101h-290v101h80v185l-67 -36l-49 90l154 83h92v-322z" />
    <glyph glyph-name="two.numr" horiz-adv-x="380" 
d="M349 383v-101h-304v94l131 139q35 39 35 63q0 34 -47 34q-25 0 -54.5 -9t-57.5 -26l-20 93q27 18 70.5 28.5t84.5 10.5q69 0 111.5 -33.5t42.5 -88.5q0 -36 -17.5 -68t-64.5 -75l-67 -61h157z" />
    <glyph glyph-name="three.numr" horiz-adv-x="380" 
d="M331.5 463q20.5 -26 20.5 -64q0 -53 -43.5 -87.5t-125.5 -34.5q-41 0 -85 11t-72 28l20 93q62 -35 126 -35q60 0 60 36t-55 36h-71v98h59q29 0 41.5 8t12.5 27q0 15 -12.5 24t-36.5 9q-28 0 -59 -9.5t-59 -25.5l-20 93q27 17 69.5 28t78.5 11q76 0 118.5 -34t42.5 -85
q0 -32 -17.5 -55.5t-49.5 -34.5q37 -11 57.5 -37z" />
    <glyph glyph-name="four.numr" horiz-adv-x="380" 
d="M373 438v-93h-59v-63h-114v63h-187v89l200 271h101v-267h59zM117 438h83v111z" />
    <glyph glyph-name="five.numr" horiz-adv-x="380" 
d="M321 524.5q38 -35.5 38 -98.5q0 -69 -48.5 -109t-124.5 -40q-40 0 -83 10.5t-71 28.5l20 93q58 -33 121 -33q66 0 66 44q0 42 -62 42q-36 0 -75 -15h-56v258h288v-100h-174v-58q26 13 65 13q58 0 96 -35.5z" />
    <glyph glyph-name="six.numr" horiz-adv-x="380" 
d="M320 520.5q38 -33.5 38 -97.5q0 -68 -44.5 -106.5t-115.5 -38.5q-80 0 -127.5 52t-47.5 157q0 106 54 164t143 58q31 0 66 -9.5t65 -29.5l-20 -93q-57 34 -109 34q-36 0 -55 -19.5t-23 -64.5q16 13 38 20t44 7q56 0 94 -33.5zM236 379q13 13 13 38t-13 38t-36 13
q-25 0 -38.5 -13t-13.5 -38q0 -24 13.5 -37.5t36.5 -13.5q25 0 38 13z" />
    <glyph glyph-name="seven.numr" horiz-adv-x="380" 
d="M30 705h321v-104l-166 -320l-146 1l173 318h-182v105z" />
    <glyph glyph-name="eight.numr" horiz-adv-x="380" 
d="M364 401q0 -57 -46.5 -90.5t-127.5 -33.5t-127.5 33.5t-46.5 90.5q0 38 20.5 64t58.5 36q-33 12 -50.5 36t-17.5 56q0 53 44 84.5t119 31.5t119 -31.5t44 -84.5q0 -33 -18 -57.5t-51 -34.5q80 -23 80 -100zM140 580q0 -39 50 -39q24 0 37 10t13 29q0 38 -50 38t-50 -38z
M249 409q0 41 -59 41t-59 -41t59 -41t59 41z" />
    <glyph glyph-name="nine.numr" horiz-adv-x="380" 
d="M309.5 657q47.5 -52 47.5 -157q0 -106 -54 -164t-143 -58q-31 0 -66 9.5t-65 29.5l20 93q60 -34 109 -34q36 0 55 19.5t23 64.5q-16 -13 -38 -20t-44 -7q-56 0 -94 33.5t-38 97.5q0 68 44.5 106.5t115.5 38.5q80 0 127.5 -52zM218.5 532q13.5 13 13.5 38t-13 38t-37 13
q-25 0 -38 -13t-13 -38t13 -38t36 -13q25 0 38.5 13z" />
    <glyph glyph-name="uni2070" unicode="&#x2070;" horiz-adv-x="380" 
d="M64.5 333.5q-45.5 55.5 -45.5 161.5q0 103 45.5 158.5t125.5 55.5t125.5 -55.5t45.5 -159.5q0 -105 -45.5 -160.5t-125.5 -55.5t-125.5 55.5zM225.5 400q11.5 28 11.5 94q0 64 -11.5 92.5t-35.5 28.5t-35.5 -28.5t-11.5 -92.5q0 -66 11.5 -94t35.5 -28t35.5 28z" />
    <glyph glyph-name="uni00B9" unicode="&#xb9;" horiz-adv-x="380" 
d="M282 383h80v-101h-290v101h80v185l-67 -36l-49 90l154 83h92v-322z" />
    <glyph glyph-name="uni00B2" unicode="&#xb2;" horiz-adv-x="380" 
d="M349 383v-101h-304v94l131 139q35 39 35 63q0 34 -47 34q-25 0 -54.5 -9t-57.5 -26l-20 93q27 18 70.5 28.5t84.5 10.5q69 0 111.5 -33.5t42.5 -88.5q0 -36 -17.5 -68t-64.5 -75l-67 -61h157z" />
    <glyph glyph-name="uni00B3" unicode="&#xb3;" horiz-adv-x="380" 
d="M331.5 463q20.5 -26 20.5 -64q0 -53 -43.5 -87.5t-125.5 -34.5q-41 0 -85 11t-72 28l20 93q62 -35 126 -35q60 0 60 36t-55 36h-71v98h59q29 0 41.5 8t12.5 27q0 15 -12.5 24t-36.5 9q-28 0 -59 -9.5t-59 -25.5l-20 93q27 17 69.5 28t78.5 11q76 0 118.5 -34t42.5 -85
q0 -32 -17.5 -55.5t-49.5 -34.5q37 -11 57.5 -37z" />
    <glyph glyph-name="uni2074" unicode="&#x2074;" horiz-adv-x="380" 
d="M373 438v-93h-59v-63h-114v63h-187v89l200 271h101v-267h59zM117 438h83v111z" />
    <glyph glyph-name="uni2075" unicode="&#x2075;" horiz-adv-x="380" 
d="M321 524.5q38 -35.5 38 -98.5q0 -69 -48.5 -109t-124.5 -40q-40 0 -83 10.5t-71 28.5l20 93q58 -33 121 -33q66 0 66 44q0 42 -62 42q-36 0 -75 -15h-56v258h288v-100h-174v-58q26 13 65 13q58 0 96 -35.5z" />
    <glyph glyph-name="uni2076" unicode="&#x2076;" horiz-adv-x="380" 
d="M320 520.5q38 -33.5 38 -97.5q0 -68 -44.5 -106.5t-115.5 -38.5q-80 0 -127.5 52t-47.5 157q0 106 54 164t143 58q31 0 66 -9.5t65 -29.5l-20 -93q-57 34 -109 34q-36 0 -55 -19.5t-23 -64.5q16 13 38 20t44 7q56 0 94 -33.5zM236 379q13 13 13 38t-13 38t-36 13
q-25 0 -38.5 -13t-13.5 -38q0 -24 13.5 -37.5t36.5 -13.5q25 0 38 13z" />
    <glyph glyph-name="uni2077" unicode="&#x2077;" horiz-adv-x="380" 
d="M30 705h321v-104l-166 -320l-146 1l173 318h-182v105z" />
    <glyph glyph-name="uni2078" unicode="&#x2078;" horiz-adv-x="380" 
d="M364 401q0 -57 -46.5 -90.5t-127.5 -33.5t-127.5 33.5t-46.5 90.5q0 38 20.5 64t58.5 36q-33 12 -50.5 36t-17.5 56q0 53 44 84.5t119 31.5t119 -31.5t44 -84.5q0 -33 -18 -57.5t-51 -34.5q80 -23 80 -100zM140 580q0 -39 50 -39q24 0 37 10t13 29q0 38 -50 38t-50 -38z
M249 409q0 41 -59 41t-59 -41t59 -41t59 41z" />
    <glyph glyph-name="uni2079" unicode="&#x2079;" horiz-adv-x="380" 
d="M309.5 657q47.5 -52 47.5 -157q0 -106 -54 -164t-143 -58q-31 0 -66 9.5t-65 29.5l20 93q60 -34 109 -34q36 0 55 19.5t23 64.5q-16 -13 -38 -20t-44 -7q-56 0 -94 33.5t-38 97.5q0 68 44.5 106.5t115.5 38.5q80 0 127.5 -52zM218.5 532q13.5 13 13.5 38t-13 38t-37 13
q-25 0 -38 -13t-13 -38t13 -38t36 -13q25 0 38.5 13z" />
    <glyph glyph-name="fraction" unicode="&#x2044;" horiz-adv-x="200" 
d="M-57 -30l-97 57l411 708l97 -57z" />
    <glyph glyph-name="onehalf" unicode="&#xbd;" horiz-adv-x="960" 
d="M282 383h80v-101h-290v101h80v185l-67 -36l-49 90l154 83h92v-322zM323 -30l-97 57l411 708l97 -57zM929 101v-101h-304v94l131 139q35 39 35 63q0 34 -47 34q-25 0 -54.5 -9t-57.5 -26l-20 93q27 18 70.5 28.5t84.5 10.5q69 0 111.5 -33.5t42.5 -88.5q0 -36 -17.5 -68
t-64.5 -75l-67 -61h157z" />
    <glyph glyph-name="onequarter" unicode="&#xbc;" horiz-adv-x="960" 
d="M282 383h80v-101h-290v101h80v185l-67 -36l-49 90l154 83h92v-322zM323 -30l-97 57l411 708l97 -57zM953 156v-93h-59v-63h-114v63h-187v89l200 271h101v-267h59zM697 156h83v111z" />
    <glyph glyph-name="threequarters" unicode="&#xbe;" horiz-adv-x="960" 
d="M331.5 463q20.5 -26 20.5 -64q0 -53 -43.5 -87.5t-125.5 -34.5q-41 0 -85 11t-72 28l20 93q62 -35 126 -35q60 0 60 36t-55 36h-71v98h59q29 0 41.5 8t12.5 27q0 15 -12.5 24t-36.5 9q-28 0 -59 -9.5t-59 -25.5l-20 93q27 17 69.5 28t78.5 11q76 0 118.5 -34t42.5 -85
q0 -32 -17.5 -55.5t-49.5 -34.5q37 -11 57.5 -37zM323 -30l-97 57l411 708l97 -57zM953 156v-93h-59v-63h-114v63h-187v89l200 271h101v-267h59zM697 156h83v111z" />
    <glyph glyph-name="asterisk" unicode="*" horiz-adv-x="454" 
d="M424 575v-104l-121 8l67 -101l-89 -52l-54 110l-55 -109l-89 51l68 101l-122 -7v103l122 -7l-67 101l89 52l54 -109l54 109l89 -53l-67 -100z" />
    <glyph glyph-name="backslash" unicode="\" horiz-adv-x="330" 
d="M238 -77l-259 808l113 34l259 -808z" />
    <glyph glyph-name="periodcentered" unicode="&#xb7;" horiz-adv-x="260" 
d="M49 348h162v-160h-162v160z" />
    <glyph glyph-name="bullet" unicode="&#x2022;" horiz-adv-x="524" 
d="M172 111.5q-42 23.5 -66.5 64t-24.5 89.5q0 46 23.5 87t65 66t92.5 25q48 0 89.5 -23.5t66.5 -64t25 -90.5q0 -48 -24.5 -88.5t-66 -64.5t-90.5 -24q-48 0 -90 23.5z" />
    <glyph glyph-name="colon" unicode=":" horiz-adv-x="260" 
d="M49 491h162v-160h-162v160zM49 160h162v-160h-162v160z" />
    <glyph glyph-name="comma" unicode="," horiz-adv-x="260" 
d="M211 160v-103q0 -57 -20.5 -104.5t-69.5 -96.5l-59 47q49 49 61 97h-74v160h162z" />
    <glyph glyph-name="ellipsis" unicode="&#x2026;" horiz-adv-x="779" 
d="M49 160h162v-160h-162v160zM309 160h162v-160h-162v160zM569 160h161v-160h-161v160z" />
    <glyph glyph-name="exclam" unicode="!" horiz-adv-x="260" 
d="M84 228l-47 478l186 -1l-48 -477h-91zM49 160h162v-160h-162v160z" />
    <glyph glyph-name="exclamdown" unicode="&#xa1;" horiz-adv-x="260" 
d="M49 331v160h162v-160h-162zM84 263h91l48 -442l-186 -1z" />
    <glyph glyph-name="numbersign" unicode="#" 
d="M551 454h-77l-39 -195h94v-94h-112l-33 -165h-100l33 165h-108l-33 -165h-100l33 165h-60v94h78l39 195h-95v94h114l31 157h100l-31 -157h108l31 157h100l-31 -157h58v-94zM335 259l39 195h-108l-39 -195h108z" />
    <glyph glyph-name="period" unicode="." horiz-adv-x="260" 
d="M49 160h162v-160h-162v160z" />
    <glyph glyph-name="question" unicode="?" horiz-adv-x="468" 
d="M182 273q0 52 19 86.5t53 73.5q26 30 38.5 51t12.5 46q0 30 -20 46t-57 16q-40 0 -87 -18t-92 -50l-50 111q41 36 107.5 57.5t133.5 21.5q64 0 113.5 -21.5t77 -60t27.5 -87.5q0 -37 -14 -67.5t-33.5 -53t-53.5 -54.5q-38 -36 -57 -60.5t-24 -53.5l-6 -33h-88v50zM148 0
v160h161v-160h-161z" />
    <glyph glyph-name="questiondown" unicode="&#xbf;" horiz-adv-x="468" 
d="M159 331v160h162v-160h-162zM118.5 -168q-49.5 20 -79 58t-29.5 91q0 49 25.5 81.5t74.5 70.5q38 30 57.5 51.5t24.5 50.5l6 33h88v-51q0 -50 -19.5 -81t-54.5 -63q-25 -23 -37 -39.5t-12 -38.5q0 -28 19 -44.5t58 -16.5q38 0 85 17t94 51l50 -111q-43 -37 -109.5 -58
t-131.5 -21q-60 0 -109.5 20z" />
    <glyph glyph-name="quotedbl" unicode="&#x22;" horiz-adv-x="469" 
d="M77 407l-36 298h173l-36 -298h-101zM291 407l-36 298h173l-36 -298h-101z" />
    <glyph glyph-name="quotesingle" unicode="'" horiz-adv-x="255" 
d="M77 407l-36 298h173l-36 -298h-101z" />
    <glyph glyph-name="semicolon" unicode=";" horiz-adv-x="260" 
d="M49 491h162v-160h-162v160zM49 160h162v-103q0 -57 -20.5 -104.5t-69.5 -96.5l-59 47q49 49 61 97h-74v160z" />
    <glyph glyph-name="slash" unicode="/" horiz-adv-x="331" 
d="M92 -77l-113 34l259 808l113 -34z" />
    <glyph glyph-name="underscore" unicode="_" horiz-adv-x="500" 
d="M15 -87v87h470v-87h-470z" />
    <glyph glyph-name="periodcentered.loclCAT" horiz-adv-x="300" 
d="M69 325h162v-140h-162v140z" />
    <glyph glyph-name="braceleft" unicode="{" horiz-adv-x="410" 
d="M264 302q-25 -32 -58 -40q33 -8 58 -40t25 -77v-169q0 -24 10 -33.5t31 -9.5h65v-113h-121q-63 0 -98 35t-35 98v174q0 39 -13.5 56.5t-46.5 20.5l-41 4v108l41 4q33 3 46.5 20.5t13.5 56.5v175q0 63 35 98t98 35h121v-113h-65q-21 0 -31 -9.5t-10 -33.5v-170
q0 -45 -25 -77z" />
    <glyph glyph-name="braceright" unicode="}" horiz-adv-x="410" 
d="M370 316v-108l-41 -4q-34 -3 -47.5 -20.5t-13.5 -56.5v-174q0 -63 -35 -98t-97 -35h-121v113h65q21 0 31 9.5t10 33.5v169q0 45 25 77t58 40q-33 8 -58 40t-25 77v170q0 24 -10 33.5t-31 9.5h-65v113h121q62 0 97 -35t35 -98v-175q0 -39 13.5 -56.5t47.5 -20.5z" />
    <glyph glyph-name="bracketleft" unicode="[" horiz-adv-x="373" 
d="M104 -180v885h254v-113h-106v-659h106v-113h-254z" />
    <glyph glyph-name="bracketright" unicode="]" horiz-adv-x="373" 
d="M268 -180h-253v113h106v659h-106v113h253v-885z" />
    <glyph glyph-name="parenleft" unicode="(" horiz-adv-x="375" 
d="M130.5 38q-31.5 107 -31.5 225t31.5 225t110.5 235l99 -41q-48 -123 -67 -219.5t-19 -199.5t19 -199.5t67 -219.5l-99 -41q-79 128 -110.5 235z" />
    <glyph glyph-name="parenright" unicode=")" horiz-adv-x="375" 
d="M35 -156q48 123 67 219.5t19 199.5t-19 199.5t-67 219.5l99 41q78 -128 109.5 -235t31.5 -225t-31.5 -225t-109.5 -235z" />
    <glyph glyph-name="emdash" unicode="&#x2014;" horiz-adv-x="1000" 
d="M0 224v88h1000v-88h-1000z" />
    <glyph glyph-name="endash" unicode="&#x2013;" horiz-adv-x="500" 
d="M0 224v88h500v-88h-500z" />
    <glyph glyph-name="figuredash" unicode="&#x2012;" 
d="M65 224v88h470v-88h-470z" />
    <glyph glyph-name="uni2015" unicode="&#x2015;" horiz-adv-x="1000" 
d="M0 224v88h1000v-88h-1000z" />
    <glyph glyph-name="hyphen" unicode="-" horiz-adv-x="440" 
d="M65 209v118h309v-118h-309z" />
    <glyph glyph-name="uni2010" unicode="&#x2010;" horiz-adv-x="440" 
d="M65 209v118h309v-118h-309z" />
    <glyph glyph-name="uni00AD" unicode="&#xad;" horiz-adv-x="440" 
d="M65 209v118h309v-118h-309z" />
    <glyph glyph-name="guillemotleft" unicode="&#xab;" horiz-adv-x="525" 
d="M165 67l-103 162v74l101 162l100 -46l-71 -153l71 -154zM387 67l-103 162v74l101 162l100 -46l-71 -153l71 -154z" />
    <glyph glyph-name="guillemotright" unicode="&#xbb;" horiz-adv-x="519" 
d="M138 67l-99 45l72 154l-72 153l100 46l102 -162v-74zM360 67l-99 45l72 154l-72 153l100 46l102 -162v-74z" />
    <glyph glyph-name="guilsinglleft" unicode="&#x2039;" horiz-adv-x="303" 
d="M165 67l-103 162v74l101 162l100 -46l-71 -153l71 -154z" />
    <glyph glyph-name="guilsinglright" unicode="&#x203a;" horiz-adv-x="297" 
d="M138 67l-99 45l72 154l-72 153l100 46l102 -162v-74z" />
    <glyph glyph-name="quotedblbase" unicode="&#x201e;" horiz-adv-x="467" 
d="M211 160v-103q0 -57 -20.5 -104.5t-69.5 -96.5l-59 47q49 49 61 97h-74v160h162zM418 160v-103q0 -57 -20.5 -104.5t-69.5 -96.5l-59 47q49 49 61 97h-74v160h162z" />
    <glyph glyph-name="quotedblleft" unicode="&#x201c;" horiz-adv-x="467" 
d="M211 569v-160h-162v103q0 58 20.5 105t69.5 96l58 -47q-48 -50 -60 -97h74zM418 569v-160h-162v103q0 58 20.5 105t69.5 96l58 -47q-48 -50 -60 -97h74z" />
    <glyph glyph-name="quotedblright" unicode="&#x201d;" horiz-adv-x="467" 
d="M211 705v-103q0 -57 -20.5 -104.5t-69.5 -96.5l-59 47q49 49 61 97h-74v160h162zM418 705v-103q0 -57 -20.5 -104.5t-69.5 -96.5l-59 47q49 49 61 97h-74v160h162z" />
    <glyph glyph-name="quoteleft" unicode="&#x2018;" horiz-adv-x="260" 
d="M211 569v-160h-162v103q0 58 20.5 105t69.5 96l58 -47q-48 -50 -60 -97h74z" />
    <glyph glyph-name="quoteright" unicode="&#x2019;" horiz-adv-x="260" 
d="M211 705v-103q0 -57 -20.5 -104.5t-69.5 -96.5l-59 47q49 49 61 97h-74v160h162z" />
    <glyph glyph-name="quotesinglbase" unicode="&#x201a;" horiz-adv-x="260" 
d="M211 160v-103q0 -57 -20.5 -104.5t-69.5 -96.5l-59 47q49 49 61 97h-74v160h162z" />
    <glyph glyph-name="uni2007" unicode="&#x2007;" 
 />
    <glyph glyph-name="uni200A" unicode="&#x200a;" horiz-adv-x="100" 
 />
    <glyph glyph-name="uni2008" unicode="&#x2008;" horiz-adv-x="260" 
 />
    <glyph glyph-name="uni00A0" unicode="&#xa0;" horiz-adv-x="279" 
 />
    <glyph glyph-name="uni2009" unicode="&#x2009;" horiz-adv-x="200" 
 />
    <glyph glyph-name="uni200B" unicode="&#x200b;" horiz-adv-x="0" 
 />
    <glyph glyph-name="uni20B5" unicode="&#x20b5;" 
d="M570 72q-29 -29 -72.5 -49t-91.5 -28v-110h-120v112q-113 23 -178 117t-65 239q0 143 64 237t176 117v113h121v-110q48 -8 92 -28t74 -49l-50 -111q-48 36 -86 52t-74 16q-77 0 -118 -61t-41 -176t41 -176.5t118 -61.5q36 0 74 16t86 52z" />
    <glyph glyph-name="cent" unicode="&#xa2;" 
d="M527 52q-27 -23 -66.5 -38t-85.5 -20v-109h-120v117q-83 21 -130.5 85t-47.5 158q0 92 48 157.5t130 88.5v119h120v-109q45 -4 85.5 -19.5t66.5 -39.5l-40 -103q-29 23 -63.5 35.5t-67.5 12.5q-59 0 -91.5 -36t-32.5 -103q0 -68 32 -104t92 -36q33 0 67.5 12.5t63.5 35.5
z" />
    <glyph glyph-name="colonmonetary" unicode="&#x20a1;" 
d="M242 529q-41 -61 -41 -176t41 -176.5t118 -61.5q36 0 74 16t86 52l50 -111q-38 -37 -97.5 -59t-119.5 -22q-34 0 -64 6l-47 -120l-91 35l48 117q-25 15 -47 35l-53 -132l-90 32l75 190q-41 87 -41 199q0 100 32 177t91 123.5t140 57.5l43 109h102l-43 -111q26 -4 55 -14
l50 125h103l-67 -169l21 -18l-50 -111q-48 36 -86 52t-74 16q-77 0 -118 -61z" />
    <glyph glyph-name="currency" unicode="&#xa4;" 
d="M494 100l55 -56l-56 -55l-53 55q-63 -47 -142 -47q-78 0 -141 46l-53 -55l-56 56l53 55q-46 65 -46 146t46 146l-53 55l57 57l53 -55q63 45 140 45q76 0 139 -45l54 56l59 -59l-55 -56q45 -64 45 -144t-46 -145zM359 131.5q28 17.5 44.5 48t16.5 65.5q0 36 -17 66
t-45 47.5t-62 17.5q-33 0 -60.5 -18t-44 -48t-16.5 -65q0 -54 35.5 -92.5t87.5 -38.5q33 0 61 17.5z" />
    <glyph glyph-name="dollar" unicode="$" 
d="M519.5 68.5q-55.5 -55.5 -149.5 -71.5v-112h-120v108q-65 5 -121.5 25t-97.5 52l50 111q99 -69 213 -69q61 0 93.5 22.5t32.5 63.5q0 25 -18 41t-45.5 25.5t-78.5 22.5q-74 18 -122 38t-82.5 61.5t-34.5 110.5q0 80 57.5 137.5t150.5 73.5v112h120v-109q58 -8 109 -27.5
t83 -48.5l-50 -111q-99 69 -196 69q-54 0 -86.5 -23t-32.5 -64q0 -28 19 -46t48 -28t81 -23q72 -18 119 -37t80.5 -59t33.5 -108q0 -81 -55.5 -136.5z" />
    <glyph glyph-name="dong" unicode="&#x20ab;" 
d="M598 542h-67v-542h-149v72q-21 -37 -59 -58.5t-83 -21.5q-59 0 -104.5 32t-70.5 90.5t-25 135.5t24.5 134t69.5 88t106 31q43 0 81 -21t59 -56v116h-140v88h140v75h151v-75h67v-88zM356 145.5q26 38.5 26 102.5t-26 102t-70 38t-70 -37t-26 -101q0 -65 26 -104t70 -39
t70 38.5zM63 -154v88h468v-88h-468z" />
    <glyph glyph-name="Euro" unicode="&#x20ac;" 
d="M448 130.5q36 15.5 85 52.5l50 -111q-39 -37 -97.5 -59t-117.5 -22q-101 0 -168.5 62.5t-90.5 176.5h-88v92h77q-1 10 -1 31t1 31h-77v92h88q23 114 90.5 176t168.5 62q60 0 118 -22t97 -59l-50 -111q-49 37 -85 52.5t-72 15.5q-46 0 -74 -27.5t-41 -86.5h148v-92h-158
v-31v-31h158v-92h-148q13 -60 41 -87.5t74 -27.5q36 0 72 15.5z" />
    <glyph glyph-name="florin" unicode="&#x192;" 
d="M454 571q-19 -20 -26 -58l-4 -18h109v-87h-127l-86 -401q-20 -101 -81 -146.5t-139 -45.5h-73v118h71q29 0 48 20t26 58l85 397h-108v87h126l5 22q20 101 81 147t139 46h73v-119h-71q-29 0 -48 -20z" />
    <glyph glyph-name="franc" unicode="&#x20a3;" 
d="M592 498v-122h-9q-69 0 -100 -28.5t-31 -90.5v-257h-144v296h-115v-296h-146v705h438v-125h-292v-159h115v70h132v-93q16 57 48.5 78.5t89.5 21.5h14z" />
    <glyph glyph-name="uni20B2" unicode="&#x20b2;" 
d="M314 389h248v-346q-85 -36 -164 -48v-110h-120v113q-113 23 -178 116.5t-65 238.5q0 144 64 237.5t176 116.5v113h120v-110q48 -8 92 -27.5t75 -49.5l-50 -111q-48 36 -86 52t-74 16q-75 0 -117 -60t-42 -177q0 -118 41.5 -180t112.5 -62q31 0 76 13v157h-109v108z" />
    <glyph glyph-name="uni20AD" unicode="&#x20ad;" 
d="M565 308h-166l212 -308h-168l-206 303v-303h-149v308h-67v88h67v309h149v-302l206 302h168l-213 -309h167v-88z" />
    <glyph glyph-name="lira" unicode="&#x20a4;" 
d="M268 125h301v-125h-528v125h73v105h-73v92h73v62h-73v92h73v38q0 59 28.5 104.5t80.5 70.5t120 25t129 -20.5t107 -58.5l-50 -111q-98 68 -174 68q-42 0 -64.5 -22.5t-22.5 -65.5v-28h161v-92h-161v-62h161v-92h-161v-105z" />
    <glyph glyph-name="uni20BA" unicode="&#x20ba;" 
d="M586 70q-94 -79 -248 -79q-103 0 -208 41v239l-72 -40v105l72 40v61l-72 -40v106l72 40v162h156v-74l158 89v-106l-158 -89v-61l158 89v-105l-158 -89v-233q30 -11 77 -11q80 0 174 66z" />
    <glyph glyph-name="uni20BC" unicode="&#x20bc;" 
d="M478 626q46 -66 70.5 -216t24.5 -410h-151q0 211 -6.5 331.5t-21 177.5t-39.5 75v-289h-110v289q-25 -18 -39.5 -75t-21 -177.5t-6.5 -331.5h-151q0 260 24.5 410t70.5 216t118 81v113h120v-113q72 -15 118 -81z" />
    <glyph glyph-name="uni20A6" unicode="&#x20a6;" 
d="M580 386h-81v-62h81v-92h-81v-232h-123l-148 385v-385h-127v232h-80v92h80v62h-80v92h80v227h123l147 -409v409h128v-227h81v-92z" />
    <glyph glyph-name="peseta" unicode="&#x20a7;" horiz-adv-x="1200" 
d="M1142 242q37 -33 37 -95q0 -70 -57 -112.5t-149 -42.5q-102 0 -182 43l-3 -39q-29 -4 -58 -4q-112 0 -163.5 49t-51.5 149v188h-55q-23 -71 -80 -112t-136 -41h-34v-225h-150v705h184q97 0 158.5 -58t69.5 -156h43v144h151v-144h105v-113h-105v-187q0 -88 82 -88
q12 0 36 2l20 51q86 -53 170 -53q31 0 49.5 11t18.5 30q0 14 -8.5 23.5t-30 16.5t-64.5 16q-83 17 -120.5 51.5t-37.5 93.5q0 44 26.5 80.5t72.5 57t102 20.5q48 0 97.5 -16.5t87.5 -44.5l-40 -100q-82 51 -151 51q-25 0 -41 -12t-16 -31t18.5 -29.5t74.5 -23.5
q93 -22 130 -55zM309 372q22 29 22 92q0 64 -21.5 93t-69.5 29h-32v-243h32q47 0 69 29z" />
    <glyph glyph-name="uni20B1" unicode="&#x20b1;" 
d="M580 496h-68q1 -10 1 -31q0 -11 -2 -31h69v-92h-94q-28 -55 -79.5 -86t-121.5 -31h-34v-225h-150v342h-80v92h80v62h-80v92h80v117h184q71 0 122.5 -31.5t78.5 -85.5h94v-92zM349.5 371q22.5 28 22.5 93q0 66 -22.5 94t-69.5 28h-31v-243h31q47 0 69.5 28z" />
    <glyph glyph-name="uni20BD" unicode="&#x20bd;" 
d="M251 295v-62h157v-91h-157v-142h-150v142h-80v91h80v62h-80v92h80v318h244q76 0 130.5 -26t82.5 -71.5t28 -103.5q0 -100 -62.5 -154.5t-178.5 -54.5h-94zM249 387h59q68 0 102 23.5t34 73.5q0 57 -31 82t-95 25h-69v-204z" />
    <glyph glyph-name="uni20B9" unicode="&#x20b9;" 
d="M582 0h-187l-149 225q-16 26 -35 37t-49 11h-141v120h208q92 0 114 67h-322v91h320q-22 62 -112 62h-208v92h559v-92h-117q19 -24 29 -62h88v-91h-84q-9 -67 -51.5 -111.5t-111.5 -60.5q33 -7 57.5 -24.5t46.5 -50.5z" />
    <glyph glyph-name="sterling" unicode="&#xa3;" 
d="M268 125h301v-125h-528v125h73v182h-73v92h73v115q0 59 28.5 104.5t80.5 70.5t120 25t129 -20.5t107 -58.5l-50 -111q-98 68 -174 68q-42 0 -64.5 -22.5t-22.5 -65.5v-105h161v-92h-161v-182z" />
    <glyph glyph-name="uni20A9" unicode="&#x20a9;" 
d="M580 386h-76l-8 -62h84v-92h-97l-31 -232h-78l-74 427l-75 -427h-78l-31 232h-95v92h82l-8 62h-74v92h62l-31 227h110l40 -387l61 387h73l61 -387l40 387h110l-31 -227h64v-92z" />
    <glyph glyph-name="yen" unicode="&#xa5;" 
d="M623 705l-205 -302h117v-92h-158v-62h158v-92h-158v-157h-155v157h-157v92h157v62h-157v92h117l-205 302h168l155 -241l155 241h168z" />
    <glyph glyph-name="uni2219" unicode="&#x2219;" 
d="M219 348h162v-160h-162v160z" />
    <glyph glyph-name="uni2215" unicode="&#x2215;" 
d="M227 -77l-112 34l258 808l113 -34z" />
    <glyph glyph-name="plus" unicode="+" 
d="M544 338v-103h-192v-192h-104v192h-192v103h192v193h104v-193h192z" />
    <glyph glyph-name="minus" unicode="&#x2212;" 
d="M544 338v-103h-488v103h488z" />
    <glyph glyph-name="multiply" unicode="&#xd7;" 
d="M534 448l-161 -161l161 -161l-73 -73l-161 161l-161 -161l-73 73l161 161l-161 161l73 73l161 -161l161 161z" />
    <glyph glyph-name="divide" unicode="&#xf7;" 
d="M235 417v120h118v-120h-118zM544 338v-103h-488v103h488zM235 31v120h118v-120h-118z" />
    <glyph glyph-name="equal" unicode="=" 
d="M544 438v-103h-488v103h488zM544 238v-103h-488v103h488z" />
    <glyph glyph-name="notequal" unicode="&#x2260;" 
d="M544 335h-174l-41 -97h215v-103h-257l-54 -130l-95 40l37 90h-119v103h162l40 97h-202v103h245l54 131l95 -40l-38 -91h132v-103z" />
    <glyph glyph-name="greater" unicode="&#x3e;" 
d="M56 543l488 -199v-113l-488 -200v113l356 143l-356 143v113z" />
    <glyph glyph-name="less" unicode="&#x3c;" 
d="M544 543v-113l-356 -143l356 -143v-113l-488 200v113z" />
    <glyph glyph-name="greaterequal" unicode="&#x2265;" 
d="M56 543l488 -150v-113l-488 -149v108l335 98l-335 97v109zM56 0v103h488v-103h-488z" />
    <glyph glyph-name="lessequal" unicode="&#x2264;" 
d="M544 543v-109l-335 -97l335 -98v-108l-488 149v113zM56 0v103h488v-103h-488z" />
    <glyph glyph-name="plusminus" unicode="&#xb1;" 
d="M352 389h192v-104h-192v-142h-104v142h-192v104h192v142h104v-142zM56 0v103h488v-103h-488z" />
    <glyph glyph-name="approxequal" unicode="&#x2248;" 
d="M544 412q-16 -50 -54 -79t-84 -29q-29 0 -57 10t-67 30q-31 15 -47.5 22t-31.5 7q-49 0 -70 -61l-77 50q16 50 53.5 79t83.5 29q29 0 58 -10.5t66 -29.5q28 -14 46 -21t34 -7q47 0 70 59zM544 212q-16 -50 -54 -79t-84 -29q-29 0 -57 10.5t-67 29.5q-31 15 -47.5 22
t-31.5 7q-49 0 -70 -61l-77 50q16 50 53.5 79t83.5 29q29 0 58 -10.5t66 -29.5q28 -14 46 -21t34 -7q47 0 70 59z" />
    <glyph glyph-name="asciitilde" unicode="~" 
d="M544 312q-16 -50 -53.5 -79t-83.5 -29q-29 0 -58 10.5t-66 29.5q-31 15 -48 22t-32 7q-49 0 -70 -61l-77 50q16 50 53.5 79t83.5 29q29 0 58 -10.5t66 -29.5q28 -14 46 -21t34 -7q49 0 70 59z" />
    <glyph glyph-name="logicalnot" unicode="&#xac;" 
d="M544 439v-304h-106v201h-382v103h488z" />
    <glyph glyph-name="emptyset" unicode="&#x2205;" 
d="M105 120q-47 39 -74 93.5t-27 117.5q0 75 39 140t107 104.5t151 39.5q82 0 153 -41l80 102l53 -40l-80 -101q42 -39 65.5 -92t23.5 -112q0 -76 -40 -141t-107.5 -103t-147.5 -38q-75 0 -142 36l-80 -102l-54 35zM406 510q-49 26 -105 26q-59 0 -107.5 -27t-76.5 -73.5
t-28 -104.5q0 -43 17 -82t47 -67zM406.5 153q48.5 26 77 73t28.5 105q0 80 -54 140l-251 -324q43 -20 94 -20q57 0 105.5 26z" />
    </font>
</defs>
</svg>
