<?xml version="1.0" standalone="no"?>
<!DOCTYPE svg PUBLIC "-//W3C//DTD SVG 1.1//EN" "http://www.w3.org/Graphics/SVG/1.1/DTD/svg11.dtd" >
<svg xmlns="http://www.w3.org/2000/svg" xmlns:xlink="http://www.w3.org/1999/xlink" version="1.1">
<metadata>
Created by FontForge 20190801 at Thu Jan 19 13:17:58 2017
 By root
Copyright 2016 The Nunito Project Authors (contact@sansoxygen.com)
</metadata>
<defs>
<font id="NunitoSans-Italic" horiz-adv-x="600" >
  <font-face 
    font-family="Nunito Sans"
    font-weight="400"
    font-style="italic"
    font-stretch="normal"
    units-per-em="1000"
    panose-1="0 0 5 0 0 0 0 0 0 0"
    ascent="800"
    descent="-200"
    x-height="486"
    cap-height="705"
    bbox="-341 -270 1303 1077"
    underline-thickness="50"
    underline-position="-100"
    slope="-4.541"
    unicode-range="U+000D-FB02"
  />
<missing-glyph horiz-adv-x="443" 
d="M363 705v-885h-281v885h281zM295 646h-146v-29h57v-33h-58v-29h147v29h-59v33h59v29zM236 532h-88v-92h147v30h-59v62zM206 501v-31h-29v31h29zM295 416h-147v-30h58v-32h-58v-30h88v62h59v30zM295 363h-29v-59h-118v-30h147v89zM295 255h-89v-50h30v20h30v-41h-89v71
h-29v-100h147v100zM295 101h-147v-100h147v100zM266 72v-41h-89v41h89zM295 -19h-147v-29h62l-62 -42v-29h147v29h-91l62 42h29v29z" />
    <glyph glyph-name="fi" unicode="fi" horiz-adv-x="559" 
d="M203 487h299l-38 -487h-81l34 423h-219l-34 -423h-81l33 423h-94l4 64h95l2 22q7 96 58.5 143.5t153.5 53.5l40 2v-63l-49 -3q-59 -5 -88 -34t-33 -91zM428 699h101l-8 -93h-100z" />
    <glyph glyph-name="fl" unicode="fl" horiz-adv-x="560" 
d="M203 487h138l-5 -64h-138l-34 -423h-81l33 423h-94l4 64h95l2 22q7 96 58.5 143.5t153.5 53.5l41 2l2 -63l-52 -3q-59 -4 -88 -33.5t-33 -91.5zM384 0l56 705h81l-56 -705h-81z" />
    <glyph glyph-name=".notdef" horiz-adv-x="443" 
d="M363 705v-885h-281v885h281zM295 646h-146v-29h57v-33h-58v-29h147v29h-59v33h59v29zM236 532h-88v-92h147v30h-59v62zM206 501v-31h-29v31h29zM295 416h-147v-30h58v-32h-58v-30h88v62h59v30zM295 363h-29v-59h-118v-30h147v89zM295 255h-89v-50h30v20h30v-41h-89v71
h-29v-100h147v100zM295 101h-147v-100h147v100zM266 72v-41h-89v41h89zM295 -19h-147v-29h62l-62 -42v-29h147v29h-91l62 42h29v29z" />
    <glyph glyph-name="NULL" horiz-adv-x="0" 
 />
    <glyph glyph-name="NULL" horiz-adv-x="0" 
 />
    <glyph glyph-name="nonmarkingreturn" unicode="&#xd;" horiz-adv-x="258" 
 />
    <glyph glyph-name="space" unicode=" " horiz-adv-x="258" 
 />
    <glyph glyph-name="A" unicode="A" horiz-adv-x="727" 
d="M608 0l-64 181h-368l-91 -181h-86l365 705h71l255 -705h-82zM211 249h309l-127 361z" />
    <glyph glyph-name="Aacute" unicode="&#xc1;" horiz-adv-x="727" 
d="M608 0l-64 181h-368l-91 -181h-86l365 705h71l255 -705h-82zM211 249h309l-127 361zM433 765h-56l110 152h94z" />
    <glyph glyph-name="Abreve" unicode="&#x102;" horiz-adv-x="727" 
d="M608 0l-64 181h-368l-91 -181h-86l365 705h71l255 -705h-82zM211 249h309l-127 361zM310.5 803.5q-42.5 26.5 -59.5 79.5l53 22q19 -39 44.5 -54.5t62.5 -15.5q36 0 63.5 15.5t52.5 54.5l50 -22q-26 -54 -70 -80t-99 -26t-97.5 26.5z" />
    <glyph glyph-name="uni1EAE" unicode="&#x1eae;" horiz-adv-x="727" 
d="M608 0l-64 181h-368l-91 -181h-86l365 705h71l255 -705h-82zM211 249h309l-127 361zM386 868l108 141h91l-145 -141h-54zM310 786.5q-42 26.5 -60 79.5l48 20q20 -39 47.5 -55.5t64.5 -16.5q36 0 65.5 16t54.5 56l46 -20q-26 -55 -70.5 -80.5t-98.5 -25.5q-55 0 -97 26.5
z" />
    <glyph glyph-name="uni1EB6" unicode="&#x1eb6;" horiz-adv-x="727" 
d="M608 0l-64 181h-368l-91 -181h-86l365 705h71l255 -705h-82zM211 249h309l-127 361zM292 -94h92l-8 -88h-92zM310.5 803.5q-42.5 26.5 -59.5 79.5l53 22q19 -39 44.5 -54.5t62.5 -15.5q36 0 63.5 15.5t52.5 54.5l50 -22q-26 -54 -70 -80t-99 -26t-97.5 26.5z" />
    <glyph glyph-name="uni1EB0" unicode="&#x1eb0;" horiz-adv-x="727" 
d="M608 0l-64 181h-368l-91 -181h-86l365 705h71l255 -705h-82zM211 249h309l-127 361zM386 868l-118 141h81l91 -141h-54zM310 786.5q-42 26.5 -60 79.5l48 20q20 -39 47.5 -55.5t64.5 -16.5q36 0 65.5 16t54.5 56l46 -20q-26 -55 -70.5 -80.5t-98.5 -25.5q-55 0 -97 26.5z
" />
    <glyph glyph-name="uni1EB2" unicode="&#x1eb2;" horiz-adv-x="727" 
d="M608 0l-64 181h-368l-91 -181h-86l365 705h71l255 -705h-82zM211 249h309l-127 361zM388 885q1 18 13 27.5t33 17.5q14 6 20.5 10t6.5 11t-10 11.5t-26 4.5q-30 0 -66 -12l-11 44q40 16 83 16q44 0 69 -16t25 -41q0 -21 -13 -32t-36 -21q-16 -6 -25 -12t-10 -16l-1 -9
h-53zM310 786.5q-42 26.5 -60 79.5l48 20q20 -39 47.5 -55.5t64.5 -16.5q36 0 65.5 16t54.5 56l46 -20q-26 -55 -70.5 -80.5t-98.5 -25.5q-55 0 -97 26.5z" />
    <glyph glyph-name="uni1EB4" unicode="&#x1eb4;" horiz-adv-x="727" 
d="M608 0l-64 181h-368l-91 -181h-86l365 705h71l255 -705h-82zM211 249h309l-127 361zM451.5 918.5q-18.5 7.5 -43.5 21.5q-21 12 -33.5 17.5t-24.5 5.5q-22 0 -35 -13t-15 -36h-44q2 49 29 76t67 27q20 0 38.5 -7.5t42.5 -21.5q23 -12 35 -17.5t25 -5.5q21 0 34 13t14 36
h45q-2 -48 -29 -75.5t-67 -27.5q-20 0 -38.5 7.5zM310 786.5q-42 26.5 -60 79.5l48 20q20 -39 47.5 -55.5t64.5 -16.5q36 0 65.5 16t54.5 56l46 -20q-26 -55 -70.5 -80.5t-98.5 -25.5q-55 0 -97 26.5z" />
    <glyph glyph-name="Acircumflex" unicode="&#xc2;" horiz-adv-x="727" 
d="M608 0l-64 181h-368l-91 -181h-86l365 705h71l255 -705h-82zM211 249h309l-127 361zM333 765h-74l131 152h54l107 -152h-72l-63 103z" />
    <glyph glyph-name="uni1EA4" unicode="&#x1ea4;" horiz-adv-x="727" 
d="M608 0l-64 181h-368l-91 -181h-86l365 705h71l255 -705h-82zM211 249h309l-127 361zM498 868l100 141h89l-140 -141h-49zM259 765l131 147h54l107 -147h-72l-64 99l-82 -99h-74z" />
    <glyph glyph-name="uni1EAC" unicode="&#x1eac;" horiz-adv-x="727" 
d="M608 0l-64 181h-368l-91 -181h-86l365 705h71l255 -705h-82zM211 249h309l-127 361zM292 -94h92l-8 -88h-92zM333 765h-74l131 152h54l107 -152h-72l-63 103z" />
    <glyph glyph-name="uni1EA6" unicode="&#x1ea6;" horiz-adv-x="727" 
d="M608 0l-64 181h-368l-91 -181h-86l365 705h71l255 -705h-82zM211 249h309l-127 361zM540 868l-98 141h80l68 -141h-50zM259 765l131 147h54l107 -147h-72l-64 99l-82 -99h-74z" />
    <glyph glyph-name="uni1EA8" unicode="&#x1ea8;" horiz-adv-x="727" 
d="M608 0l-64 181h-368l-91 -181h-86l365 705h71l255 -705h-82zM211 249h309l-127 361zM498 885q1 18 13 27.5t33 17.5q14 6 20.5 10t6.5 11t-10 11.5t-26 4.5q-30 0 -66 -12l-11 44q40 16 83 16t68.5 -16t25.5 -41q0 -21 -13 -32t-36 -21q-16 -6 -25 -12t-10 -16l-1 -9h-53
zM259 765l131 147h54l107 -147h-72l-64 99l-82 -99h-74z" />
    <glyph glyph-name="uni1EAA" unicode="&#x1eaa;" horiz-adv-x="727" 
d="M608 0l-64 181h-368l-91 -181h-86l365 705h71l255 -705h-82zM211 249h309l-127 361zM452.5 934q-17.5 6 -45.5 18q-19 9 -32 14t-25 5q-21 0 -34 -12.5t-15 -31.5h-44q2 45 29 71.5t67 26.5q21 0 37.5 -5.5t45.5 -18.5q19 -9 32 -14t26 -5q21 0 34 12.5t14 32.5h45
q-2 -46 -29 -72.5t-67 -26.5q-21 0 -38.5 6zM259 765l131 147h54l107 -147h-72l-64 99l-82 -99h-74z" />
    <glyph glyph-name="uni0200" unicode="&#x200;" horiz-adv-x="727" 
d="M608 0l-64 181h-368l-91 -181h-86l365 705h71l255 -705h-82zM211 249h309l-127 361zM323 765l-84 152h68l60 -152h-44zM443 765l-85 152h68l61 -152h-44z" />
    <glyph glyph-name="Adieresis" unicode="&#xc4;" horiz-adv-x="727" 
d="M608 0l-64 181h-368l-91 -181h-86l365 705h71l255 -705h-82zM211 249h309l-127 361zM285 885h89l-7 -86h-89zM456 885h89l-7 -86h-89z" />
    <glyph glyph-name="uni1EA0" unicode="&#x1ea0;" horiz-adv-x="727" 
d="M608 0l-64 181h-368l-91 -181h-86l365 705h71l255 -705h-82zM211 249h309l-127 361zM292 -94h92l-8 -88h-92z" />
    <glyph glyph-name="Agrave" unicode="&#xc0;" horiz-adv-x="727" 
d="M608 0l-64 181h-368l-91 -181h-86l365 705h71l255 -705h-82zM211 249h309l-127 361zM377 765l-119 152h84l91 -152h-56z" />
    <glyph glyph-name="uni1EA2" unicode="&#x1ea2;" horiz-adv-x="727" 
d="M608 0l-64 181h-368l-91 -181h-86l365 705h71l255 -705h-82zM211 249h309l-127 361zM432 765h-53l1 18q1 17 13 27.5t32 20.5q14 6 21 12t7 13q0 8 -10 12.5t-28 4.5q-30 0 -63 -12l-11 44q38 16 81 16q45 0 70 -16t25 -43q0 -21 -13 -33t-37 -23q-18 -10 -25.5 -15.5
t-8.5 -15.5z" />
    <glyph glyph-name="uni0202" unicode="&#x202;" horiz-adv-x="727" 
d="M608 0l-64 181h-368l-91 -181h-86l365 705h71l255 -705h-82zM211 249h309l-127 361zM511.5 879q42.5 -27 59.5 -79l-53 -22q-19 39 -44.5 54.5t-62.5 15.5q-36 0 -63.5 -15.5t-52.5 -54.5l-50 22q26 54 70 80t99 26t97.5 -27z" />
    <glyph glyph-name="Amacron" unicode="&#x100;" horiz-adv-x="727" 
d="M608 0l-64 181h-368l-91 -181h-86l365 705h71l255 -705h-82zM211 249h309l-127 361zM259 811l5 61h299l-5 -61h-299z" />
    <glyph glyph-name="Aogonek" unicode="&#x104;" horiz-adv-x="727" 
d="M710 -170q-17 -10 -39 -16.5t-45 -6.5q-51 0 -81.5 28t-30.5 73q0 40 21.5 71t63.5 48l-55 154h-368l-91 -181h-86l365 705h71l255 -705h-19q-45 0 -69 -24t-24 -57q0 -29 15.5 -44t43.5 -15q27 0 61 17zM211 249h309l-127 361z" />
    <glyph glyph-name="Aring" unicode="&#xc5;" horiz-adv-x="727" 
d="M177 181l-14 -28l-120 -153l221 518l116 159q-34 8 -56 34.5t-22 61.5q0 42 30 70.5t72 28.5t71.5 -28.5t29.5 -70.5q0 -39 -26.5 -67t-64.5 -32l205 -487l30 -187l-79 181h-393zM369 737.5q14 -14.5 35 -14.5t34.5 14.5t13.5 35.5t-13.5 35.5t-34.5 14.5t-35 -14.5
t-14 -35.5t14 -35.5zM401 645l-192 -396h332l-106 243z" />
    <glyph glyph-name="Aringacute" unicode="&#x1fa;" horiz-adv-x="727" 
d="M544 181h-368l-91 -181h-86l355 686q-24 13 -38 36t-14 51q0 42 30 70.5t72 28.5q32 0 58 -17l86 86h97l-153 -119q13 -24 13 -49q0 -31 -17 -55t-45 -36l247 -682h-82zM369 808.5q-14 -14.5 -14 -35.5t14 -35.5t35 -14.5t34.5 14.5t13.5 35.5t-13.5 35.5t-34.5 14.5
t-35 -14.5zM211 249h309l-127 361z" />
    <glyph glyph-name="Atilde" unicode="&#xc3;" horiz-adv-x="727" 
d="M608 0l-64 181h-368l-91 -181h-86l365 705h71l255 -705h-82zM211 249h309l-127 361zM275.5 872q26.5 29 68.5 29q20 0 38.5 -8.5t42.5 -24.5q19 -12 32 -18.5t24 -6.5q22 0 35.5 14.5t15.5 40.5h45q-3 -56 -30 -85.5t-69 -29.5q-20 0 -37.5 8.5t-43.5 24.5
q-18 12 -31 18.5t-24 6.5q-22 0 -36 -14.5t-16 -40.5h-44q3 57 29.5 86z" />
    <glyph glyph-name="AE" unicode="&#xc6;" horiz-adv-x="991" 
d="M973 636h-429l33 -244h357l-6 -68h-342l35 -255h308l-6 -69h-368l-25 181h-337l-121 -181h-93l484 705h515zM239 249h282l-47 350z" />
    <glyph glyph-name="AEacute" unicode="&#x1fc;" horiz-adv-x="991" 
d="M973 636h-429l33 -244h357l-6 -68h-342l35 -255h308l-6 -69h-368l-25 181h-337l-121 -181h-93l484 705h515zM239 249h282l-47 350zM567 765h-56l110 152h94z" />
    <glyph glyph-name="B" unicode="B" horiz-adv-x="674" 
d="M581.5 304q30.5 -41 30.5 -101q0 -96 -64 -149.5t-178 -53.5h-302l55 705h273q111 0 168.5 -45t57.5 -128q0 -62 -32.5 -106t-95.5 -66q57 -15 87.5 -56zM199 637l-19 -245h197q79 0 121 34t42 99q0 112 -151 112h-190zM532 202q0 122 -153 122h-204l-20 -256h212
q165 0 165 134z" />
    <glyph glyph-name="C" unicode="C" horiz-adv-x="677" 
d="M211 32q-68 40 -105 114.5t-37 176.5q0 118 41.5 206t118 136t180.5 48q77 0 140.5 -22.5t108.5 -66.5l-36 -62q-47 43 -96.5 61.5t-115.5 18.5q-121 0 -188.5 -85t-67.5 -235q0 -124 59 -191.5t169 -67.5q112 0 207 81l27 -63q-47 -44 -109 -66.5t-136 -22.5
q-92 0 -160 40z" />
    <glyph glyph-name="Cacute" unicode="&#x106;" horiz-adv-x="677" 
d="M211 32q-68 40 -105 114.5t-37 176.5q0 118 41.5 206t118 136t180.5 48q77 0 140.5 -22.5t108.5 -66.5l-36 -62q-47 43 -96.5 61.5t-115.5 18.5q-121 0 -188.5 -85t-67.5 -235q0 -124 59 -191.5t169 -67.5q112 0 207 81l27 -63q-47 -44 -109 -66.5t-136 -22.5
q-92 0 -160 40zM455 765h-56l110 152h94z" />
    <glyph glyph-name="Ccaron" unicode="&#x10c;" horiz-adv-x="677" 
d="M211 32q-68 40 -105 114.5t-37 176.5q0 118 41.5 206t118 136t180.5 48q77 0 140.5 -22.5t108.5 -66.5l-36 -62q-47 43 -96.5 61.5t-115.5 18.5q-121 0 -188.5 -85t-67.5 -235q0 -124 59 -191.5t169 -67.5q112 0 207 81l27 -63q-47 -44 -109 -66.5t-136 -22.5
q-92 0 -160 40zM511 917h74l-131 -152h-54l-107 152h73l66 -104z" />
    <glyph glyph-name="Ccedilla" unicode="&#xc7;" horiz-adv-x="677" 
d="M221.5 557q-67.5 -85 -67.5 -235q0 -124 59 -191.5t169 -67.5q112 0 207 81l27 -63q-89 -84 -232 -89l-7 -34q6 1 19 1q34 0 54.5 -17.5t20.5 -49.5q0 -38 -31 -61.5t-86 -23.5q-22 0 -47 5t-43 14l14 43q39 -14 76 -14q27 0 42 9t15 26q0 13 -9 20t-26 7q-21 0 -44 -9
l-18 16l14 70q-120 14 -189.5 101t-69.5 228q0 118 41.5 206t118 136t180.5 48q77 0 140.5 -22.5t108.5 -66.5l-36 -62q-47 43 -96.5 61.5t-115.5 18.5q-121 0 -188.5 -85z" />
    <glyph glyph-name="uni1E08" unicode="&#x1e08;" horiz-adv-x="677" 
d="M603 917l-148 -152h-56l110 152h94zM221.5 557q-67.5 -85 -67.5 -235q0 -124 59 -191.5t169 -67.5q112 0 207 81l27 -63q-89 -84 -232 -89l-7 -34q6 1 19 1q34 0 54.5 -17.5t20.5 -49.5q0 -38 -31 -61.5t-86 -23.5q-22 0 -47 5t-43 14l14 43q39 -14 76 -14q27 0 42 9
t15 26q0 13 -9 20t-26 7q-21 0 -44 -9l-18 16l14 70q-120 14 -189.5 101t-69.5 228q0 118 41.5 206t118 136t180.5 48q77 0 140.5 -22.5t108.5 -66.5l-36 -62q-47 43 -96.5 61.5t-115.5 18.5q-121 0 -188.5 -85z" />
    <glyph glyph-name="Ccircumflex" unicode="&#x108;" horiz-adv-x="677" 
d="M211 32q-68 40 -105 114.5t-37 176.5q0 118 41.5 206t118 136t180.5 48q77 0 140.5 -22.5t108.5 -66.5l-36 -62q-47 43 -96.5 61.5t-115.5 18.5q-121 0 -188.5 -85t-67.5 -235q0 -124 59 -191.5t169 -67.5q112 0 207 81l27 -63q-47 -44 -109 -66.5t-136 -22.5
q-92 0 -160 40zM355 765h-74l131 152h54l107 -152h-72l-63 103z" />
    <glyph glyph-name="Cdotaccent" unicode="&#x10a;" horiz-adv-x="677" 
d="M211 32q-68 40 -105 114.5t-37 176.5q0 118 41.5 206t118 136t180.5 48q77 0 140.5 -22.5t108.5 -66.5l-36 -62q-47 43 -96.5 61.5t-115.5 18.5q-121 0 -188.5 -85t-67.5 -235q0 -124 59 -191.5t169 -67.5q112 0 207 81l27 -63q-47 -44 -109 -66.5t-136 -22.5
q-92 0 -160 40zM388 887h98l-7 -91h-99z" />
    <glyph glyph-name="D" unicode="D" horiz-adv-x="739" 
d="M123 705h233q159 0 245 -85t86 -239q0 -119 -42 -204.5t-123 -131t-195 -45.5h-259zM323 70q138 0 208.5 80t70.5 232q0 253 -253 253h-149l-44 -565h167z" />
    <glyph glyph-name="uni01C4" unicode="&#x1c4;" horiz-adv-x="1314" 
d="M123 705h233q159 0 245 -85t86 -239q0 -119 -42 -204.5t-123 -131t-195 -45.5h-259zM323 70q138 0 208.5 80t70.5 232q0 253 -253 253h-149l-44 -565h167zM1303 705l-5 -60l-445 -576h411l-6 -69h-508l4 61l445 575h-399l6 69h497zM1144 917h74l-131 -152h-54l-107 152
h73l66 -104z" />
    <glyph glyph-name="Eth" unicode="&#xd0;" horiz-adv-x="752" 
d="M614 620q86 -85 86 -239q0 -119 -42 -204.5t-123 -131t-195 -45.5h-259l25 324h-92l5 67h93l24 314h233q159 0 245 -85zM545 150q71 80 71 232q0 125 -63.5 189t-189.5 64h-150l-19 -244h192l-5 -67h-192l-20 -254h167q138 0 209 80z" />
    <glyph glyph-name="Dcaron" unicode="&#x10e;" horiz-adv-x="739" 
d="M123 705h233q159 0 245 -85t86 -239q0 -119 -42 -204.5t-123 -131t-195 -45.5h-259zM323 70q138 0 208.5 80t70.5 232q0 253 -253 253h-149l-44 -565h167zM494 917h74l-131 -152h-54l-107 152h73l66 -104z" />
    <glyph glyph-name="Dcroat" unicode="&#x110;" horiz-adv-x="752" 
d="M614 620q86 -85 86 -239q0 -119 -42 -204.5t-123 -131t-195 -45.5h-259l25 324h-92l5 67h93l24 314h233q159 0 245 -85zM545 150q71 80 71 232q0 125 -63.5 189t-189.5 64h-150l-19 -244h192l-5 -67h-192l-20 -254h167q138 0 209 80z" />
    <glyph glyph-name="uni1E0C" unicode="&#x1e0c;" horiz-adv-x="739" 
d="M123 705h233q159 0 245 -85t86 -239q0 -119 -42 -204.5t-123 -131t-195 -45.5h-259zM323 70q138 0 208.5 80t70.5 232q0 253 -253 253h-149l-44 -565h167zM298 -94h92l-8 -88h-92z" />
    <glyph glyph-name="uni1E0E" unicode="&#x1e0e;" horiz-adv-x="739" 
d="M123 705h233q159 0 245 -85t86 -239q0 -119 -42 -204.5t-123 -131t-195 -45.5h-259zM323 70q138 0 208.5 80t70.5 232q0 253 -253 253h-149l-44 -565h167zM188 -168l5 59h299l-5 -59h-299z" />
    <glyph glyph-name="uni01C5" unicode="&#x1c5;" horiz-adv-x="1242" 
d="M123 705h233q159 0 245 -85t86 -239q0 -119 -42 -204.5t-123 -131t-195 -45.5h-259zM323 70q138 0 208.5 80t70.5 232q0 253 -253 253h-149l-44 -565h167zM1208 487l-4 -59l-327 -364h309l-5 -64h-413l5 56l328 367h-289l5 64h391zM1105 753h76l-133 -202h-57l-102 202
h73l61 -143z" />
    <glyph glyph-name="E" unicode="E" horiz-adv-x="582" 
d="M564 637h-365l-19 -245h345l-6 -68h-344l-20 -256h365l-6 -68h-446l55 705h446z" />
    <glyph glyph-name="Eacute" unicode="&#xc9;" horiz-adv-x="582" 
d="M564 637h-365l-19 -245h345l-6 -68h-344l-20 -256h365l-6 -68h-446l55 705h446zM393 765h-56l110 152h94z" />
    <glyph glyph-name="Ebreve" unicode="&#x114;" horiz-adv-x="582" 
d="M564 637h-365l-19 -245h345l-6 -68h-344l-20 -256h365l-6 -68h-446l55 705h446zM270.5 803.5q-42.5 26.5 -59.5 79.5l53 22q19 -39 44.5 -54.5t62.5 -15.5q36 0 63.5 15.5t52.5 54.5l50 -22q-26 -54 -70 -80t-99 -26t-97.5 26.5z" />
    <glyph glyph-name="Ecaron" unicode="&#x11a;" horiz-adv-x="582" 
d="M564 637h-365l-19 -245h345l-6 -68h-344l-20 -256h365l-6 -68h-446l55 705h446zM449 917h74l-131 -152h-54l-107 152h73l66 -104z" />
    <glyph glyph-name="uni0228" unicode="&#x228;" horiz-adv-x="582" 
d="M199 637l-19 -245h345l-6 -68h-344l-20 -256h365l-6 -68h-190l-8 -42q6 1 19 1q34 0 54.5 -17.5t20.5 -49.5q0 -38 -31 -61.5t-86 -23.5q-22 0 -47 5t-43 14l14 43q39 -14 76 -14q27 0 42 9t15 26q0 13 -9 20t-26 7q-21 0 -44 -9l-18 16l15 76h-200l55 705h446l-5 -68
h-365z" />
    <glyph glyph-name="uni1E1C" unicode="&#x1e1c;" horiz-adv-x="582" 
d="M270.5 803.5q-42.5 26.5 -59.5 79.5l53 22q19 -39 44.5 -54.5t62.5 -15.5q36 0 63.5 15.5t52.5 54.5l50 -22q-26 -54 -70 -80t-99 -26t-97.5 26.5zM199 637l-19 -245h345l-6 -68h-344l-20 -256h365l-6 -68h-190l-8 -42q6 1 19 1q34 0 54.5 -17.5t20.5 -49.5
q0 -38 -31 -61.5t-86 -23.5q-22 0 -47 5t-43 14l14 43q39 -14 76 -14q27 0 42 9t15 26q0 13 -9 20t-26 7q-21 0 -44 -9l-18 16l15 76h-200l55 705h446l-5 -68h-365z" />
    <glyph glyph-name="Ecircumflex" unicode="&#xca;" horiz-adv-x="582" 
d="M564 637h-365l-19 -245h345l-6 -68h-344l-20 -256h365l-6 -68h-446l55 705h446zM293 765h-74l131 152h54l107 -152h-72l-63 103z" />
    <glyph glyph-name="uni1EBE" unicode="&#x1ebe;" horiz-adv-x="582" 
d="M564 637h-365l-19 -245h345l-6 -68h-344l-20 -256h365l-6 -68h-446l55 705h446zM458 868l100 141h89l-140 -141h-49zM219 765l131 147h54l107 -147h-72l-64 99l-82 -99h-74z" />
    <glyph glyph-name="uni1EC6" unicode="&#x1ec6;" horiz-adv-x="582" 
d="M564 637h-365l-19 -245h345l-6 -68h-344l-20 -256h365l-6 -68h-446l55 705h446zM252 -94h92l-8 -88h-92zM293 765h-74l131 152h54l107 -152h-72l-63 103z" />
    <glyph glyph-name="uni1EC0" unicode="&#x1ec0;" horiz-adv-x="582" 
d="M564 637h-365l-19 -245h345l-6 -68h-344l-20 -256h365l-6 -68h-446l55 705h446zM500 868l-98 141h80l68 -141h-50zM219 765l131 147h54l107 -147h-72l-64 99l-82 -99h-74z" />
    <glyph glyph-name="uni1EC2" unicode="&#x1ec2;" horiz-adv-x="582" 
d="M564 637h-365l-19 -245h345l-6 -68h-344l-20 -256h365l-6 -68h-446l55 705h446zM458 885q1 18 13 27.5t33 17.5q14 6 20.5 10t6.5 11t-10 11.5t-26 4.5q-30 0 -66 -12l-11 44q40 16 83 16t68.5 -16t25.5 -41q0 -21 -13 -32t-36 -21q-16 -6 -25 -12t-10 -16l-1 -9h-53z
M219 765l131 147h54l107 -147h-72l-64 99l-82 -99h-74z" />
    <glyph glyph-name="uni1EC4" unicode="&#x1ec4;" horiz-adv-x="582" 
d="M564 637h-365l-19 -245h345l-6 -68h-344l-20 -256h365l-6 -68h-446l55 705h446zM412.5 934q-17.5 6 -45.5 18q-19 9 -32 14t-25 5q-21 0 -34 -12.5t-15 -31.5h-44q2 45 29 71.5t67 26.5q21 0 37.5 -5.5t45.5 -18.5q19 -9 32 -14t26 -5q21 0 34 12.5t14 32.5h45
q-2 -46 -29 -72.5t-67 -26.5q-21 0 -38.5 6zM219 765l131 147h54l107 -147h-72l-64 99l-82 -99h-74z" />
    <glyph glyph-name="uni0204" unicode="&#x204;" horiz-adv-x="582" 
d="M564 637h-365l-19 -245h345l-6 -68h-344l-20 -256h365l-6 -68h-446l55 705h446zM283 765l-84 152h68l60 -152h-44zM403 765l-85 152h68l61 -152h-44z" />
    <glyph glyph-name="Edieresis" unicode="&#xcb;" horiz-adv-x="582" 
d="M564 637h-365l-19 -245h345l-6 -68h-344l-20 -256h365l-6 -68h-446l55 705h446zM245 885h89l-7 -86h-89zM416 885h89l-7 -86h-89z" />
    <glyph glyph-name="Edotaccent" unicode="&#x116;" horiz-adv-x="582" 
d="M564 637h-365l-19 -245h345l-6 -68h-344l-20 -256h365l-6 -68h-446l55 705h446zM326 887h98l-7 -91h-99z" />
    <glyph glyph-name="uni1EB8" unicode="&#x1eb8;" horiz-adv-x="582" 
d="M564 637h-365l-19 -245h345l-6 -68h-344l-20 -256h365l-6 -68h-446l55 705h446zM252 -94h92l-8 -88h-92z" />
    <glyph glyph-name="Egrave" unicode="&#xc8;" horiz-adv-x="582" 
d="M564 637h-365l-19 -245h345l-6 -68h-344l-20 -256h365l-6 -68h-446l55 705h446zM337 765l-119 152h84l91 -152h-56z" />
    <glyph glyph-name="uni1EBA" unicode="&#x1eba;" horiz-adv-x="582" 
d="M564 637h-365l-19 -245h345l-6 -68h-344l-20 -256h365l-6 -68h-446l55 705h446zM392 765h-53l1 18q1 17 13 27.5t32 20.5q14 6 21 12t7 13q0 8 -10 12.5t-28 4.5q-30 0 -63 -12l-11 44q38 16 81 16q45 0 70 -16t25 -43q0 -21 -13 -33t-37 -23q-18 -10 -25.5 -15.5
t-8.5 -15.5z" />
    <glyph glyph-name="uni0206" unicode="&#x206;" horiz-adv-x="582" 
d="M564 637h-365l-19 -245h345l-6 -68h-344l-20 -256h365l-6 -68h-446l55 705h446zM471.5 879q42.5 -27 59.5 -79l-53 -22q-19 39 -44.5 54.5t-62.5 15.5q-36 0 -63.5 -15.5t-52.5 -54.5l-50 22q26 54 70 80t99 26t97.5 -27z" />
    <glyph glyph-name="Emacron" unicode="&#x112;" horiz-adv-x="582" 
d="M564 637h-365l-19 -245h345l-6 -68h-344l-20 -256h365l-6 -68h-446l55 705h446zM219 811l5 61h299l-5 -61h-299z" />
    <glyph glyph-name="uni1E16" unicode="&#x1e16;" horiz-adv-x="582" 
d="M564 637h-365l-19 -245h345l-6 -68h-344l-20 -256h365l-6 -68h-446l55 705h446zM219 811l5 61h299l-5 -61h-299zM406 925h-56l110 152h94z" />
    <glyph glyph-name="uni1E14" unicode="&#x1e14;" horiz-adv-x="582" 
d="M564 637h-365l-19 -245h345l-6 -68h-344l-20 -256h365l-6 -68h-446l55 705h446zM219 811l5 61h299l-5 -61h-299zM350 925l-119 152h84l91 -152h-56z" />
    <glyph glyph-name="Eogonek" unicode="&#x118;" horiz-adv-x="582" 
d="M199 637l-19 -245h345l-6 -68h-344l-20 -256h365l-6 -68h-15q-48 0 -72 -22.5t-24 -57.5q0 -30 15.5 -45t43.5 -15q26 0 60 17l13 -47q-39 -23 -84 -23q-52 0 -82.5 27.5t-30.5 71.5q0 57 45 94h-315l55 705h446l-5 -68h-365z" />
    <glyph glyph-name="uni1EBC" unicode="&#x1ebc;" horiz-adv-x="582" 
d="M564 637h-365l-19 -245h345l-6 -68h-344l-20 -256h365l-6 -68h-446l55 705h446zM235.5 872q26.5 29 68.5 29q20 0 38.5 -8.5t42.5 -24.5q19 -12 32 -18.5t24 -6.5q22 0 35.5 14.5t15.5 40.5h45q-3 -56 -30 -85.5t-69 -29.5q-20 0 -37.5 8.5t-43.5 24.5q-18 12 -31 18.5
t-24 6.5q-22 0 -36 -14.5t-16 -40.5h-44q3 57 29.5 86z" />
    <glyph glyph-name="F" unicode="F" horiz-adv-x="557" 
d="M554 636h-354l-19 -243h334l-6 -69h-334l-26 -324h-81l55 705h436z" />
    <glyph glyph-name="G" unicode="G" horiz-adv-x="724" 
d="M405 367h250l-26 -325q-44 -22 -110 -36t-129 -14q-155 0 -238.5 85.5t-83.5 238.5q0 121 43 210.5t122.5 138t187.5 48.5q149 0 244 -89l-36 -63q-50 44 -98.5 63t-109.5 19q-127 -1 -197.5 -86.5t-70.5 -237.5q0 -124 61 -191t181 -67q84 0 163 27l17 215h-175z" />
    <glyph glyph-name="Gbreve" unicode="&#x11e;" horiz-adv-x="724" 
d="M405 367h250l-26 -325q-44 -22 -110 -36t-129 -14q-155 0 -238.5 85.5t-83.5 238.5q0 121 43 210.5t122.5 138t187.5 48.5q149 0 244 -89l-36 -63q-50 44 -98.5 63t-109.5 19q-127 -1 -197.5 -86.5t-70.5 -237.5q0 -124 61 -191t181 -67q84 0 163 27l17 215h-175z
M338.5 803.5q-42.5 26.5 -59.5 79.5l53 22q19 -39 44.5 -54.5t62.5 -15.5q36 0 63.5 15.5t52.5 54.5l50 -22q-26 -54 -70 -80t-99 -26t-97.5 26.5z" />
    <glyph glyph-name="Gcaron" unicode="&#x1e6;" horiz-adv-x="724" 
d="M405 367h250l-26 -325q-44 -22 -110 -36t-129 -14q-155 0 -238.5 85.5t-83.5 238.5q0 121 43 210.5t122.5 138t187.5 48.5q149 0 244 -89l-36 -63q-50 44 -98.5 63t-109.5 19q-127 -1 -197.5 -86.5t-70.5 -237.5q0 -124 61 -191t181 -67q84 0 163 27l17 215h-175z
M517 917h74l-131 -152h-54l-107 152h73l66 -104z" />
    <glyph glyph-name="Gcircumflex" unicode="&#x11c;" horiz-adv-x="724" 
d="M405 367h250l-26 -325q-44 -22 -110 -36t-129 -14q-155 0 -238.5 85.5t-83.5 238.5q0 121 43 210.5t122.5 138t187.5 48.5q149 0 244 -89l-36 -63q-50 44 -98.5 63t-109.5 19q-127 -1 -197.5 -86.5t-70.5 -237.5q0 -124 61 -191t181 -67q84 0 163 27l17 215h-175z
M361 765h-74l131 152h54l107 -152h-72l-63 103z" />
    <glyph glyph-name="Gcommaaccent" unicode="&#x122;" horiz-adv-x="724" 
d="M405 367h250l-26 -325q-44 -22 -110 -36t-129 -14q-155 0 -238.5 85.5t-83.5 238.5q0 121 43 210.5t122.5 138t187.5 48.5q149 0 244 -89l-36 -63q-50 44 -98.5 63t-109.5 19q-127 -1 -197.5 -86.5t-70.5 -237.5q0 -124 61 -191t181 -67q84 0 163 27l17 215h-175z
M423 -72l-4 -58q-3 -39 -17 -70.5t-44 -58.5l-35 27q20 19 29.5 37t12.5 40h-46l6 83h98z" />
    <glyph glyph-name="Gdotaccent" unicode="&#x120;" horiz-adv-x="724" 
d="M405 367h250l-26 -325q-44 -22 -110 -36t-129 -14q-155 0 -238.5 85.5t-83.5 238.5q0 121 43 210.5t122.5 138t187.5 48.5q149 0 244 -89l-36 -63q-50 44 -98.5 63t-109.5 19q-127 -1 -197.5 -86.5t-70.5 -237.5q0 -124 61 -191t181 -67q84 0 163 27l17 215h-175z
M394 887h98l-7 -91h-99z" />
    <glyph glyph-name="uni1E20" unicode="&#x1e20;" horiz-adv-x="724" 
d="M405 367h250l-26 -325q-44 -22 -110 -36t-129 -14q-155 0 -238.5 85.5t-83.5 238.5q0 121 43 210.5t122.5 138t187.5 48.5q149 0 244 -89l-36 -63q-50 44 -98.5 63t-109.5 19q-127 -1 -197.5 -86.5t-70.5 -237.5q0 -124 61 -191t181 -67q84 0 163 27l17 215h-175z
M287 811l5 61h299l-5 -61h-299z" />
    <glyph glyph-name="H" unicode="H" horiz-adv-x="758" 
d="M626 705h81l-55 -705h-81l25 323h-422l-25 -323h-81l55 705h81l-24 -312h422z" />
    <glyph glyph-name="Hbar" unicode="&#x126;" horiz-adv-x="785" 
d="M804 585l-5 -65h-87l-41 -520h-82l25 323h-421l-25 -323h-82l41 520h-98l6 65h97l9 120h82l-9 -120h421l9 120h82l-9 -120h87zM620 393l10 127h-421l-10 -127h421z" />
    <glyph glyph-name="uni1E2A" unicode="&#x1e2a;" horiz-adv-x="758" 
d="M626 705h81l-55 -705h-81l25 323h-422l-25 -323h-81l55 705h81l-24 -312h422zM247.5 -179.5q-42.5 31.5 -59.5 94.5l53 22q34 -89 108 -89q36 0 65.5 20.5t53.5 68.5l50 -21q-25 -66 -71 -96.5t-102 -30.5q-55 0 -97.5 31.5z" />
    <glyph glyph-name="Hcircumflex" unicode="&#x124;" horiz-adv-x="758" 
d="M626 705h81l-55 -705h-81l25 323h-422l-25 -323h-81l55 705h81l-24 -312h422zM348 765h-74l131 152h54l107 -152h-72l-63 103z" />
    <glyph glyph-name="uni1E24" unicode="&#x1e24;" horiz-adv-x="758" 
d="M626 705h81l-55 -705h-81l25 323h-422l-25 -323h-81l55 705h81l-24 -312h422zM307 -94h92l-8 -88h-92z" />
    <glyph glyph-name="I" unicode="I" horiz-adv-x="256" 
d="M68 0l55 705h82l-55 -705h-82z" />
    <glyph glyph-name="Iacute" unicode="&#xcd;" horiz-adv-x="256" 
d="M68 0l55 705h82l-55 -705h-82zM197 765h-56l110 152h94z" />
    <glyph glyph-name="Ibreve" unicode="&#x12c;" horiz-adv-x="256" 
d="M68 0l55 705h82l-55 -705h-82zM74.5 803.5q-42.5 26.5 -59.5 79.5l53 22q19 -39 44.5 -54.5t62.5 -15.5q36 0 63.5 15.5t52.5 54.5l50 -22q-26 -54 -70 -80t-99 -26t-97.5 26.5z" />
    <glyph glyph-name="Icircumflex" unicode="&#xce;" horiz-adv-x="256" 
d="M68 0l55 705h82l-55 -705h-82zM97 765h-74l131 152h54l107 -152h-72l-63 103z" />
    <glyph glyph-name="uni0208" unicode="&#x208;" horiz-adv-x="256" 
d="M68 0l55 705h82l-55 -705h-82zM87 765l-84 152h68l60 -152h-44zM207 765l-85 152h68l61 -152h-44z" />
    <glyph glyph-name="Idieresis" unicode="&#xcf;" horiz-adv-x="256" 
d="M68 0l55 705h82l-55 -705h-82zM49 885h89l-7 -86h-89zM220 885h89l-7 -86h-89z" />
    <glyph glyph-name="uni1E2E" unicode="&#x1e2e;" horiz-adv-x="256" 
d="M68 0l55 705h82l-55 -705h-82zM49 885h89l-7 -86h-89zM220 885h89l-7 -86h-89zM210 925h-56l110 152h94z" />
    <glyph glyph-name="Idotaccent" unicode="&#x130;" horiz-adv-x="256" 
d="M68 0l55 705h82l-55 -705h-82zM130 887h98l-7 -91h-99z" />
    <glyph glyph-name="uni1ECA" unicode="&#x1eca;" horiz-adv-x="256" 
d="M68 0l55 705h82l-55 -705h-82zM56 -94h92l-8 -88h-92z" />
    <glyph glyph-name="Igrave" unicode="&#xcc;" horiz-adv-x="256" 
d="M68 0l55 705h82l-55 -705h-82zM141 765l-119 152h84l91 -152h-56z" />
    <glyph glyph-name="uni1EC8" unicode="&#x1ec8;" horiz-adv-x="256" 
d="M68 0l55 705h82l-55 -705h-82zM196 765h-53l1 18q1 17 13 27.5t32 20.5q14 6 21 12t7 13q0 8 -10 12.5t-28 4.5q-30 0 -63 -12l-11 44q38 16 81 16q45 0 70 -16t25 -43q0 -21 -13 -33t-37 -23q-18 -10 -25.5 -15.5t-8.5 -15.5z" />
    <glyph glyph-name="uni020A" unicode="&#x20a;" horiz-adv-x="256" 
d="M68 0l55 705h82l-55 -705h-82zM275.5 879q42.5 -27 59.5 -79l-53 -22q-19 39 -44.5 54.5t-62.5 15.5q-36 0 -63.5 -15.5t-52.5 -54.5l-50 22q26 54 70 80t99 26t97.5 -27z" />
    <glyph glyph-name="Imacron" unicode="&#x12a;" horiz-adv-x="256" 
d="M68 0l55 705h82l-55 -705h-82zM23 811l5 61h299l-5 -61h-299z" />
    <glyph glyph-name="Iogonek" unicode="&#x12e;" horiz-adv-x="256" 
d="M167 -123l13 -47q-39 -23 -84 -23q-51 0 -82 28t-31 74q0 41 22 72t65 47l53 677h82l-55 -705h-7q-49 0 -72 -22.5t-23 -57.5q0 -30 15.5 -45t43.5 -15q26 0 60 17z" />
    <glyph glyph-name="Itilde" unicode="&#x128;" horiz-adv-x="256" 
d="M68 0l55 705h82l-55 -705h-82zM39.5 872q26.5 29 68.5 29q20 0 38.5 -8.5t42.5 -24.5q19 -12 32 -18.5t24 -6.5q22 0 35.5 14.5t15.5 40.5h45q-3 -56 -30 -85.5t-69 -29.5q-20 0 -37.5 8.5t-43.5 24.5q-18 12 -31 18.5t-24 6.5q-22 0 -36 -14.5t-16 -40.5h-44
q3 57 29.5 86z" />
    <glyph glyph-name="J" unicode="J" horiz-adv-x="326" 
d="M-23 62l59 4q107 8 116 125l41 514h82l-40 -515q-15 -181 -193 -193l-62 -4z" />
    <glyph glyph-name="Jcircumflex" unicode="&#x134;" horiz-adv-x="326" 
d="M-23 62l59 4q107 8 116 125l41 514h82l-40 -515q-15 -181 -193 -193l-62 -4zM167 765h-74l131 152h54l107 -152h-72l-63 103z" />
    <glyph glyph-name="K" unicode="K" horiz-adv-x="628" 
d="M655 705l-396 -344l360 -361h-101l-342 336l-26 -336h-82l55 705h82l-25 -322l366 322h109z" />
    <glyph glyph-name="Kcommaaccent" unicode="&#x136;" horiz-adv-x="628" 
d="M655 705l-396 -344l360 -361h-101l-342 336l-26 -336h-82l55 705h82l-25 -322l366 322h109zM340 -72l-4 -58q-3 -39 -17 -70.5t-44 -58.5l-35 27q20 19 29.5 37t12.5 40h-46l6 83h98z" />
    <glyph glyph-name="L" unicode="L" horiz-adv-x="540" 
d="M68 0l55 705h82l-49 -635h353l-6 -70h-435z" />
    <glyph glyph-name="uni01C7" unicode="&#x1c7;" horiz-adv-x="865" 
d="M68 0l55 705h82l-49 -635h323l-6 -70h-405zM516 62l59 4q54 4 83 35t34 90l40 514h83l-41 -515q-7 -92 -55 -139.5t-138 -53.5l-62 -4z" />
    <glyph glyph-name="Lacute" unicode="&#x139;" horiz-adv-x="540" 
d="M68 0l55 705h82l-49 -635h353l-6 -70h-435zM197 765h-56l110 152h94z" />
    <glyph glyph-name="Lcaron" unicode="&#x13d;" horiz-adv-x="540" 
d="M68 0l55 705h82l-49 -635h353l-6 -70h-435zM318 515h-43l14 190h70z" />
    <glyph glyph-name="Lcommaaccent" unicode="&#x13b;" horiz-adv-x="540" 
d="M68 0l55 705h82l-49 -635h353l-6 -70h-435zM333 -72l-4 -58q-3 -39 -17 -70.5t-44 -58.5l-35 27q20 19 29.5 37t12.5 40h-46l6 83h98z" />
    <glyph glyph-name="Ldot" unicode="&#x13f;" horiz-adv-x="540" 
d="M68 0l55 705h82l-49 -635h353l-6 -70h-435zM312 400h102l-7 -94h-102z" />
    <glyph glyph-name="uni1E36" unicode="&#x1e36;" horiz-adv-x="540" 
d="M68 0l55 705h82l-49 -635h353l-6 -70h-435zM237 -94h92l-8 -88h-92z" />
    <glyph glyph-name="uni01C8" unicode="&#x1c8;" horiz-adv-x="772" 
d="M68 0l55 705h82l-49 -635h353l-6 -70h-435zM678 6q-8 -93 -53 -137t-141 -50l-45 -3l-3 63l47 3q54 4 81.5 30.5t31.5 81.5l39 493h81zM643 698h98l-7 -91h-99z" />
    <glyph glyph-name="uni1E3A" unicode="&#x1e3a;" horiz-adv-x="540" 
d="M68 0l55 705h82l-49 -635h353l-6 -70h-435zM127 -168l5 59h299l-5 -59h-299z" />
    <glyph glyph-name="Lslash" unicode="&#x141;" horiz-adv-x="553" 
d="M169 70h353l-5 -70h-436l23 294l-77 -42l-29 58l112 61l26 334h83l-23 -286l179 98l27 -58l-212 -117z" />
    <glyph glyph-name="M" unicode="M" horiz-adv-x="841" 
d="M722 705h67l-55 -705h-75l43 544l-262 -432h-58l-195 430l-43 -542h-76l55 705h69l225 -509z" />
    <glyph glyph-name="uni1E42" unicode="&#x1e42;" horiz-adv-x="841" 
d="M722 705h67l-55 -705h-75l43 544l-262 -432h-58l-195 430l-43 -542h-76l55 705h69l225 -509zM348 -94h92l-8 -88h-92z" />
    <glyph glyph-name="N" unicode="N" horiz-adv-x="739" 
d="M611 705h77l-55 -705h-63l-380 567l-45 -567h-77l55 705h64l379 -565z" />
    <glyph glyph-name="uni01CA" unicode="&#x1ca;" horiz-adv-x="1065" 
d="M611 705h77l-55 -705h-63l-380 567l-45 -567h-77l55 705h64l379 -565zM716 62l59 4q107 8 116 125l41 514h82l-40 -515q-15 -181 -193 -193l-62 -4z" />
    <glyph glyph-name="Nacute" unicode="&#x143;" horiz-adv-x="739" 
d="M611 705h77l-55 -705h-63l-380 567l-45 -567h-77l55 705h64l379 -565zM438 765h-56l110 152h94z" />
    <glyph glyph-name="Ncaron" unicode="&#x147;" horiz-adv-x="739" 
d="M611 705h77l-55 -705h-63l-380 567l-45 -567h-77l55 705h64l379 -565zM494 917h74l-131 -152h-54l-107 152h73l66 -104z" />
    <glyph glyph-name="Ncommaaccent" unicode="&#x145;" horiz-adv-x="739" 
d="M611 705h77l-55 -705h-63l-380 567l-45 -567h-77l55 705h64l379 -565zM394 -72l-4 -58q-3 -39 -17 -70.5t-44 -58.5l-35 27q20 19 29.5 37t12.5 40h-46l6 83h98z" />
    <glyph glyph-name="uni1E44" unicode="&#x1e44;" horiz-adv-x="739" 
d="M611 705h77l-55 -705h-63l-380 567l-45 -567h-77l55 705h64l379 -565zM371 887h98l-7 -91h-99z" />
    <glyph glyph-name="uni1E46" unicode="&#x1e46;" horiz-adv-x="739" 
d="M611 705h77l-55 -705h-63l-380 567l-45 -567h-77l55 705h64l379 -565zM298 -94h92l-8 -88h-92z" />
    <glyph glyph-name="Eng" unicode="&#x14a;" horiz-adv-x="739" 
d="M688 705l-55 -701q-13 -175 -192 -186l-63 -5l-2 67l59 4q113 9 120 114l2 21l-367 548l-45 -567h-77l55 705h64l379 -565l45 565h77z" />
    <glyph glyph-name="uni01CB" unicode="&#x1cb;" horiz-adv-x="971" 
d="M611 705h77l-55 -705h-63l-380 567l-45 -567h-77l55 705h64l379 -565zM877 6q-8 -93 -53 -137t-141 -50l-45 -3l-3 63l47 3q54 4 81.5 30.5t31.5 81.5l39 493h81zM842 698h98l-7 -91h-99z" />
    <glyph glyph-name="uni1E48" unicode="&#x1e48;" horiz-adv-x="739" 
d="M611 705h77l-55 -705h-63l-380 567l-45 -567h-77l55 705h64l379 -565zM188 -168l5 59h299l-5 -59h-299z" />
    <glyph glyph-name="Ntilde" unicode="&#xd1;" horiz-adv-x="739" 
d="M611 705h77l-55 -705h-63l-380 567l-45 -567h-77l55 705h64l379 -565zM280.5 872q26.5 29 68.5 29q20 0 38.5 -8.5t42.5 -24.5q19 -12 32 -18.5t24 -6.5q22 0 35.5 14.5t15.5 40.5h45q-3 -56 -30 -85.5t-69 -29.5q-20 0 -37.5 8.5t-43.5 24.5q-18 12 -31 18.5t-24 6.5
q-22 0 -36 -14.5t-16 -40.5h-44q3 57 29.5 86z" />
    <glyph glyph-name="O" unicode="O" horiz-adv-x="764" 
d="M215.5 31q-70.5 40 -108.5 115t-38 177q0 118 40.5 206.5t115 136.5t173.5 48q97 0 167.5 -40t108.5 -115t38 -178q0 -117 -40.5 -205.5t-115 -136.5t-173.5 -48q-97 0 -167.5 40zM514 100.5q55 38.5 84.5 110.5t29.5 171q0 126 -60 193.5t-170 67.5q-76 0 -131 -38.5
t-84.5 -110.5t-29.5 -172q0 -125 60 -192.5t170 -67.5q76 0 131 38.5z" />
    <glyph glyph-name="Oacute" unicode="&#xd3;" horiz-adv-x="764" 
d="M215.5 31q-70.5 40 -108.5 115t-38 177q0 118 40.5 206.5t115 136.5t173.5 48q97 0 167.5 -40t108.5 -115t38 -178q0 -117 -40.5 -205.5t-115 -136.5t-173.5 -48q-97 0 -167.5 40zM514 100.5q55 38.5 84.5 110.5t29.5 171q0 126 -60 193.5t-170 67.5q-76 0 -131 -38.5
t-84.5 -110.5t-29.5 -172q0 -125 60 -192.5t170 -67.5q76 0 131 38.5zM451 765h-56l110 152h94z" />
    <glyph glyph-name="Obreve" unicode="&#x14e;" horiz-adv-x="764" 
d="M215.5 31q-70.5 40 -108.5 115t-38 177q0 118 40.5 206.5t115 136.5t173.5 48q97 0 167.5 -40t108.5 -115t38 -178q0 -117 -40.5 -205.5t-115 -136.5t-173.5 -48q-97 0 -167.5 40zM514 100.5q55 38.5 84.5 110.5t29.5 171q0 126 -60 193.5t-170 67.5q-76 0 -131 -38.5
t-84.5 -110.5t-29.5 -172q0 -125 60 -192.5t170 -67.5q76 0 131 38.5zM328.5 803.5q-42.5 26.5 -59.5 79.5l53 22q19 -39 44.5 -54.5t62.5 -15.5q36 0 63.5 15.5t52.5 54.5l50 -22q-26 -54 -70 -80t-99 -26t-97.5 26.5z" />
    <glyph glyph-name="Ocircumflex" unicode="&#xd4;" horiz-adv-x="764" 
d="M215.5 31q-70.5 40 -108.5 115t-38 177q0 118 40.5 206.5t115 136.5t173.5 48q97 0 167.5 -40t108.5 -115t38 -178q0 -117 -40.5 -205.5t-115 -136.5t-173.5 -48q-97 0 -167.5 40zM514 100.5q55 38.5 84.5 110.5t29.5 171q0 126 -60 193.5t-170 67.5q-76 0 -131 -38.5
t-84.5 -110.5t-29.5 -172q0 -125 60 -192.5t170 -67.5q76 0 131 38.5zM351 765h-74l131 152h54l107 -152h-72l-63 103z" />
    <glyph glyph-name="uni1ED0" unicode="&#x1ed0;" horiz-adv-x="764" 
d="M215.5 31q-70.5 40 -108.5 115t-38 177q0 118 40.5 206.5t115 136.5t173.5 48q97 0 167.5 -40t108.5 -115t38 -178q0 -117 -40.5 -205.5t-115 -136.5t-173.5 -48q-97 0 -167.5 40zM514 100.5q55 38.5 84.5 110.5t29.5 171q0 126 -60 193.5t-170 67.5q-76 0 -131 -38.5
t-84.5 -110.5t-29.5 -172q0 -125 60 -192.5t170 -67.5q76 0 131 38.5zM516 868l100 141h89l-140 -141h-49zM277 765l131 147h54l107 -147h-72l-64 99l-82 -99h-74z" />
    <glyph glyph-name="uni1ED8" unicode="&#x1ed8;" horiz-adv-x="764" 
d="M215.5 31q-70.5 40 -108.5 115t-38 177q0 118 40.5 206.5t115 136.5t173.5 48q97 0 167.5 -40t108.5 -115t38 -178q0 -117 -40.5 -205.5t-115 -136.5t-173.5 -48q-97 0 -167.5 40zM514 100.5q55 38.5 84.5 110.5t29.5 171q0 126 -60 193.5t-170 67.5q-76 0 -131 -38.5
t-84.5 -110.5t-29.5 -172q0 -125 60 -192.5t170 -67.5q76 0 131 38.5zM310 -94h92l-8 -88h-92zM351 765h-74l131 152h54l107 -152h-72l-63 103z" />
    <glyph glyph-name="uni1ED2" unicode="&#x1ed2;" horiz-adv-x="764" 
d="M215.5 31q-70.5 40 -108.5 115t-38 177q0 118 40.5 206.5t115 136.5t173.5 48q97 0 167.5 -40t108.5 -115t38 -178q0 -117 -40.5 -205.5t-115 -136.5t-173.5 -48q-97 0 -167.5 40zM514 100.5q55 38.5 84.5 110.5t29.5 171q0 126 -60 193.5t-170 67.5q-76 0 -131 -38.5
t-84.5 -110.5t-29.5 -172q0 -125 60 -192.5t170 -67.5q76 0 131 38.5zM558 868l-98 141h80l68 -141h-50zM277 765l131 147h54l107 -147h-72l-64 99l-82 -99h-74z" />
    <glyph glyph-name="uni1ED4" unicode="&#x1ed4;" horiz-adv-x="764" 
d="M215.5 31q-70.5 40 -108.5 115t-38 177q0 118 40.5 206.5t115 136.5t173.5 48q97 0 167.5 -40t108.5 -115t38 -178q0 -117 -40.5 -205.5t-115 -136.5t-173.5 -48q-97 0 -167.5 40zM514 100.5q55 38.5 84.5 110.5t29.5 171q0 126 -60 193.5t-170 67.5q-76 0 -131 -38.5
t-84.5 -110.5t-29.5 -172q0 -125 60 -192.5t170 -67.5q76 0 131 38.5zM516 885q1 18 13 27.5t33 17.5q14 6 20.5 10t6.5 11t-10 11.5t-26 4.5q-30 0 -66 -12l-11 44q40 16 83 16t68.5 -16t25.5 -41q0 -21 -13 -32t-36 -21q-16 -6 -25 -12t-10 -16l-1 -9h-53zM277 765
l131 147h54l107 -147h-72l-64 99l-82 -99h-74z" />
    <glyph glyph-name="uni1ED6" unicode="&#x1ed6;" horiz-adv-x="764" 
d="M215.5 31q-70.5 40 -108.5 115t-38 177q0 118 40.5 206.5t115 136.5t173.5 48q97 0 167.5 -40t108.5 -115t38 -178q0 -117 -40.5 -205.5t-115 -136.5t-173.5 -48q-97 0 -167.5 40zM514 100.5q55 38.5 84.5 110.5t29.5 171q0 126 -60 193.5t-170 67.5q-76 0 -131 -38.5
t-84.5 -110.5t-29.5 -172q0 -125 60 -192.5t170 -67.5q76 0 131 38.5zM470.5 934q-17.5 6 -45.5 18q-19 9 -32 14t-25 5q-21 0 -34 -12.5t-15 -31.5h-44q2 45 29 71.5t67 26.5q21 0 37.5 -5.5t45.5 -18.5q19 -9 32 -14t26 -5q21 0 34 12.5t14 32.5h45q-2 -46 -29 -72.5
t-67 -26.5q-21 0 -38.5 6zM277 765l131 147h54l107 -147h-72l-64 99l-82 -99h-74z" />
    <glyph glyph-name="uni020C" unicode="&#x20c;" horiz-adv-x="764" 
d="M215.5 31q-70.5 40 -108.5 115t-38 177q0 118 40.5 206.5t115 136.5t173.5 48q97 0 167.5 -40t108.5 -115t38 -178q0 -117 -40.5 -205.5t-115 -136.5t-173.5 -48q-97 0 -167.5 40zM514 100.5q55 38.5 84.5 110.5t29.5 171q0 126 -60 193.5t-170 67.5q-76 0 -131 -38.5
t-84.5 -110.5t-29.5 -172q0 -125 60 -192.5t170 -67.5q76 0 131 38.5zM341 765l-84 152h68l60 -152h-44zM461 765l-85 152h68l61 -152h-44z" />
    <glyph glyph-name="Odieresis" unicode="&#xd6;" horiz-adv-x="764" 
d="M215.5 31q-70.5 40 -108.5 115t-38 177q0 118 40.5 206.5t115 136.5t173.5 48q97 0 167.5 -40t108.5 -115t38 -178q0 -117 -40.5 -205.5t-115 -136.5t-173.5 -48q-97 0 -167.5 40zM514 100.5q55 38.5 84.5 110.5t29.5 171q0 126 -60 193.5t-170 67.5q-76 0 -131 -38.5
t-84.5 -110.5t-29.5 -172q0 -125 60 -192.5t170 -67.5q76 0 131 38.5zM303 885h89l-7 -86h-89zM474 885h89l-7 -86h-89z" />
    <glyph glyph-name="uni022A" unicode="&#x22a;" horiz-adv-x="764" 
d="M215.5 31q-70.5 40 -108.5 115t-38 177q0 118 40.5 206.5t115 136.5t173.5 48q97 0 167.5 -40t108.5 -115t38 -178q0 -117 -40.5 -205.5t-115 -136.5t-173.5 -48q-97 0 -167.5 40zM514 100.5q55 38.5 84.5 110.5t29.5 171q0 126 -60 193.5t-170 67.5q-76 0 -131 -38.5
t-84.5 -110.5t-29.5 -172q0 -125 60 -192.5t170 -67.5q76 0 131 38.5zM303 885h89l-7 -86h-89zM474 885h89l-7 -86h-89zM290 971l5 61h299l-5 -61h-299z" />
    <glyph glyph-name="uni0230" unicode="&#x230;" horiz-adv-x="764" 
d="M215.5 31q-70.5 40 -108.5 115t-38 177q0 118 40.5 206.5t115 136.5t173.5 48q97 0 167.5 -40t108.5 -115t38 -178q0 -117 -40.5 -205.5t-115 -136.5t-173.5 -48q-97 0 -167.5 40zM514 100.5q55 38.5 84.5 110.5t29.5 171q0 126 -60 193.5t-170 67.5q-76 0 -131 -38.5
t-84.5 -110.5t-29.5 -172q0 -125 60 -192.5t170 -67.5q76 0 131 38.5zM384 887h98l-7 -91h-99zM290 971l5 61h299l-5 -61h-299z" />
    <glyph glyph-name="uni1ECC" unicode="&#x1ecc;" horiz-adv-x="764" 
d="M215.5 31q-70.5 40 -108.5 115t-38 177q0 118 40.5 206.5t115 136.5t173.5 48q97 0 167.5 -40t108.5 -115t38 -178q0 -117 -40.5 -205.5t-115 -136.5t-173.5 -48q-97 0 -167.5 40zM514 100.5q55 38.5 84.5 110.5t29.5 171q0 126 -60 193.5t-170 67.5q-76 0 -131 -38.5
t-84.5 -110.5t-29.5 -172q0 -125 60 -192.5t170 -67.5q76 0 131 38.5zM310 -94h92l-8 -88h-92z" />
    <glyph glyph-name="Ograve" unicode="&#xd2;" horiz-adv-x="764" 
d="M215.5 31q-70.5 40 -108.5 115t-38 177q0 118 40.5 206.5t115 136.5t173.5 48q97 0 167.5 -40t108.5 -115t38 -178q0 -117 -40.5 -205.5t-115 -136.5t-173.5 -48q-97 0 -167.5 40zM514 100.5q55 38.5 84.5 110.5t29.5 171q0 126 -60 193.5t-170 67.5q-76 0 -131 -38.5
t-84.5 -110.5t-29.5 -172q0 -125 60 -192.5t170 -67.5q76 0 131 38.5zM395 765l-119 152h84l91 -152h-56z" />
    <glyph glyph-name="uni1ECE" unicode="&#x1ece;" horiz-adv-x="764" 
d="M215.5 31q-70.5 40 -108.5 115t-38 177q0 118 40.5 206.5t115 136.5t173.5 48q97 0 167.5 -40t108.5 -115t38 -178q0 -117 -40.5 -205.5t-115 -136.5t-173.5 -48q-97 0 -167.5 40zM514 100.5q55 38.5 84.5 110.5t29.5 171q0 126 -60 193.5t-170 67.5q-76 0 -131 -38.5
t-84.5 -110.5t-29.5 -172q0 -125 60 -192.5t170 -67.5q76 0 131 38.5zM450 765h-53l1 18q1 17 13 27.5t32 20.5q14 6 21 12t7 13q0 8 -10 12.5t-28 4.5q-30 0 -63 -12l-11 44q38 16 81 16q45 0 70 -16t25 -43q0 -21 -13 -33t-37 -23q-18 -10 -25.5 -15.5t-8.5 -15.5z" />
    <glyph glyph-name="Ohorn" unicode="&#x1a0;" horiz-adv-x="764" 
d="M704 697.5q-38 -38.5 -108 -42.5q53 -39 84.5 -108.5t31.5 -165.5q0 -117 -40.5 -205.5t-115 -136.5t-173.5 -48q-97 0 -167.5 40t-108.5 115t-38 177q0 118 41 206.5t117.5 136.5t180.5 48q23 0 71 -4q42 -5 78 -5q61 0 87.5 25t31.5 85l1 15h72l-1 -27
q-6 -67 -44 -105.5zM568 575.5q-60 67.5 -170 67.5q-76 0 -131 -38.5t-84.5 -110.5t-29.5 -172q0 -125 60 -192.5t170 -67.5q76 0 131 38.5t84.5 110.5t29.5 171q0 126 -60 193.5z" />
    <glyph glyph-name="uni1EDA" unicode="&#x1eda;" horiz-adv-x="764" 
d="M704 697.5q-38 -38.5 -108 -42.5q53 -39 84.5 -108.5t31.5 -165.5q0 -117 -40.5 -205.5t-115 -136.5t-173.5 -48q-97 0 -167.5 40t-108.5 115t-38 177q0 118 41 206.5t117.5 136.5t180.5 48q23 0 71 -4q42 -5 78 -5q61 0 87.5 25t31.5 85l1 15h72l-1 -27
q-6 -67 -44 -105.5zM568 575.5q-60 67.5 -170 67.5q-76 0 -131 -38.5t-84.5 -110.5t-29.5 -172q0 -125 60 -192.5t170 -67.5q76 0 131 38.5t84.5 110.5t29.5 171q0 126 -60 193.5zM451 765h-56l110 152h94z" />
    <glyph glyph-name="uni1EE2" unicode="&#x1ee2;" horiz-adv-x="764" 
d="M704 697.5q-38 -38.5 -108 -42.5q53 -39 84.5 -108.5t31.5 -165.5q0 -117 -40.5 -205.5t-115 -136.5t-173.5 -48q-97 0 -167.5 40t-108.5 115t-38 177q0 118 41 206.5t117.5 136.5t180.5 48q23 0 71 -4q42 -5 78 -5q61 0 87.5 25t31.5 85l1 15h72l-1 -27
q-6 -67 -44 -105.5zM568 575.5q-60 67.5 -170 67.5q-76 0 -131 -38.5t-84.5 -110.5t-29.5 -172q0 -125 60 -192.5t170 -67.5q76 0 131 38.5t84.5 110.5t29.5 171q0 126 -60 193.5zM311 -94h92l-8 -88h-92z" />
    <glyph glyph-name="uni1EDC" unicode="&#x1edc;" horiz-adv-x="764" 
d="M704 697.5q-38 -38.5 -108 -42.5q53 -39 84.5 -108.5t31.5 -165.5q0 -117 -40.5 -205.5t-115 -136.5t-173.5 -48q-97 0 -167.5 40t-108.5 115t-38 177q0 118 41 206.5t117.5 136.5t180.5 48q23 0 71 -4q42 -5 78 -5q61 0 87.5 25t31.5 85l1 15h72l-1 -27
q-6 -67 -44 -105.5zM568 575.5q-60 67.5 -170 67.5q-76 0 -131 -38.5t-84.5 -110.5t-29.5 -172q0 -125 60 -192.5t170 -67.5q76 0 131 38.5t84.5 110.5t29.5 171q0 126 -60 193.5zM395 765l-119 152h84l91 -152h-56z" />
    <glyph glyph-name="uni1EDE" unicode="&#x1ede;" horiz-adv-x="764" 
d="M704 697.5q-38 -38.5 -108 -42.5q53 -39 84.5 -108.5t31.5 -165.5q0 -117 -40.5 -205.5t-115 -136.5t-173.5 -48q-97 0 -167.5 40t-108.5 115t-38 177q0 118 41 206.5t117.5 136.5t180.5 48q23 0 71 -4q42 -5 78 -5q61 0 87.5 25t31.5 85l1 15h72l-1 -27
q-6 -67 -44 -105.5zM568 575.5q-60 67.5 -170 67.5q-76 0 -131 -38.5t-84.5 -110.5t-29.5 -172q0 -125 60 -192.5t170 -67.5q76 0 131 38.5t84.5 110.5t29.5 171q0 126 -60 193.5zM450 765h-53l1 18q1 17 13 27.5t32 20.5q14 6 21 12t7 13q0 8 -10 12.5t-28 4.5
q-30 0 -63 -12l-11 44q38 16 81 16q45 0 70 -16t25 -43q0 -21 -13 -33t-37 -23q-18 -10 -25.5 -15.5t-8.5 -15.5z" />
    <glyph glyph-name="uni1EE0" unicode="&#x1ee0;" horiz-adv-x="764" 
d="M704 697.5q-38 -38.5 -108 -42.5q53 -39 84.5 -108.5t31.5 -165.5q0 -117 -40.5 -205.5t-115 -136.5t-173.5 -48q-97 0 -167.5 40t-108.5 115t-38 177q0 118 41 206.5t117.5 136.5t180.5 48q23 0 71 -4q42 -5 78 -5q61 0 87.5 25t31.5 85l1 15h72l-1 -27
q-6 -67 -44 -105.5zM568 575.5q-60 67.5 -170 67.5q-76 0 -131 -38.5t-84.5 -110.5t-29.5 -172q0 -125 60 -192.5t170 -67.5q76 0 131 38.5t84.5 110.5t29.5 171q0 126 -60 193.5zM293.5 872q26.5 29 68.5 29q20 0 38.5 -8.5t42.5 -24.5q19 -12 32 -18.5t24 -6.5
q22 0 35.5 14.5t15.5 40.5h45q-3 -56 -30 -85.5t-69 -29.5q-20 0 -37.5 8.5t-43.5 24.5q-18 12 -31 18.5t-24 6.5q-22 0 -36 -14.5t-16 -40.5h-44q3 57 29.5 86z" />
    <glyph glyph-name="Ohungarumlaut" unicode="&#x150;" horiz-adv-x="764" 
d="M215.5 31q-70.5 40 -108.5 115t-38 177q0 118 40.5 206.5t115 136.5t173.5 48q97 0 167.5 -40t108.5 -115t38 -178q0 -117 -40.5 -205.5t-115 -136.5t-173.5 -48q-97 0 -167.5 40zM514 100.5q55 38.5 84.5 110.5t29.5 171q0 126 -60 193.5t-170 67.5q-76 0 -131 -38.5
t-84.5 -110.5t-29.5 -172q0 -125 60 -192.5t170 -67.5q76 0 131 38.5zM385 765h-44l82 152h73zM505 765h-44l81 152h74z" />
    <glyph glyph-name="uni020E" unicode="&#x20e;" horiz-adv-x="764" 
d="M215.5 31q-70.5 40 -108.5 115t-38 177q0 118 40.5 206.5t115 136.5t173.5 48q97 0 167.5 -40t108.5 -115t38 -178q0 -117 -40.5 -205.5t-115 -136.5t-173.5 -48q-97 0 -167.5 40zM514 100.5q55 38.5 84.5 110.5t29.5 171q0 126 -60 193.5t-170 67.5q-76 0 -131 -38.5
t-84.5 -110.5t-29.5 -172q0 -125 60 -192.5t170 -67.5q76 0 131 38.5zM529.5 879q42.5 -27 59.5 -79l-53 -22q-19 39 -44.5 54.5t-62.5 15.5q-36 0 -63.5 -15.5t-52.5 -54.5l-50 22q26 54 70 80t99 26t97.5 -27z" />
    <glyph glyph-name="Omacron" unicode="&#x14c;" horiz-adv-x="764" 
d="M215.5 31q-70.5 40 -108.5 115t-38 177q0 118 40.5 206.5t115 136.5t173.5 48q97 0 167.5 -40t108.5 -115t38 -178q0 -117 -40.5 -205.5t-115 -136.5t-173.5 -48q-97 0 -167.5 40zM514 100.5q55 38.5 84.5 110.5t29.5 171q0 126 -60 193.5t-170 67.5q-76 0 -131 -38.5
t-84.5 -110.5t-29.5 -172q0 -125 60 -192.5t170 -67.5q76 0 131 38.5zM277 811l5 61h299l-5 -61h-299z" />
    <glyph glyph-name="uni1E52" unicode="&#x1e52;" horiz-adv-x="764" 
d="M215.5 31q-70.5 40 -108.5 115t-38 177q0 118 40.5 206.5t115 136.5t173.5 48q97 0 167.5 -40t108.5 -115t38 -178q0 -117 -40.5 -205.5t-115 -136.5t-173.5 -48q-97 0 -167.5 40zM514 100.5q55 38.5 84.5 110.5t29.5 171q0 126 -60 193.5t-170 67.5q-76 0 -131 -38.5
t-84.5 -110.5t-29.5 -172q0 -125 60 -192.5t170 -67.5q76 0 131 38.5zM277 811l5 61h299l-5 -61h-299zM464 925h-56l110 152h94z" />
    <glyph glyph-name="uni1E50" unicode="&#x1e50;" horiz-adv-x="764" 
d="M215.5 31q-70.5 40 -108.5 115t-38 177q0 118 40.5 206.5t115 136.5t173.5 48q97 0 167.5 -40t108.5 -115t38 -178q0 -117 -40.5 -205.5t-115 -136.5t-173.5 -48q-97 0 -167.5 40zM514 100.5q55 38.5 84.5 110.5t29.5 171q0 126 -60 193.5t-170 67.5q-76 0 -131 -38.5
t-84.5 -110.5t-29.5 -172q0 -125 60 -192.5t170 -67.5q76 0 131 38.5zM277 811l5 61h299l-5 -61h-299zM408 925l-119 152h84l91 -152h-56z" />
    <glyph glyph-name="uni01EA" unicode="&#x1ea;" horiz-adv-x="764" 
d="M400 -29.5q-20 -20.5 -20 -51.5q0 -29 15.5 -44t43.5 -15q26 0 60 17l13 -47q-39 -23 -84 -23q-52 0 -82.5 28t-30.5 73q0 50 37 85q-87 5 -150.5 46t-98 114t-34.5 170q0 118 40.5 206.5t115 136.5t173.5 48q97 0 168 -40t108.5 -115t37.5 -178q0 -158 -69 -256.5
t-182 -124.5q-41 -9 -61 -29.5zM213 129.5q60 -67.5 170 -67.5q76 0 131 38.5t84.5 110.5t29.5 171q0 126 -60 193.5t-170 67.5q-76 0 -131 -38.5t-84.5 -110.5t-29.5 -172q0 -125 60 -192.5z" />
    <glyph glyph-name="Oslash" unicode="&#xd8;" horiz-adv-x="764" 
d="M688 527.5q24 -64.5 24 -146.5q0 -117 -40.5 -205.5t-115 -136.5t-173.5 -48q-94 0 -167 39l-51 -77l-55 35l54 81q-46 43 -70.5 107.5t-24.5 146.5q0 118 40.5 206.5t115 136.5t173.5 48q96 0 167 -40l52 78l55 -35l-54 -82q46 -43 70 -107.5zM208 135l316 477
q-53 31 -126 31q-76 0 -131 -38.5t-84.5 -110.5t-29.5 -172q0 -120 55 -187zM514 100.5q55 38.5 84.5 110.5t29.5 171q0 119 -54 187l-316 -476q50 -31 125 -31q76 0 131 38.5z" />
    <glyph glyph-name="Oslashacute" unicode="&#x1fe;" horiz-adv-x="764" 
d="M688 527.5q24 -64.5 24 -146.5q0 -117 -40.5 -205.5t-115 -136.5t-173.5 -48q-94 0 -167 39l-51 -77l-55 35l54 81q-46 43 -70.5 107.5t-24.5 146.5q0 118 40.5 206.5t115 136.5t173.5 48q96 0 167 -40l52 78l55 -35l-54 -82q46 -43 70 -107.5zM208 135l316 477
q-53 31 -126 31q-76 0 -131 -38.5t-84.5 -110.5t-29.5 -172q0 -120 55 -187zM514 100.5q55 38.5 84.5 110.5t29.5 171q0 119 -54 187l-316 -476q50 -31 125 -31q76 0 131 38.5zM451 765h-56l110 152h94z" />
    <glyph glyph-name="Otilde" unicode="&#xd5;" horiz-adv-x="764" 
d="M215.5 31q-70.5 40 -108.5 115t-38 177q0 118 40.5 206.5t115 136.5t173.5 48q97 0 167.5 -40t108.5 -115t38 -178q0 -117 -40.5 -205.5t-115 -136.5t-173.5 -48q-97 0 -167.5 40zM514 100.5q55 38.5 84.5 110.5t29.5 171q0 126 -60 193.5t-170 67.5q-76 0 -131 -38.5
t-84.5 -110.5t-29.5 -172q0 -125 60 -192.5t170 -67.5q76 0 131 38.5zM293.5 872q26.5 29 68.5 29q20 0 38.5 -8.5t42.5 -24.5q19 -12 32 -18.5t24 -6.5q22 0 35.5 14.5t15.5 40.5h45q-3 -56 -30 -85.5t-69 -29.5q-20 0 -37.5 8.5t-43.5 24.5q-18 12 -31 18.5t-24 6.5
q-22 0 -36 -14.5t-16 -40.5h-44q3 57 29.5 86z" />
    <glyph glyph-name="uni1E4C" unicode="&#x1e4c;" horiz-adv-x="764" 
d="M215.5 31q-70.5 40 -108.5 115t-38 177q0 118 40.5 206.5t115 136.5t173.5 48q97 0 167.5 -40t108.5 -115t38 -178q0 -117 -40.5 -205.5t-115 -136.5t-173.5 -48q-97 0 -167.5 40zM514 100.5q55 38.5 84.5 110.5t29.5 171q0 126 -60 193.5t-170 67.5q-76 0 -131 -38.5
t-84.5 -110.5t-29.5 -172q0 -125 60 -192.5t170 -67.5q76 0 131 38.5zM293.5 872q26.5 29 68.5 29q20 0 38.5 -8.5t42.5 -24.5q19 -12 32 -18.5t24 -6.5q22 0 35.5 14.5t15.5 40.5h45q-3 -56 -30 -85.5t-69 -29.5q-20 0 -37.5 8.5t-43.5 24.5q-18 12 -31 18.5t-24 6.5
q-22 0 -36 -14.5t-16 -40.5h-44q3 57 29.5 86zM464 925h-56l110 152h94z" />
    <glyph glyph-name="uni1E4E" unicode="&#x1e4e;" horiz-adv-x="764" 
d="M215.5 31q-70.5 40 -108.5 115t-38 177q0 118 40.5 206.5t115 136.5t173.5 48q97 0 167.5 -40t108.5 -115t38 -178q0 -117 -40.5 -205.5t-115 -136.5t-173.5 -48q-97 0 -167.5 40zM514 100.5q55 38.5 84.5 110.5t29.5 171q0 126 -60 193.5t-170 67.5q-76 0 -131 -38.5
t-84.5 -110.5t-29.5 -172q0 -125 60 -192.5t170 -67.5q76 0 131 38.5zM293.5 872q26.5 29 68.5 29q20 0 38.5 -8.5t42.5 -24.5q19 -12 32 -18.5t24 -6.5q22 0 35.5 14.5t15.5 40.5h45q-3 -56 -30 -85.5t-69 -29.5q-20 0 -37.5 8.5t-43.5 24.5q-18 12 -31 18.5t-24 6.5
q-22 0 -36 -14.5t-16 -40.5h-44q3 57 29.5 86zM316 1045h89l-7 -86h-89zM487 1045h89l-7 -86h-89z" />
    <glyph glyph-name="uni022C" unicode="&#x22c;" horiz-adv-x="764" 
d="M215.5 31q-70.5 40 -108.5 115t-38 177q0 118 40.5 206.5t115 136.5t173.5 48q97 0 167.5 -40t108.5 -115t38 -178q0 -117 -40.5 -205.5t-115 -136.5t-173.5 -48q-97 0 -167.5 40zM514 100.5q55 38.5 84.5 110.5t29.5 171q0 126 -60 193.5t-170 67.5q-76 0 -131 -38.5
t-84.5 -110.5t-29.5 -172q0 -125 60 -192.5t170 -67.5q76 0 131 38.5zM293.5 872q26.5 29 68.5 29q20 0 38.5 -8.5t42.5 -24.5q19 -12 32 -18.5t24 -6.5q22 0 35.5 14.5t15.5 40.5h45q-3 -56 -30 -85.5t-69 -29.5q-20 0 -37.5 8.5t-43.5 24.5q-18 12 -31 18.5t-24 6.5
q-22 0 -36 -14.5t-16 -40.5h-44q3 57 29.5 86zM290 971l5 61h299l-5 -61h-299z" />
    <glyph glyph-name="OE" unicode="&#x152;" horiz-adv-x="1045" 
d="M662 637l-19 -245h345l-6 -68h-345l-20 -256h366l-6 -68h-577q-159 0 -245 85t-86 239q0 119 42 204.5t123 131t195 45.5h604l-5 -68h-366zM581 637h-148q-138 0 -209 -81t-71 -233q0 -125 63.5 -190t189.5 -65h130z" />
    <glyph glyph-name="P" unicode="P" horiz-adv-x="645" 
d="M562.5 653q58.5 -52 58.5 -142q0 -109 -66 -165.5t-184 -56.5h-198l-23 -289h-82l55 705h273q108 0 166.5 -52zM540 507q0 130 -151 130h-189l-22 -280h189q173 0 173 150z" />
    <glyph glyph-name="Thorn" unicode="&#xde;" horiz-adv-x="645" 
d="M553.5 504q55.5 -46 55.5 -134q0 -96 -60.5 -149.5t-174.5 -53.5h-212l-13 -167h-81l55 705h81l-12 -155h204q102 0 157.5 -46zM529 366q0 60 -35 88t-105 28h-202l-20 -248h203q159 0 159 132z" />
    <glyph glyph-name="Q" unicode="Q" horiz-adv-x="764" 
d="M527 -13q14 -16 29 -43l58 -108l-72 -36l-73 135q-30 55 -106 57q-89 3 -155 43t-102.5 114t-36.5 174q0 118 40.5 206.5t115 136.5t173.5 48q97 0 168 -40t108.5 -115t37.5 -178q0 -138 -56.5 -236t-160.5 -134q18 -8 32 -24zM213 129.5q60 -67.5 170 -67.5
q76 0 131 38.5t84.5 110.5t29.5 171q0 126 -60 193.5t-170 67.5q-76 0 -131 -38.5t-84.5 -110.5t-29.5 -172q0 -125 60 -192.5z" />
    <glyph glyph-name="R" unicode="R" horiz-adv-x="686" 
d="M484 280.5q17 -18.5 32 -50.5l107 -230h-90l-103 226q-18 41 -46.5 56.5t-79.5 15.5h-132l-23 -298h-81l55 705h288q108 0 166 -48.5t58 -139.5q0 -90 -48.5 -144t-143.5 -66q24 -8 41 -26.5zM384 366q86 0 128.5 36t42.5 110q0 64 -37.5 94.5t-112.5 30.5h-206l-21 -271
h206z" />
    <glyph glyph-name="Racute" unicode="&#x154;" horiz-adv-x="686" 
d="M484 280.5q17 -18.5 32 -50.5l107 -230h-90l-103 226q-18 41 -46.5 56.5t-79.5 15.5h-132l-23 -298h-81l55 705h288q108 0 166 -48.5t58 -139.5q0 -90 -48.5 -144t-143.5 -66q24 -8 41 -26.5zM384 366q86 0 128.5 36t42.5 110q0 64 -37.5 94.5t-112.5 30.5h-206l-21 -271
h206zM410 765h-56l110 152h94z" />
    <glyph glyph-name="Rcaron" unicode="&#x158;" horiz-adv-x="686" 
d="M484 280.5q17 -18.5 32 -50.5l107 -230h-90l-103 226q-18 41 -46.5 56.5t-79.5 15.5h-132l-23 -298h-81l55 705h288q108 0 166 -48.5t58 -139.5q0 -90 -48.5 -144t-143.5 -66q24 -8 41 -26.5zM384 366q86 0 128.5 36t42.5 110q0 64 -37.5 94.5t-112.5 30.5h-206l-21 -271
h206zM466 917h74l-131 -152h-54l-107 152h73l66 -104z" />
    <glyph glyph-name="Rcommaaccent" unicode="&#x156;" horiz-adv-x="686" 
d="M484 280.5q17 -18.5 32 -50.5l107 -230h-90l-103 226q-18 41 -46.5 56.5t-79.5 15.5h-132l-23 -298h-81l55 705h288q108 0 166 -48.5t58 -139.5q0 -90 -48.5 -144t-143.5 -66q24 -8 41 -26.5zM384 366q86 0 128.5 36t42.5 110q0 64 -37.5 94.5t-112.5 30.5h-206l-21 -271
h206zM365 -72l-4 -58q-3 -39 -17 -70.5t-44 -58.5l-35 27q20 19 29.5 37t12.5 40h-46l6 83h98z" />
    <glyph glyph-name="uni0210" unicode="&#x210;" horiz-adv-x="686" 
d="M484 280.5q17 -18.5 32 -50.5l107 -230h-90l-103 226q-18 41 -46.5 56.5t-79.5 15.5h-132l-23 -298h-81l55 705h288q108 0 166 -48.5t58 -139.5q0 -90 -48.5 -144t-143.5 -66q24 -8 41 -26.5zM384 366q86 0 128.5 36t42.5 110q0 64 -37.5 94.5t-112.5 30.5h-206l-21 -271
h206zM300 765l-84 152h68l60 -152h-44zM420 765l-85 152h68l61 -152h-44z" />
    <glyph glyph-name="uni1E5A" unicode="&#x1e5a;" horiz-adv-x="686" 
d="M484 280.5q17 -18.5 32 -50.5l107 -230h-90l-103 226q-18 41 -46.5 56.5t-79.5 15.5h-132l-23 -298h-81l55 705h288q108 0 166 -48.5t58 -139.5q0 -90 -48.5 -144t-143.5 -66q24 -8 41 -26.5zM384 366q86 0 128.5 36t42.5 110q0 64 -37.5 94.5t-112.5 30.5h-206l-21 -271
h206zM269 -94h92l-8 -88h-92z" />
    <glyph glyph-name="uni0212" unicode="&#x212;" horiz-adv-x="686" 
d="M484 280.5q17 -18.5 32 -50.5l107 -230h-90l-103 226q-18 41 -46.5 56.5t-79.5 15.5h-132l-23 -298h-81l55 705h288q108 0 166 -48.5t58 -139.5q0 -90 -48.5 -144t-143.5 -66q24 -8 41 -26.5zM384 366q86 0 128.5 36t42.5 110q0 64 -37.5 94.5t-112.5 30.5h-206l-21 -271
h206zM488.5 879q42.5 -27 59.5 -79l-53 -22q-19 39 -44.5 54.5t-62.5 15.5q-36 0 -63.5 -15.5t-52.5 -54.5l-50 22q26 54 70 80t99 26t97.5 -27z" />
    <glyph glyph-name="uni1E5E" unicode="&#x1e5e;" horiz-adv-x="686" 
d="M484 280.5q17 -18.5 32 -50.5l107 -230h-90l-103 226q-18 41 -46.5 56.5t-79.5 15.5h-132l-23 -298h-81l55 705h288q108 0 166 -48.5t58 -139.5q0 -90 -48.5 -144t-143.5 -66q24 -8 41 -26.5zM384 366q86 0 128.5 36t42.5 110q0 64 -37.5 94.5t-112.5 30.5h-206l-21 -271
h206zM159 -168l5 59h299l-5 -59h-299z" />
    <glyph glyph-name="S" unicode="S" horiz-adv-x="617" 
d="M155 14q-66 22 -120 67l36 63q54 -44 109.5 -63.5t125.5 -19.5q86 0 132 32t46 90q0 36 -22.5 59t-56.5 36.5t-93 30.5q-74 21 -120 41t-78.5 59.5t-32.5 103.5q0 60 32 105.5t91.5 70t138.5 24.5q74 0 138.5 -23t109.5 -66l-37 -63q-94 83 -212 83q-86 0 -132 -33.5
t-46 -93.5q0 -40 24 -65t59.5 -39.5t98.5 -33.5q72 -21 116 -40t74.5 -55t30.5 -95q0 -91 -70.5 -144t-192.5 -53q-83 0 -149 22z" />
    <glyph glyph-name="Sacute" unicode="&#x15a;" horiz-adv-x="617" 
d="M155 14q-66 22 -120 67l36 63q54 -44 109.5 -63.5t125.5 -19.5q86 0 132 32t46 90q0 36 -22.5 59t-56.5 36.5t-93 30.5q-74 21 -120 41t-78.5 59.5t-32.5 103.5q0 60 32 105.5t91.5 70t138.5 24.5q74 0 138.5 -23t109.5 -66l-37 -63q-94 83 -212 83q-86 0 -132 -33.5
t-46 -93.5q0 -40 24 -65t59.5 -39.5t98.5 -33.5q72 -21 116 -40t74.5 -55t30.5 -95q0 -91 -70.5 -144t-192.5 -53q-83 0 -149 22zM378 765h-56l110 152h94z" />
    <glyph glyph-name="uni1E64" unicode="&#x1e64;" horiz-adv-x="617" 
d="M155 14q-66 22 -120 67l36 63q54 -44 109.5 -63.5t125.5 -19.5q86 0 132 32t46 90q0 36 -22.5 59t-56.5 36.5t-93 30.5q-74 21 -120 41t-78.5 59.5t-32.5 103.5q0 60 32 105.5t91.5 70t138.5 24.5q74 0 138.5 -23t109.5 -66l-37 -63q-94 83 -212 83q-86 0 -132 -33.5
t-46 -93.5q0 -40 24 -65t59.5 -39.5t98.5 -33.5q72 -21 116 -40t74.5 -55t30.5 -95q0 -91 -70.5 -144t-192.5 -53q-83 0 -149 22zM386 765h-56l110 152h94zM199 916h98l-7 -91h-99z" />
    <glyph glyph-name="Scaron" unicode="&#x160;" horiz-adv-x="617" 
d="M155 14q-66 22 -120 67l36 63q54 -44 109.5 -63.5t125.5 -19.5q86 0 132 32t46 90q0 36 -22.5 59t-56.5 36.5t-93 30.5q-74 21 -120 41t-78.5 59.5t-32.5 103.5q0 60 32 105.5t91.5 70t138.5 24.5q74 0 138.5 -23t109.5 -66l-37 -63q-94 83 -212 83q-86 0 -132 -33.5
t-46 -93.5q0 -40 24 -65t59.5 -39.5t98.5 -33.5q72 -21 116 -40t74.5 -55t30.5 -95q0 -91 -70.5 -144t-192.5 -53q-83 0 -149 22zM434 917h74l-131 -152h-54l-107 152h73l66 -104z" />
    <glyph glyph-name="uni1E66" unicode="&#x1e66;" horiz-adv-x="617" 
d="M155 14q-66 22 -120 67l36 63q54 -44 109.5 -63.5t125.5 -19.5q86 0 132 32t46 90q0 36 -22.5 59t-56.5 36.5t-93 30.5q-74 21 -120 41t-78.5 59.5t-32.5 103.5q0 60 32 105.5t91.5 70t138.5 24.5q74 0 138.5 -23t109.5 -66l-37 -63q-94 83 -212 83q-86 0 -132 -33.5
t-46 -93.5q0 -40 24 -65t59.5 -39.5t98.5 -33.5q72 -21 116 -40t74.5 -55t30.5 -95q0 -91 -70.5 -144t-192.5 -53q-83 0 -149 22zM434 917h74l-131 -152h-54l-107 152h73l66 -104zM324 1047h98l-7 -91h-99z" />
    <glyph glyph-name="Scedilla" unicode="&#x15e;" horiz-adv-x="617" 
d="M188 452q24 -25 59.5 -39.5t98.5 -33.5q72 -21 116 -40t74.5 -55t30.5 -95q0 -90 -68.5 -142.5t-187.5 -54.5l-7 -34q6 1 19 1q34 0 54.5 -17.5t20.5 -49.5q0 -38 -31 -61.5t-86 -23.5q-22 0 -47 5t-43 14l14 43q39 -14 76 -14q27 0 42 9t15 26q0 13 -9 20t-26 7
q-21 0 -44 -9l-18 16l14 70q-130 12 -220 87l36 63q54 -44 109.5 -63.5t125.5 -19.5q86 0 132 32t46 90q0 36 -22.5 59t-56.5 36.5t-93 30.5q-74 21 -120 41t-78.5 59.5t-32.5 103.5q0 60 32 105.5t91.5 70t138.5 24.5q74 0 138.5 -23t109.5 -66l-37 -63q-94 83 -212 83
q-86 0 -132 -33.5t-46 -93.5q0 -40 24 -65z" />
    <glyph glyph-name="Scircumflex" unicode="&#x15c;" horiz-adv-x="617" 
d="M155 14q-66 22 -120 67l36 63q54 -44 109.5 -63.5t125.5 -19.5q86 0 132 32t46 90q0 36 -22.5 59t-56.5 36.5t-93 30.5q-74 21 -120 41t-78.5 59.5t-32.5 103.5q0 60 32 105.5t91.5 70t138.5 24.5q74 0 138.5 -23t109.5 -66l-37 -63q-94 83 -212 83q-86 0 -132 -33.5
t-46 -93.5q0 -40 24 -65t59.5 -39.5t98.5 -33.5q72 -21 116 -40t74.5 -55t30.5 -95q0 -91 -70.5 -144t-192.5 -53q-83 0 -149 22zM278 765h-74l131 152h54l107 -152h-72l-63 103z" />
    <glyph glyph-name="Scommaaccent" unicode="&#x218;" horiz-adv-x="617" 
d="M155 14q-66 22 -120 67l36 63q54 -44 109.5 -63.5t125.5 -19.5q86 0 132 32t46 90q0 36 -22.5 59t-56.5 36.5t-93 30.5q-74 21 -120 41t-78.5 59.5t-32.5 103.5q0 60 32 105.5t91.5 70t138.5 24.5q74 0 138.5 -23t109.5 -66l-37 -63q-94 83 -212 83q-86 0 -132 -33.5
t-46 -93.5q0 -40 24 -65t59.5 -39.5t98.5 -33.5q72 -21 116 -40t74.5 -55t30.5 -95q0 -91 -70.5 -144t-192.5 -53q-83 0 -149 22zM336 -72l-4 -58q-3 -39 -17 -70.5t-44 -58.5l-35 27q20 19 29.5 37t12.5 40h-46l6 83h98z" />
    <glyph glyph-name="uni1E60" unicode="&#x1e60;" horiz-adv-x="617" 
d="M155 14q-66 22 -120 67l36 63q54 -44 109.5 -63.5t125.5 -19.5q86 0 132 32t46 90q0 36 -22.5 59t-56.5 36.5t-93 30.5q-74 21 -120 41t-78.5 59.5t-32.5 103.5q0 60 32 105.5t91.5 70t138.5 24.5q74 0 138.5 -23t109.5 -66l-37 -63q-94 83 -212 83q-86 0 -132 -33.5
t-46 -93.5q0 -40 24 -65t59.5 -39.5t98.5 -33.5q72 -21 116 -40t74.5 -55t30.5 -95q0 -91 -70.5 -144t-192.5 -53q-83 0 -149 22zM311 887h98l-7 -91h-99z" />
    <glyph glyph-name="uni1E62" unicode="&#x1e62;" horiz-adv-x="617" 
d="M155 14q-66 22 -120 67l36 63q54 -44 109.5 -63.5t125.5 -19.5q86 0 132 32t46 90q0 36 -22.5 59t-56.5 36.5t-93 30.5q-74 21 -120 41t-78.5 59.5t-32.5 103.5q0 60 32 105.5t91.5 70t138.5 24.5q74 0 138.5 -23t109.5 -66l-37 -63q-94 83 -212 83q-86 0 -132 -33.5
t-46 -93.5q0 -40 24 -65t59.5 -39.5t98.5 -33.5q72 -21 116 -40t74.5 -55t30.5 -95q0 -91 -70.5 -144t-192.5 -53q-83 0 -149 22zM240 -94h92l-8 -88h-92z" />
    <glyph glyph-name="uni1E68" unicode="&#x1e68;" horiz-adv-x="617" 
d="M155 14q-66 22 -120 67l36 63q54 -44 109.5 -63.5t125.5 -19.5q86 0 132 32t46 90q0 36 -22.5 59t-56.5 36.5t-93 30.5q-74 21 -120 41t-78.5 59.5t-32.5 103.5q0 60 32 105.5t91.5 70t138.5 24.5q74 0 138.5 -23t109.5 -66l-37 -63q-94 83 -212 83q-86 0 -132 -33.5
t-46 -93.5q0 -40 24 -65t59.5 -39.5t98.5 -33.5q72 -21 116 -40t74.5 -55t30.5 -95q0 -91 -70.5 -144t-192.5 -53q-83 0 -149 22zM240 -94h92l-8 -88h-92zM311 887h98l-7 -91h-99z" />
    <glyph glyph-name="uni1E9E" unicode="&#x1e9e;" horiz-adv-x="688" 
d="M592 311q35 -42 35 -106q0 -62 -29 -110t-81.5 -75t-119.5 -27q-105 0 -183 64l33 63q74 -58 146 -58t112.5 37.5t40.5 106.5q0 59 -39.5 88t-119.5 29h-126l5 69h101q75 0 116 36t41 102q0 52 -39 82t-105 30q-95 0 -141.5 -45t-54.5 -141l-36 -456h-81l37 462
q10 124 80.5 187t198.5 63q102 0 162 -47.5t60 -129.5q0 -61 -29 -104.5t-84 -63.5q65 -14 100 -56z" />
    <glyph glyph-name="uni018F" unicode="&#x18f;" horiz-adv-x="742" 
d="M546 673q69 -40 106.5 -115t37.5 -177q0 -118 -40.5 -205.5t-116 -135.5t-176.5 -48q-92 0 -157 39t-98.5 109.5t-33.5 164.5q0 32 2 49l3 38h533q-2 121 -63 186t-171 65q-63 -1 -116.5 -20.5t-103.5 -61.5l-26 63q98 89 258 89q93 0 162 -40zM526 130.5
q64 68.5 77 192.5h-451q-1 -9 -1 -27q0 -111 53 -172.5t154 -61.5q104 0 168 68.5z" />
    <glyph glyph-name="T" unicode="T" horiz-adv-x="598" 
d="M238 0l51 635h-246l6 70h573l-5 -70h-246l-50 -635h-83z" />
    <glyph glyph-name="Tbar" unicode="&#x166;" horiz-adv-x="598" 
d="M617 635h-246l-19 -244h142l-5 -67h-142l-26 -324h-83l26 324h-143l6 67h142l20 244h-246l6 70h573z" />
    <glyph glyph-name="Tcaron" unicode="&#x164;" horiz-adv-x="598" 
d="M238 0l51 635h-246l6 70h573l-5 -70h-246l-50 -635h-83zM424 917h74l-131 -152h-54l-107 152h73l66 -104z" />
    <glyph glyph-name="uni0162" unicode="&#x162;" horiz-adv-x="598" 
d="M299 0l-8 -42q6 1 19 1q34 0 54.5 -17.5t20.5 -49.5q0 -38 -31 -61.5t-86 -23.5q-22 0 -47 5t-43 14l14 43q39 -14 76 -14q27 0 42 9t15 26q0 13 -9 20t-26 7q-21 0 -44 -9l-18 16l15 76h-5l51 635h-246l6 70h573l-5 -70h-246l-50 -635h-22z" />
    <glyph glyph-name="uni021A" unicode="&#x21a;" horiz-adv-x="598" 
d="M238 0l51 635h-246l6 70h573l-5 -70h-246l-50 -635h-83zM323 -72l-4 -58q-3 -39 -17 -70.5t-44 -58.5l-35 27q20 19 29.5 37t12.5 40h-46l6 83h98z" />
    <glyph glyph-name="uni1E6C" unicode="&#x1e6c;" horiz-adv-x="598" 
d="M238 0l51 635h-246l6 70h573l-5 -70h-246l-50 -635h-83zM227 -94h92l-8 -88h-92z" />
    <glyph glyph-name="uni1E6E" unicode="&#x1e6e;" horiz-adv-x="598" 
d="M238 0l51 635h-246l6 70h573l-5 -70h-246l-50 -635h-83zM117 -168l5 59h299l-5 -59h-299z" />
    <glyph glyph-name="U" unicode="U" horiz-adv-x="724" 
d="M150 56q-67 64 -67 185q0 24 1 37l34 427h81l-33 -426q-1 -11 -1 -32q0 -93 46 -139t140 -46q98 0 151 50t60 155l34 438h82l-34 -430q-11 -142 -85.5 -212.5t-209.5 -70.5q-132 0 -199 64z" />
    <glyph glyph-name="Uacute" unicode="&#xda;" horiz-adv-x="724" 
d="M150 56q-67 64 -67 185q0 24 1 37l34 427h81l-33 -426q-1 -11 -1 -32q0 -93 46 -139t140 -46q98 0 151 50t60 155l34 438h82l-34 -430q-11 -142 -85.5 -212.5t-209.5 -70.5q-132 0 -199 64zM431 765h-56l110 152h94z" />
    <glyph glyph-name="Ubreve" unicode="&#x16c;" horiz-adv-x="724" 
d="M150 56q-67 64 -67 185q0 24 1 37l34 427h81l-33 -426q-1 -11 -1 -32q0 -93 46 -139t140 -46q98 0 151 50t60 155l34 438h82l-34 -430q-11 -142 -85.5 -212.5t-209.5 -70.5q-132 0 -199 64zM308.5 803.5q-42.5 26.5 -59.5 79.5l53 22q19 -39 44.5 -54.5t62.5 -15.5
q36 0 63.5 15.5t52.5 54.5l50 -22q-26 -54 -70 -80t-99 -26t-97.5 26.5z" />
    <glyph glyph-name="Ucircumflex" unicode="&#xdb;" horiz-adv-x="724" 
d="M150 56q-67 64 -67 185q0 24 1 37l34 427h81l-33 -426q-1 -11 -1 -32q0 -93 46 -139t140 -46q98 0 151 50t60 155l34 438h82l-34 -430q-11 -142 -85.5 -212.5t-209.5 -70.5q-132 0 -199 64zM331 765h-74l131 152h54l107 -152h-72l-63 103z" />
    <glyph glyph-name="uni0214" unicode="&#x214;" horiz-adv-x="724" 
d="M150 56q-67 64 -67 185q0 24 1 37l34 427h81l-33 -426q-1 -11 -1 -32q0 -93 46 -139t140 -46q98 0 151 50t60 155l34 438h82l-34 -430q-11 -142 -85.5 -212.5t-209.5 -70.5q-132 0 -199 64zM321 765l-84 152h68l60 -152h-44zM441 765l-85 152h68l61 -152h-44z" />
    <glyph glyph-name="Udieresis" unicode="&#xdc;" horiz-adv-x="724" 
d="M150 56q-67 64 -67 185q0 24 1 37l34 427h81l-33 -426q-1 -11 -1 -32q0 -93 46 -139t140 -46q98 0 151 50t60 155l34 438h82l-34 -430q-11 -142 -85.5 -212.5t-209.5 -70.5q-132 0 -199 64zM283 885h89l-7 -86h-89zM454 885h89l-7 -86h-89z" />
    <glyph glyph-name="uni1EE4" unicode="&#x1ee4;" horiz-adv-x="724" 
d="M150 56q-67 64 -67 185q0 24 1 37l34 427h81l-33 -426q-1 -11 -1 -32q0 -93 46 -139t140 -46q98 0 151 50t60 155l34 438h82l-34 -430q-11 -142 -85.5 -212.5t-209.5 -70.5q-132 0 -199 64zM290 -94h92l-8 -88h-92z" />
    <glyph glyph-name="Ugrave" unicode="&#xd9;" horiz-adv-x="724" 
d="M150 56q-67 64 -67 185q0 24 1 37l34 427h81l-33 -426q-1 -11 -1 -32q0 -93 46 -139t140 -46q98 0 151 50t60 155l34 438h82l-34 -430q-11 -142 -85.5 -212.5t-209.5 -70.5q-132 0 -199 64zM375 765l-119 152h84l91 -152h-56z" />
    <glyph glyph-name="uni1EE6" unicode="&#x1ee6;" horiz-adv-x="724" 
d="M150 56q-67 64 -67 185q0 24 1 37l34 427h81l-33 -426q-1 -11 -1 -32q0 -93 46 -139t140 -46q98 0 151 50t60 155l34 438h82l-34 -430q-11 -142 -85.5 -212.5t-209.5 -70.5q-132 0 -199 64zM430 765h-53l1 18q1 17 13 27.5t32 20.5q14 6 21 12t7 13q0 8 -10 12.5t-28 4.5
q-30 0 -63 -12l-11 44q38 16 81 16q45 0 70 -16t25 -43q0 -21 -13 -33t-37 -23q-18 -10 -25.5 -15.5t-8.5 -15.5z" />
    <glyph glyph-name="Uhorn" unicode="&#x1af;" horiz-adv-x="724" 
d="M805 830l-1 -27q-5 -59 -38.5 -97t-90.5 -48l-31 -383q-11 -142 -85.5 -212.5t-209.5 -70.5q-132 0 -199 64t-67 185q0 24 1 37l34 427h81l-33 -426q-1 -11 -1 -32q0 -93 46 -139t140 -46q98 0 151 50t60 155l34 438h24q56 1 82 26t30 84l1 15h72z" />
    <glyph glyph-name="uni1EE8" unicode="&#x1ee8;" horiz-adv-x="724" 
d="M805 830l-1 -27q-5 -59 -38.5 -97t-90.5 -48l-31 -383q-11 -142 -85.5 -212.5t-209.5 -70.5q-132 0 -199 64t-67 185q0 24 1 37l34 427h81l-33 -426q-1 -11 -1 -32q0 -93 46 -139t140 -46q98 0 151 50t60 155l34 438h24q56 1 82 26t30 84l1 15h72zM431 765h-56l110 152
h94z" />
    <glyph glyph-name="uni1EF0" unicode="&#x1ef0;" horiz-adv-x="724" 
d="M805 830l-1 -27q-5 -59 -38.5 -97t-90.5 -48l-31 -383q-11 -142 -85.5 -212.5t-209.5 -70.5q-132 0 -199 64t-67 185q0 24 1 37l34 427h81l-33 -426q-1 -11 -1 -32q0 -93 46 -139t140 -46q98 0 151 50t60 155l34 438h24q56 1 82 26t30 84l1 15h72zM290 -94h92l-8 -88h-92
z" />
    <glyph glyph-name="uni1EEA" unicode="&#x1eea;" horiz-adv-x="724" 
d="M805 830l-1 -27q-5 -59 -38.5 -97t-90.5 -48l-31 -383q-11 -142 -85.5 -212.5t-209.5 -70.5q-132 0 -199 64t-67 185q0 24 1 37l34 427h81l-33 -426q-1 -11 -1 -32q0 -93 46 -139t140 -46q98 0 151 50t60 155l34 438h24q56 1 82 26t30 84l1 15h72zM375 765l-119 152h84
l91 -152h-56z" />
    <glyph glyph-name="uni1EEC" unicode="&#x1eec;" horiz-adv-x="724" 
d="M805 830l-1 -27q-5 -59 -38.5 -97t-90.5 -48l-31 -383q-11 -142 -85.5 -212.5t-209.5 -70.5q-132 0 -199 64t-67 185q0 24 1 37l34 427h81l-33 -426q-1 -11 -1 -32q0 -93 46 -139t140 -46q98 0 151 50t60 155l34 438h24q56 1 82 26t30 84l1 15h72zM430 765h-53l1 18
q1 17 13 27.5t32 20.5q14 6 21 12t7 13q0 8 -10 12.5t-28 4.5q-30 0 -63 -12l-11 44q38 16 81 16q45 0 70 -16t25 -43q0 -21 -13 -33t-37 -23q-18 -10 -25.5 -15.5t-8.5 -15.5z" />
    <glyph glyph-name="uni1EEE" unicode="&#x1eee;" horiz-adv-x="724" 
d="M805 830l-1 -27q-5 -59 -38.5 -97t-90.5 -48l-31 -383q-11 -142 -85.5 -212.5t-209.5 -70.5q-132 0 -199 64t-67 185q0 24 1 37l34 427h81l-33 -426q-1 -11 -1 -32q0 -93 46 -139t140 -46q98 0 151 50t60 155l34 438h24q56 1 82 26t30 84l1 15h72zM273.5 872
q26.5 29 68.5 29q20 0 38.5 -8.5t42.5 -24.5q19 -12 32 -18.5t24 -6.5q22 0 35.5 14.5t15.5 40.5h45q-3 -56 -30 -85.5t-69 -29.5q-20 0 -37.5 8.5t-43.5 24.5q-18 12 -31 18.5t-24 6.5q-22 0 -36 -14.5t-16 -40.5h-44q3 57 29.5 86z" />
    <glyph glyph-name="Uhungarumlaut" unicode="&#x170;" horiz-adv-x="724" 
d="M150 56q-67 64 -67 185q0 24 1 37l34 427h81l-33 -426q-1 -11 -1 -32q0 -93 46 -139t140 -46q98 0 151 50t60 155l34 438h82l-34 -430q-11 -142 -85.5 -212.5t-209.5 -70.5q-132 0 -199 64zM365 765h-44l82 152h73zM485 765h-44l81 152h74z" />
    <glyph glyph-name="uni0216" unicode="&#x216;" horiz-adv-x="724" 
d="M150 56q-67 64 -67 185q0 24 1 37l34 427h81l-33 -426q-1 -11 -1 -32q0 -93 46 -139t140 -46q98 0 151 50t60 155l34 438h82l-34 -430q-11 -142 -85.5 -212.5t-209.5 -70.5q-132 0 -199 64zM509.5 879q42.5 -27 59.5 -79l-53 -22q-19 39 -44.5 54.5t-62.5 15.5
q-36 0 -63.5 -15.5t-52.5 -54.5l-50 22q26 54 70 80t99 26t97.5 -27z" />
    <glyph glyph-name="Umacron" unicode="&#x16a;" horiz-adv-x="724" 
d="M150 56q-67 64 -67 185q0 24 1 37l34 427h81l-33 -426q-1 -11 -1 -32q0 -93 46 -139t140 -46q98 0 151 50t60 155l34 438h82l-34 -430q-11 -142 -85.5 -212.5t-209.5 -70.5q-132 0 -199 64zM257 811l5 61h299l-5 -61h-299z" />
    <glyph glyph-name="uni1E7A" unicode="&#x1e7a;" horiz-adv-x="724" 
d="M150 56q-67 64 -67 185q0 24 1 37l34 427h81l-33 -426q-1 -11 -1 -32q0 -93 46 -139t140 -46q98 0 151 50t60 155l34 438h82l-34 -430q-11 -142 -85.5 -212.5t-209.5 -70.5q-132 0 -199 64zM257 811l5 61h299l-5 -61h-299zM296 1045h89l-7 -86h-89zM467 1045h89l-7 -86
h-89z" />
    <glyph glyph-name="Uogonek" unicode="&#x172;" horiz-adv-x="724" 
d="M678 705l-34 -430q-17 -223 -192 -271q-43 -12 -64.5 -32.5t-21.5 -52.5q0 -29 15.5 -44t44.5 -15q25 0 59 17l13 -47q-16 -10 -39 -16.5t-45 -6.5q-51 0 -81.5 27.5t-30.5 71.5q0 55 42 86q-129 1 -195 64.5t-66 184.5q0 24 1 37l34 427h81l-33 -426q-1 -11 -1 -32
q0 -93 46 -139t140 -46q98 0 151 50t60 155l34 438h82z" />
    <glyph glyph-name="Uring" unicode="&#x16e;" horiz-adv-x="724" 
d="M150 56q-67 64 -67 185q0 24 1 37l34 427h81l-33 -426q-1 -11 -1 -32q0 -93 46 -139t140 -46q98 0 151 50t60 155l34 438h82l-34 -430q-11 -142 -85.5 -212.5t-209.5 -70.5q-132 0 -199 64zM338.5 788.5q-29.5 28.5 -29.5 70.5t29.5 70.5t71.5 28.5t71.5 -28.5
t29.5 -70.5t-29.5 -70.5t-71.5 -28.5t-71.5 28.5zM444.5 823.5q13.5 14.5 13.5 35.5t-13.5 35.5t-34.5 14.5t-34.5 -14.5t-13.5 -35.5t13.5 -35.5t34.5 -14.5t34.5 14.5z" />
    <glyph glyph-name="Utilde" unicode="&#x168;" horiz-adv-x="724" 
d="M150 56q-67 64 -67 185q0 24 1 37l34 427h81l-33 -426q-1 -11 -1 -32q0 -93 46 -139t140 -46q98 0 151 50t60 155l34 438h82l-34 -430q-11 -142 -85.5 -212.5t-209.5 -70.5q-132 0 -199 64zM273.5 872q26.5 29 68.5 29q20 0 38.5 -8.5t42.5 -24.5q19 -12 32 -18.5
t24 -6.5q22 0 35.5 14.5t15.5 40.5h45q-3 -56 -30 -85.5t-69 -29.5q-20 0 -37.5 8.5t-43.5 24.5q-18 12 -31 18.5t-24 6.5q-22 0 -36 -14.5t-16 -40.5h-44q3 57 29.5 86z" />
    <glyph glyph-name="uni1E78" unicode="&#x1e78;" horiz-adv-x="724" 
d="M150 56q-67 64 -67 185q0 24 1 37l34 427h81l-33 -426q-1 -11 -1 -32q0 -93 46 -139t140 -46q98 0 151 50t60 155l34 438h82l-34 -430q-11 -142 -85.5 -212.5t-209.5 -70.5q-132 0 -199 64zM273.5 872q26.5 29 68.5 29q20 0 38.5 -8.5t42.5 -24.5q19 -12 32 -18.5
t24 -6.5q22 0 35.5 14.5t15.5 40.5h45q-3 -56 -30 -85.5t-69 -29.5q-20 0 -37.5 8.5t-43.5 24.5q-18 12 -31 18.5t-24 6.5q-22 0 -36 -14.5t-16 -40.5h-44q3 57 29.5 86zM444 925h-56l110 152h94z" />
    <glyph glyph-name="V" unicode="V" horiz-adv-x="691" 
d="M640 705h85l-363 -705h-71l-253 705h86l211 -602z" />
    <glyph glyph-name="W" unicode="W" horiz-adv-x="1101" 
d="M1023 705h80l-301 -705h-70l-155 576l-247 -576h-69l-192 705h83l154 -589l251 589l62 -1l155 -589z" />
    <glyph glyph-name="Wacute" unicode="&#x1e82;" horiz-adv-x="1101" 
d="M1023 705h80l-301 -705h-70l-155 576l-247 -576h-69l-192 705h83l154 -589l251 589l62 -1l155 -589zM619 765h-56l110 152h94z" />
    <glyph glyph-name="Wcircumflex" unicode="&#x174;" horiz-adv-x="1101" 
d="M1023 705h80l-301 -705h-70l-155 576l-247 -576h-69l-192 705h83l154 -589l251 589l62 -1l155 -589zM519 765h-74l131 152h54l107 -152h-72l-63 103z" />
    <glyph glyph-name="Wdieresis" unicode="&#x1e84;" horiz-adv-x="1101" 
d="M1023 705h80l-301 -705h-70l-155 576l-247 -576h-69l-192 705h83l154 -589l251 589l62 -1l155 -589zM471 885h89l-7 -86h-89zM642 885h89l-7 -86h-89z" />
    <glyph glyph-name="Wgrave" unicode="&#x1e80;" horiz-adv-x="1101" 
d="M1023 705h80l-301 -705h-70l-155 576l-247 -576h-69l-192 705h83l154 -589l251 589l62 -1l155 -589zM563 765l-119 152h84l91 -152h-56z" />
    <glyph glyph-name="X" unicode="X" horiz-adv-x="646" 
d="M662 705l-283 -346l240 -359h-96l-194 298l-242 -298h-98l297 362l-229 343h96l184 -281l226 281h99z" />
    <glyph glyph-name="Y" unicode="Y" horiz-adv-x="601" 
d="M654 705l-306 -371l-26 -334h-82l26 333l-248 372h93l200 -303l248 303h95z" />
    <glyph glyph-name="Yacute" unicode="&#xdd;" horiz-adv-x="601" 
d="M654 705l-306 -371l-26 -334h-82l26 333l-248 372h93l200 -303l248 303h95zM369 765h-56l110 152h94z" />
    <glyph glyph-name="Ycircumflex" unicode="&#x176;" horiz-adv-x="601" 
d="M654 705l-306 -371l-26 -334h-82l26 333l-248 372h93l200 -303l248 303h95zM269 765h-74l131 152h54l107 -152h-72l-63 103z" />
    <glyph glyph-name="Ydieresis" unicode="&#x178;" horiz-adv-x="601" 
d="M654 705l-306 -371l-26 -334h-82l26 333l-248 372h93l200 -303l248 303h95zM221 885h89l-7 -86h-89zM392 885h89l-7 -86h-89z" />
    <glyph glyph-name="uni1E8E" unicode="&#x1e8e;" horiz-adv-x="601" 
d="M654 705l-306 -371l-26 -334h-82l26 333l-248 372h93l200 -303l248 303h95zM302 887h98l-7 -91h-99z" />
    <glyph glyph-name="uni1EF4" unicode="&#x1ef4;" horiz-adv-x="601" 
d="M654 705l-306 -371l-26 -334h-82l26 333l-248 372h93l200 -303l248 303h95zM228 -94h92l-8 -88h-92z" />
    <glyph glyph-name="Ygrave" unicode="&#x1ef2;" horiz-adv-x="601" 
d="M654 705l-306 -371l-26 -334h-82l26 333l-248 372h93l200 -303l248 303h95zM313 765l-119 152h84l91 -152h-56z" />
    <glyph glyph-name="uni1EF6" unicode="&#x1ef6;" horiz-adv-x="601" 
d="M654 705l-306 -371l-26 -334h-82l26 333l-248 372h93l200 -303l248 303h95zM368 765h-53l1 18q1 17 13 27.5t32 20.5q14 6 21 12t7 13q0 8 -10 12.5t-28 4.5q-30 0 -63 -12l-11 44q38 16 81 16q45 0 70 -16t25 -43q0 -21 -13 -33t-37 -23q-18 -10 -25.5 -15.5t-8.5 -15.5
z" />
    <glyph glyph-name="uni0232" unicode="&#x232;" horiz-adv-x="601" 
d="M654 705l-306 -371l-26 -334h-82l26 333l-248 372h93l200 -303l248 303h95zM195 811l5 61h299l-5 -61h-299z" />
    <glyph glyph-name="uni1EF8" unicode="&#x1ef8;" horiz-adv-x="601" 
d="M654 705l-306 -371l-26 -334h-82l26 333l-248 372h93l200 -303l248 303h95zM211.5 872q26.5 29 68.5 29q20 0 38.5 -8.5t42.5 -24.5q19 -12 32 -18.5t24 -6.5q22 0 35.5 14.5t15.5 40.5h45q-3 -56 -30 -85.5t-69 -29.5q-20 0 -37.5 8.5t-43.5 24.5q-18 12 -31 18.5
t-24 6.5q-22 0 -36 -14.5t-16 -40.5h-44q3 57 29.5 86z" />
    <glyph glyph-name="Z" unicode="Z" horiz-adv-x="590" 
d="M579 705l-5 -60l-445 -576h411l-6 -69h-508l4 61l445 575h-399l6 69h497z" />
    <glyph glyph-name="Zacute" unicode="&#x179;" horiz-adv-x="590" 
d="M579 705l-5 -60l-445 -576h411l-6 -69h-508l4 61l445 575h-399l6 69h497zM364 765h-56l110 152h94z" />
    <glyph glyph-name="Zcaron" unicode="&#x17d;" horiz-adv-x="590" 
d="M579 705l-5 -60l-445 -576h411l-6 -69h-508l4 61l445 575h-399l6 69h497zM420 917h74l-131 -152h-54l-107 152h73l66 -104z" />
    <glyph glyph-name="Zdotaccent" unicode="&#x17b;" horiz-adv-x="590" 
d="M579 705l-5 -60l-445 -576h411l-6 -69h-508l4 61l445 575h-399l6 69h497zM297 887h98l-7 -91h-99z" />
    <glyph glyph-name="uni1E92" unicode="&#x1e92;" horiz-adv-x="590" 
d="M579 705l-5 -60l-445 -576h411l-6 -69h-508l4 61l445 575h-399l6 69h497zM227 -94h92l-8 -88h-92z" />
    <glyph glyph-name="Iacute_J.loclNLD" horiz-adv-x="582" 
d="M68 0l55 705h82l-55 -705h-82zM197 765h-56l110 152h94zM233 62l59 4q107 8 116 125l41 514h82l-40 -515q-15 -181 -193 -193l-62 -4zM523 765h-56l110 152h94z" />
    <glyph glyph-name="a" unicode="a" horiz-adv-x="530" 
d="M463 333q0 -18 -1 -28l-24 -305h-79l6 78q-22 -42 -60.5 -63.5t-87.5 -21.5q-73 0 -119.5 39.5t-46.5 100.5q0 55 29 87.5t93 47.5t173 15h36l2 29l1 19q0 52 -25 76.5t-79 24.5q-82 0 -165 -52l-22 60q37 26 91 42.5t105 16.5q173 0 173 -166zM331 97q40 40 44 103l2 31
h-28q-88 0 -134.5 -9.5t-64 -28.5t-17.5 -53q0 -38 27 -60.5t74 -22.5q57 0 97 40z" />
    <glyph glyph-name="aacute" unicode="&#xe1;" horiz-adv-x="530" 
d="M463 333q0 -18 -1 -28l-24 -305h-79l6 78q-22 -42 -60.5 -63.5t-87.5 -21.5q-73 0 -119.5 39.5t-46.5 100.5q0 55 29 87.5t93 47.5t173 15h36l2 29l1 19q0 52 -25 76.5t-79 24.5q-82 0 -165 -52l-22 60q37 26 91 42.5t105 16.5q173 0 173 -166zM331 97q40 40 44 103l2 31
h-28q-88 0 -134.5 -9.5t-64 -28.5t-17.5 -53q0 -38 27 -60.5t74 -22.5q57 0 97 40zM326 551h-56l113 202h97z" />
    <glyph glyph-name="abreve" unicode="&#x103;" horiz-adv-x="530" 
d="M463 333q0 -18 -1 -28l-24 -305h-79l6 78q-22 -42 -60.5 -63.5t-87.5 -21.5q-73 0 -119.5 39.5t-46.5 100.5q0 55 29 87.5t93 47.5t173 15h36l2 29l1 19q0 52 -25 76.5t-79 24.5q-82 0 -165 -52l-22 60q37 26 91 42.5t105 16.5q173 0 173 -166zM331 97q40 40 44 103l2 31
h-28q-88 0 -134.5 -9.5t-64 -28.5t-17.5 -53q0 -38 27 -60.5t74 -22.5q57 0 97 40zM205 612.5q-42 31.5 -59 95.5l52 21q34 -88 108 -88q36 0 65.5 20t54.5 68l49 -21q-25 -65 -71 -96t-102 -31q-55 0 -97 31.5z" />
    <glyph glyph-name="uni1EAF" unicode="&#x1eaf;" horiz-adv-x="530" 
d="M463 333q0 -18 -1 -28l-24 -305h-79l6 78q-22 -42 -60.5 -63.5t-87.5 -21.5q-73 0 -119.5 39.5t-46.5 100.5q0 55 29 87.5t93 47.5t173 15h36l2 29l1 19q0 52 -25 76.5t-79 24.5q-82 0 -165 -52l-22 60q37 26 91 42.5t105 16.5q173 0 173 -166zM331 97q40 40 44 103l2 31
h-28q-88 0 -134.5 -9.5t-64 -28.5t-17.5 -53q0 -38 27 -60.5t74 -22.5q57 0 97 40zM333 654h-53l107 142h91zM203.5 572.5q-41.5 26.5 -60.5 79.5l49 20q19 -39 46.5 -55t65.5 -16q36 0 65 16t54 55l46 -20q-26 -55 -70.5 -80.5t-98.5 -25.5q-55 0 -96.5 26.5z" />
    <glyph glyph-name="uni1EB7" unicode="&#x1eb7;" horiz-adv-x="530" 
d="M463 333q0 -18 -1 -28l-24 -305h-79l6 78q-22 -42 -60.5 -63.5t-87.5 -21.5q-73 0 -119.5 39.5t-46.5 100.5q0 55 29 87.5t93 47.5t173 15h36l2 29l1 19q0 52 -25 76.5t-79 24.5q-82 0 -165 -52l-22 60q37 26 91 42.5t105 16.5q173 0 173 -166zM331 97q40 40 44 103l2 31
h-28q-88 0 -134.5 -9.5t-64 -28.5t-17.5 -53q0 -38 27 -60.5t74 -22.5q57 0 97 40zM199 -94h92l-8 -88h-92zM205 612.5q-42 31.5 -59 95.5l52 21q34 -88 108 -88q36 0 65.5 20t54.5 68l49 -21q-25 -65 -71 -96t-102 -31q-55 0 -97 31.5z" />
    <glyph glyph-name="uni1EB1" unicode="&#x1eb1;" horiz-adv-x="530" 
d="M463 333q0 -18 -1 -28l-24 -305h-79l6 78q-22 -42 -60.5 -63.5t-87.5 -21.5q-73 0 -119.5 39.5t-46.5 100.5q0 55 29 87.5t93 47.5t173 15h36l2 29l1 19q0 52 -25 76.5t-79 24.5q-82 0 -165 -52l-22 60q37 26 91 42.5t105 16.5q173 0 173 -166zM331 97q40 40 44 103l2 31
h-28q-88 0 -134.5 -9.5t-64 -28.5t-17.5 -53q0 -38 27 -60.5t74 -22.5q57 0 97 40zM280 654l-119 142h81l91 -142h-53zM203.5 572.5q-41.5 26.5 -60.5 79.5l49 20q19 -39 46.5 -55t65.5 -16q36 0 65 16t54 55l46 -20q-26 -55 -70.5 -80.5t-98.5 -25.5q-55 0 -96.5 26.5z" />
    <glyph glyph-name="uni1EB3" unicode="&#x1eb3;" horiz-adv-x="530" 
d="M463 333q0 -18 -1 -28l-24 -305h-79l6 78q-22 -42 -60.5 -63.5t-87.5 -21.5q-73 0 -119.5 39.5t-46.5 100.5q0 55 29 87.5t93 47.5t173 15h36l2 29l1 19q0 52 -25 76.5t-79 24.5q-82 0 -165 -52l-22 60q37 26 91 42.5t105 16.5q173 0 173 -166zM331 97q40 40 44 103l2 31
h-28q-88 0 -134.5 -9.5t-64 -28.5t-17.5 -53q0 -38 27 -60.5t74 -22.5q57 0 97 40zM281 671q1 18 13.5 27t33.5 18q14 6 20 10t6 11q0 16 -36 16q-29 0 -66 -11l-10 43q40 16 82 16q44 0 69 -16t25 -41q0 -21 -13 -32t-36 -21q-16 -6 -25 -12t-10 -16l-1 -9h-53z
M203.5 572.5q-41.5 26.5 -60.5 79.5l49 20q19 -39 46.5 -55t65.5 -16q36 0 65 16t54 55l46 -20q-26 -55 -70.5 -80.5t-98.5 -25.5q-55 0 -96.5 26.5z" />
    <glyph glyph-name="uni1EB5" unicode="&#x1eb5;" horiz-adv-x="530" 
d="M463 333q0 -18 -1 -28l-24 -305h-79l6 78q-22 -42 -60.5 -63.5t-87.5 -21.5q-73 0 -119.5 39.5t-46.5 100.5q0 55 29 87.5t93 47.5t173 15h36l2 29l1 19q0 52 -25 76.5t-79 24.5q-82 0 -165 -52l-22 60q37 26 91 42.5t105 16.5q173 0 173 -166zM331 97q40 40 44 103l2 31
h-28q-88 0 -134.5 -9.5t-64 -28.5t-17.5 -53q0 -38 27 -60.5t74 -22.5q57 0 97 40zM344.5 705.5q-18.5 7.5 -43.5 21.5q-21 12 -33.5 17.5t-24.5 5.5q-21 0 -34.5 -13t-14.5 -36h-45q2 49 29 76t67 27q20 0 38.5 -7.5t43.5 -21.5q20 -11 33.5 -17t25.5 -6q21 0 34 13t14 36
h45q-2 -49 -29 -76t-67 -27q-20 0 -38.5 7.5zM203.5 572.5q-41.5 26.5 -60.5 79.5l49 20q19 -39 46.5 -55t65.5 -16q36 0 65 16t54 55l46 -20q-26 -55 -70.5 -80.5t-98.5 -25.5q-55 0 -96.5 26.5z" />
    <glyph glyph-name="uni01CE" unicode="&#x1ce;" horiz-adv-x="530" 
d="M463 333q0 -18 -1 -28l-24 -305h-79l6 78q-22 -42 -60.5 -63.5t-87.5 -21.5q-73 0 -119.5 39.5t-46.5 100.5q0 55 29 87.5t93 47.5t173 15h36l2 29l1 19q0 52 -25 76.5t-79 24.5q-82 0 -165 -52l-22 60q37 26 91 42.5t105 16.5q173 0 173 -166zM331 97q40 40 44 103l2 31
h-28q-88 0 -134.5 -9.5t-64 -28.5t-17.5 -53q0 -38 27 -60.5t74 -22.5q57 0 97 40zM384 753h76l-133 -202h-57l-102 202h73l61 -143z" />
    <glyph glyph-name="acircumflex" unicode="&#xe2;" horiz-adv-x="530" 
d="M463 333q0 -18 -1 -28l-24 -305h-79l6 78q-22 -42 -60.5 -63.5t-87.5 -21.5q-73 0 -119.5 39.5t-46.5 100.5q0 55 29 87.5t93 47.5t173 15h36l2 29l1 19q0 52 -25 76.5t-79 24.5q-82 0 -165 -52l-22 60q37 26 91 42.5t105 16.5q173 0 173 -166zM331 97q40 40 44 103l2 31
h-28q-88 0 -134.5 -9.5t-64 -28.5t-17.5 -53q0 -38 27 -60.5t74 -22.5q57 0 97 40zM228 551h-76l134 202h57l101 -202h-72l-62 143z" />
    <glyph glyph-name="uni1EA5" unicode="&#x1ea5;" horiz-adv-x="530" 
d="M463 333q0 -18 -1 -28l-24 -305h-79l6 78q-22 -42 -60.5 -63.5t-87.5 -21.5q-73 0 -119.5 39.5t-46.5 100.5q0 55 29 87.5t93 47.5t173 15h36l2 29l1 19q0 52 -25 76.5t-79 24.5q-82 0 -165 -52l-22 60q37 26 91 42.5t105 16.5q173 0 173 -166zM331 97q40 40 44 103l2 31
h-28q-88 0 -134.5 -9.5t-64 -28.5t-17.5 -53q0 -38 27 -60.5t74 -22.5q57 0 97 40zM440 654h-49l100 142h89zM226 551h-74l131 147h54l107 -147h-71l-65 99z" />
    <glyph glyph-name="uni1EAD" unicode="&#x1ead;" horiz-adv-x="530" 
d="M463 333q0 -18 -1 -28l-24 -305h-79l6 78q-22 -42 -60.5 -63.5t-87.5 -21.5q-73 0 -119.5 39.5t-46.5 100.5q0 55 29 87.5t93 47.5t173 15h36l2 29l1 19q0 52 -25 76.5t-79 24.5q-82 0 -165 -52l-22 60q37 26 91 42.5t105 16.5q173 0 173 -166zM331 97q40 40 44 103l2 31
h-28q-88 0 -134.5 -9.5t-64 -28.5t-17.5 -53q0 -38 27 -60.5t74 -22.5q57 0 97 40zM199 -94h92l-8 -88h-92zM228 551h-76l134 202h57l101 -202h-72l-62 143z" />
    <glyph glyph-name="uni1EA7" unicode="&#x1ea7;" horiz-adv-x="530" 
d="M463 333q0 -18 -1 -28l-24 -305h-79l6 78q-22 -42 -60.5 -63.5t-87.5 -21.5q-73 0 -119.5 39.5t-46.5 100.5q0 55 29 87.5t93 47.5t173 15h36l2 29l1 19q0 52 -25 76.5t-79 24.5q-82 0 -165 -52l-22 60q37 26 91 42.5t105 16.5q173 0 173 -166zM331 97q40 40 44 103l2 31
h-28q-88 0 -134.5 -9.5t-64 -28.5t-17.5 -53q0 -38 27 -60.5t74 -22.5q57 0 97 40zM434 654l-99 142h80l68 -142h-49zM152 551l131 147h54l107 -147h-71l-65 99l-82 -99h-74z" />
    <glyph glyph-name="uni1EA9" unicode="&#x1ea9;" horiz-adv-x="530" 
d="M463 333q0 -18 -1 -28l-24 -305h-79l6 78q-22 -42 -60.5 -63.5t-87.5 -21.5q-73 0 -119.5 39.5t-46.5 100.5q0 55 29 87.5t93 47.5t173 15h36l2 29l1 19q0 52 -25 76.5t-79 24.5q-82 0 -165 -52l-22 60q37 26 91 42.5t105 16.5q173 0 173 -166zM331 97q40 40 44 103l2 31
h-28q-88 0 -134.5 -9.5t-64 -28.5t-17.5 -53q0 -38 27 -60.5t74 -22.5q57 0 97 40zM391 671q1 18 13.5 27.5t33.5 17.5q14 6 20 10t6 11q0 16 -36 16q-29 0 -66 -11l-10 43q40 16 82 16q44 0 69 -16t25 -41q0 -21 -13 -32t-36 -21q-16 -6 -25 -12t-10 -16l-1 -9h-53z
M152 551l131 147h54l107 -147h-71l-65 99l-82 -99h-74z" />
    <glyph glyph-name="uni1EAB" unicode="&#x1eab;" horiz-adv-x="530" 
d="M463 333q0 -18 -1 -28l-24 -305h-79l6 78q-22 -42 -60.5 -63.5t-87.5 -21.5q-73 0 -119.5 39.5t-46.5 100.5q0 55 29 87.5t93 47.5t173 15h36l2 29l1 19q0 52 -25 76.5t-79 24.5q-82 0 -165 -52l-22 60q37 26 91 42.5t105 16.5q173 0 173 -166zM331 97q40 40 44 103l2 31
h-28q-88 0 -134.5 -9.5t-64 -28.5t-17.5 -53q0 -38 27 -60.5t74 -22.5q57 0 97 40zM179 785.5q27 26.5 67 26.5q21 0 38.5 -6t45.5 -18q19 -9 32 -14t25 -5q21 0 34 12t14 32h45q-1 -45 -28.5 -71.5t-67.5 -26.5q-21 0 -37.5 5.5t-45.5 18.5q-19 9 -32 14t-26 5
q-21 0 -34 -13t-14 -32h-45q2 46 29 72.5zM152 551l131 147h54l107 -147h-71l-65 99l-82 -99h-74z" />
    <glyph glyph-name="uni0201" unicode="&#x201;" horiz-adv-x="530" 
d="M463 333q0 -18 -1 -28l-24 -305h-79l6 78q-22 -42 -60.5 -63.5t-87.5 -21.5q-73 0 -119.5 39.5t-46.5 100.5q0 55 29 87.5t93 47.5t173 15h36l2 29l1 19q0 52 -25 76.5t-79 24.5q-82 0 -165 -52l-22 60q37 26 91 42.5t105 16.5q173 0 173 -166zM331 97q40 40 44 103l2 31
h-28q-88 0 -134.5 -9.5t-64 -28.5t-17.5 -53q0 -38 27 -60.5t74 -22.5q57 0 97 40zM217 551l-61 202h72l30 -202h-41zM338 551l-61 202h71l31 -202h-41z" />
    <glyph glyph-name="adieresis" unicode="&#xe4;" horiz-adv-x="530" 
d="M463 333q0 -18 -1 -28l-24 -305h-79l6 78q-22 -42 -60.5 -63.5t-87.5 -21.5q-73 0 -119.5 39.5t-46.5 100.5q0 55 29 87.5t93 47.5t173 15h36l2 29l1 19q0 52 -25 76.5t-79 24.5q-82 0 -165 -52l-22 60q37 26 91 42.5t105 16.5q173 0 173 -166zM331 97q40 40 44 103l2 31
h-28q-88 0 -134.5 -9.5t-64 -28.5t-17.5 -53q0 -38 27 -60.5t74 -22.5q57 0 97 40zM180 695h89l-7 -85h-89zM351 695h89l-7 -85h-89z" />
    <glyph glyph-name="uni0227" unicode="&#x227;" horiz-adv-x="530" 
d="M463 333q0 -18 -1 -28l-24 -305h-79l6 78q-22 -42 -60.5 -63.5t-87.5 -21.5q-73 0 -119.5 39.5t-46.5 100.5q0 55 29 87.5t93 47.5t173 15h36l2 29l1 19q0 52 -25 76.5t-79 24.5q-82 0 -165 -52l-22 60q37 26 91 42.5t105 16.5q173 0 173 -166zM331 97q40 40 44 103l2 31
h-28q-88 0 -134.5 -9.5t-64 -28.5t-17.5 -53q0 -38 27 -60.5t74 -22.5q57 0 97 40zM261 698h98l-7 -91h-99z" />
    <glyph glyph-name="uni1EA1" unicode="&#x1ea1;" horiz-adv-x="530" 
d="M463 333q0 -18 -1 -28l-24 -305h-79l6 78q-22 -42 -60.5 -63.5t-87.5 -21.5q-73 0 -119.5 39.5t-46.5 100.5q0 55 29 87.5t93 47.5t173 15h36l2 29l1 19q0 52 -25 76.5t-79 24.5q-82 0 -165 -52l-22 60q37 26 91 42.5t105 16.5q173 0 173 -166zM331 97q40 40 44 103l2 31
h-28q-88 0 -134.5 -9.5t-64 -28.5t-17.5 -53q0 -38 27 -60.5t74 -22.5q57 0 97 40zM199 -94h92l-8 -88h-92z" />
    <glyph glyph-name="agrave" unicode="&#xe0;" horiz-adv-x="530" 
d="M463 333q0 -18 -1 -28l-24 -305h-79l6 78q-22 -42 -60.5 -63.5t-87.5 -21.5q-73 0 -119.5 39.5t-46.5 100.5q0 55 29 87.5t93 47.5t173 15h36l2 29l1 19q0 52 -25 76.5t-79 24.5q-82 0 -165 -52l-22 60q37 26 91 42.5t105 16.5q173 0 173 -166zM331 97q40 40 44 103l2 31
h-28q-88 0 -134.5 -9.5t-64 -28.5t-17.5 -53q0 -38 27 -60.5t74 -22.5q57 0 97 40zM270 551l-117 202h87l86 -202h-56z" />
    <glyph glyph-name="uni1EA3" unicode="&#x1ea3;" horiz-adv-x="530" 
d="M463 333q0 -18 -1 -28l-24 -305h-79l6 78q-22 -42 -60.5 -63.5t-87.5 -21.5q-73 0 -119.5 39.5t-46.5 100.5q0 55 29 87.5t93 47.5t173 15h36l2 29l1 19q0 52 -25 76.5t-79 24.5q-82 0 -165 -52l-22 60q37 26 91 42.5t105 16.5q173 0 173 -166zM331 97q40 40 44 103l2 31
h-28q-88 0 -134.5 -9.5t-64 -28.5t-17.5 -53q0 -38 27 -60.5t74 -22.5q57 0 97 40zM327 551h-53l2 27q2 21 13.5 36t30.5 31q15 14 21.5 22t6.5 17q0 11 -10 17t-29 6q-21 0 -60 -11l-11 46q39 15 83 15q42 0 67.5 -18t25.5 -47q0 -23 -12 -38t-34 -32q-21 -16 -30 -27
t-10 -27z" />
    <glyph glyph-name="uni0203" unicode="&#x203;" horiz-adv-x="530" 
d="M463 333q0 -18 -1 -28l-24 -305h-79l6 78q-22 -42 -60.5 -63.5t-87.5 -21.5q-73 0 -119.5 39.5t-46.5 100.5q0 55 29 87.5t93 47.5t173 15h36l2 29l1 19q0 52 -25 76.5t-79 24.5q-82 0 -165 -52l-22 60q37 26 91 42.5t105 16.5q173 0 173 -166zM331 97q40 40 44 103l2 31
h-28q-88 0 -134.5 -9.5t-64 -28.5t-17.5 -53q0 -38 27 -60.5t74 -22.5q57 0 97 40zM407.5 696.5q42.5 -31.5 59.5 -94.5l-52 -22q-34 88 -109 88q-36 0 -65.5 -20t-53.5 -68l-50 21q26 65 71.5 96t101.5 31q55 0 97.5 -31.5z" />
    <glyph glyph-name="amacron" unicode="&#x101;" horiz-adv-x="530" 
d="M463 333q0 -18 -1 -28l-24 -305h-79l6 78q-22 -42 -60.5 -63.5t-87.5 -21.5q-73 0 -119.5 39.5t-46.5 100.5q0 55 29 87.5t93 47.5t173 15h36l2 29l1 19q0 52 -25 76.5t-79 24.5q-82 0 -165 -52l-22 60q37 26 91 42.5t105 16.5q173 0 173 -166zM331 97q40 40 44 103l2 31
h-28q-88 0 -134.5 -9.5t-64 -28.5t-17.5 -53q0 -38 27 -60.5t74 -22.5q57 0 97 40zM154 622l5 61h299l-5 -61h-299z" />
    <glyph glyph-name="aogonek" unicode="&#x105;" horiz-adv-x="530" 
d="M469 -170q-16 -10 -39 -16.5t-45 -6.5q-51 0 -81.5 27.5t-30.5 71.5q0 41 23.5 72t64.5 46l4 54q-22 -42 -60.5 -63.5t-88.5 -21.5q-72 0 -118.5 39.5t-46.5 100.5q0 55 29 87.5t93 47.5t173 15h36l2 29l1 19q0 52 -25 76.5t-79 24.5q-82 0 -165 -52l-22 60
q37 26 91 42.5t105 16.5q173 0 173 -166q0 -18 -1 -28l-24 -305h-9q-40 0 -66 -22t-26 -59q0 -29 16 -44t44 -15q26 0 60 17zM331 97q40 40 44 103l2 31h-28q-88 0 -134.5 -9.5t-64 -29t-17.5 -53.5q0 -37 27 -59.5t74 -22.5q57 0 97 40z" />
    <glyph glyph-name="aring" unicode="&#xe5;" horiz-adv-x="530" 
d="M463 333q0 -18 -1 -28l-24 -305h-79l6 78q-22 -42 -60.5 -63.5t-87.5 -21.5q-73 0 -119.5 39.5t-46.5 100.5q0 55 29 87.5t93 47.5t173 15h36l2 29l1 19q0 52 -25 76.5t-79 24.5q-82 0 -165 -52l-22 60q37 26 91 42.5t105 16.5q173 0 173 -166zM331 97q40 40 44 103l2 31
h-28q-88 0 -134.5 -9.5t-64 -28.5t-17.5 -53q0 -38 27 -60.5t74 -22.5q57 0 97 40zM234.5 581.5q-29.5 28.5 -29.5 70.5t29.5 70.5t71.5 28.5t71.5 -28.5t29.5 -70.5t-29.5 -70.5t-71.5 -28.5t-71.5 28.5zM340.5 616.5q13.5 14.5 13.5 35.5t-13.5 35.5t-34.5 14.5
t-34.5 -14.5t-13.5 -35.5t13.5 -35.5t34.5 -14.5t34.5 14.5z" />
    <glyph glyph-name="aringacute" unicode="&#x1fb;" horiz-adv-x="530" 
d="M234 582q-29 28 -29 69q0 43 30 72t73 29q40 0 67 -25l49 92l76 31l-63 -111l-48 -26q18 -26 18 -56q0 -43 -29.5 -73t-73.5 -30q-41 0 -70 28zM271.5 617q13.5 -14 33.5 -14q21 0 35 14.5t14 35.5q1 21 -12.5 35.5t-34.5 14.5t-35 -15t-14 -37q0 -20 13.5 -34zM463 333
q0 -18 -1 -28l-24 -305h-79l6 78q-22 -42 -60.5 -63.5t-87.5 -21.5q-73 0 -119.5 39.5t-46.5 100.5q0 55 29 87.5t93 47.5t173 15h36l2 29l1 19q0 52 -25 76.5t-79 24.5q-82 0 -165 -52l-22 60q37 26 91 42.5t105 16.5q173 0 173 -166zM331 97q40 40 44 103l2 31h-28
q-88 0 -134.5 -9.5t-64 -29t-17.5 -53.5q0 -37 27 -59.5t74 -22.5q57 0 97 40z" />
    <glyph glyph-name="atilde" unicode="&#xe3;" horiz-adv-x="530" 
d="M463 333q0 -18 -1 -28l-24 -305h-79l6 78q-22 -42 -60.5 -63.5t-87.5 -21.5q-73 0 -119.5 39.5t-46.5 100.5q0 55 29 87.5t93 47.5t173 15h36l2 29l1 19q0 52 -25 76.5t-79 24.5q-82 0 -165 -52l-22 60q37 26 91 42.5t105 16.5q173 0 173 -166zM331 97q40 40 44 103l2 31
h-28q-88 0 -134.5 -9.5t-64 -28.5t-17.5 -53q0 -38 27 -60.5t74 -22.5q57 0 97 40zM170.5 683q26.5 29 67.5 29q20 0 37 -7.5t45 -24.5q19 -12 32 -18.5t25 -6.5q22 0 35 14t15 40h45q-3 -56 -29.5 -85t-67.5 -29q-21 0 -39.5 8.5t-42.5 24.5q-21 13 -33 18.5t-23 5.5
q-22 0 -36 -14.5t-16 -39.5h-44q3 56 29.5 85z" />
    <glyph glyph-name="ae" unicode="&#xe6;" horiz-adv-x="853" 
d="M459 231v-4q0 -80 39.5 -124t115.5 -44q38 0 77.5 14.5t74.5 42.5l22 -60q-29 -28 -79.5 -45.5t-97.5 -17.5q-75 0 -126 32t-75 92q-25 -59 -75 -91.5t-115 -32.5q-75 0 -122 39t-47 101q0 55 29 87.5t93 47.5t173 15h38l2 29q1 7 1 21q0 50 -25.5 74.5t-78.5 24.5
q-84 0 -167 -52l-22 60q37 26 91 42.5t106 16.5q119 0 155 -81q30 39 73.5 60t98.5 21q90 0 142.5 -56t52.5 -163q0 -23 -3 -49h-351zM514 396.5q-40 -39.5 -51 -113.5h278q3 75 -30 114t-91 39q-66 0 -106 -39.5zM331.5 98.5q40.5 41.5 46.5 107.5l2 25h-31
q-88 0 -134.5 -9.5t-64 -29t-17.5 -53.5q0 -37 27 -59.5t72 -22.5q59 0 99.5 41.5z" />
    <glyph glyph-name="aeacute" unicode="&#x1fd;" horiz-adv-x="853" 
d="M459 231v-4q0 -80 39.5 -124t115.5 -44q38 0 77.5 14.5t74.5 42.5l22 -60q-29 -28 -79.5 -45.5t-97.5 -17.5q-75 0 -126 32t-75 92q-25 -59 -75 -91.5t-115 -32.5q-75 0 -122 39t-47 101q0 55 29 87.5t93 47.5t173 15h38l2 29q1 7 1 21q0 50 -25.5 74.5t-78.5 24.5
q-84 0 -167 -52l-22 60q37 26 91 42.5t106 16.5q119 0 155 -81q30 39 73.5 60t98.5 21q90 0 142.5 -56t52.5 -163q0 -23 -3 -49h-351zM514 396.5q-40 -39.5 -51 -113.5h278q3 75 -30 114t-91 39q-66 0 -106 -39.5zM331.5 98.5q40.5 41.5 46.5 107.5l2 25h-31
q-88 0 -134.5 -9.5t-64 -29t-17.5 -53.5q0 -37 27 -59.5t72 -22.5q59 0 99.5 41.5zM473 551h-56l113 202h97z" />
    <glyph glyph-name="b" unicode="b" horiz-adv-x="582" 
d="M438 470q47 -29 73 -82.5t26 -124.5q0 -80 -28.5 -141.5t-80.5 -95t-120 -33.5q-57 0 -100 25t-64 70l-7 -88h-81l56 705h81l-23 -290q25 39 67.5 61.5t92.5 22.5q61 0 108 -29zM413 114q41 54 41 149q0 80 -38 124.5t-107 44.5q-72 0 -113 -54.5t-41 -149.5
q0 -82 37.5 -125t108.5 -43t112 54z" />
    <glyph glyph-name="c" unicode="c" horiz-adv-x="479" 
d="M152.5 22q-51.5 29 -79 82.5t-27.5 123.5q0 82 30 143t86 94.5t132 33.5q53 0 98.5 -17t78.5 -47l-31 -60q-37 29 -72 42.5t-74 13.5q-78 0 -121 -54t-43 -150q0 -79 39 -123t110 -44q38 0 71 13.5t69 42.5l23 -60q-32 -30 -76.5 -46.5t-93.5 -16.5q-68 0 -119.5 29z" />
    <glyph glyph-name="cacute" unicode="&#x107;" horiz-adv-x="479" 
d="M152.5 22q-51.5 29 -79 82.5t-27.5 123.5q0 82 30 143t86 94.5t132 33.5q53 0 98.5 -17t78.5 -47l-31 -60q-37 29 -72 42.5t-74 13.5q-78 0 -121 -54t-43 -150q0 -79 39 -123t110 -44q38 0 71 13.5t69 42.5l23 -60q-32 -30 -76.5 -46.5t-93.5 -16.5q-68 0 -119.5 29z
M332 551h-56l113 202h97z" />
    <glyph glyph-name="ccaron" unicode="&#x10d;" horiz-adv-x="479" 
d="M152.5 22q-51.5 29 -79 82.5t-27.5 123.5q0 82 30 143t86 94.5t132 33.5q53 0 98.5 -17t78.5 -47l-31 -60q-37 29 -72 42.5t-74 13.5q-78 0 -121 -54t-43 -150q0 -79 39 -123t110 -44q38 0 71 13.5t69 42.5l23 -60q-32 -30 -76.5 -46.5t-93.5 -16.5q-68 0 -119.5 29z
M390 753h76l-133 -202h-57l-102 202h73l61 -143z" />
    <glyph glyph-name="ccedilla" unicode="&#xe7;" horiz-adv-x="479" 
d="M367 10.5q-44 -16.5 -92 -17.5l-7 -35q6 1 19 1q34 0 54.5 -17.5t20.5 -49.5q0 -38 -31 -61.5t-86 -23.5q-22 0 -47 5t-43 14l14 43q39 -14 76 -14q27 0 42 9t15 26q0 13 -9 20t-26 7q-21 0 -44 -9l-18 16l15 74q-81 16 -127.5 77t-46.5 153q0 82 30 143t86 94.5
t132 33.5q53 0 98.5 -17t78.5 -47l-31 -60q-37 29 -72 42.5t-74 13.5q-78 0 -121 -54t-43 -150q0 -79 39 -123t110 -44q38 0 71 13.5t69 42.5l23 -60q-31 -29 -75 -45.5z" />
    <glyph glyph-name="uni1E09" unicode="&#x1e09;" horiz-adv-x="479" 
d="M486 753l-154 -202h-56l113 202h97zM173 377q-43 -54 -43 -150q0 -79 39 -123t110 -44q38 0 71 13.5t69 42.5l23 -60q-31 -29 -75 -45.5t-92 -17.5l-7 -35q6 1 19 1q34 0 54.5 -17.5t20.5 -49.5q0 -38 -31 -61.5t-86 -23.5q-22 0 -47 5t-43 14l14 43q39 -14 76 -14
q27 0 42 9t15 26q0 13 -9 20t-26 7q-21 0 -44 -9l-18 16l15 74q-81 16 -127.5 77t-46.5 153q0 82 30 143t86 94.5t132 33.5q53 0 98.5 -17t78.5 -47l-31 -60q-37 29 -72 42.5t-74 13.5q-78 0 -121 -54z" />
    <glyph glyph-name="ccircumflex" unicode="&#x109;" horiz-adv-x="479" 
d="M152.5 22q-51.5 29 -79 82.5t-27.5 123.5q0 82 30 143t86 94.5t132 33.5q53 0 98.5 -17t78.5 -47l-31 -60q-37 29 -72 42.5t-74 13.5q-78 0 -121 -54t-43 -150q0 -79 39 -123t110 -44q38 0 71 13.5t69 42.5l23 -60q-32 -30 -76.5 -46.5t-93.5 -16.5q-68 0 -119.5 29z
M234 551h-76l134 202h57l101 -202h-72l-62 143z" />
    <glyph glyph-name="cdotaccent" unicode="&#x10b;" horiz-adv-x="479" 
d="M152.5 22q-51.5 29 -79 82.5t-27.5 123.5q0 82 30 143t86 94.5t132 33.5q53 0 98.5 -17t78.5 -47l-31 -60q-37 29 -72 42.5t-74 13.5q-78 0 -121 -54t-43 -150q0 -79 39 -123t110 -44q38 0 71 13.5t69 42.5l23 -60q-32 -30 -76.5 -46.5t-93.5 -16.5q-68 0 -119.5 29z
M267 698h98l-7 -91h-99z" />
    <glyph glyph-name="d" unicode="d" horiz-adv-x="582" 
d="M543 705l-56 -705h-80l6 76q-25 -39 -67.5 -61t-92.5 -22q-61 0 -108 28.5t-73 81.5t-26 124q0 81 28.5 142.5t80.5 95.5t120 34q57 0 99.5 -25t63.5 -69l24 300h81zM387 114.5q41 54.5 41 148.5q0 82 -37.5 125.5t-108.5 43.5t-112.5 -54t-41.5 -148q0 -81 38.5 -125.5
t107.5 -44.5q72 0 113 54.5z" />
    <glyph glyph-name="eth" unicode="&#xf0;" horiz-adv-x="559" 
d="M435 579q83 -103 83 -258q0 -167 -66.5 -247.5t-181.5 -80.5q-103 0 -164.5 59t-61.5 158q0 73 29.5 128.5t82.5 86t122 30.5q57 0 99 -21t65 -60q-9 105 -78 180l-166 -58l-13 51l134 47q-53 39 -130 60l25 58q109 -28 182 -92l131 46l13 -51zM385.5 109
q40.5 49 40.5 135q0 67 -38.5 106t-106.5 39q-73 0 -114 -49t-41 -132q0 -71 37.5 -109.5t107.5 -38.5q74 0 114.5 49z" />
    <glyph glyph-name="dcaron" unicode="&#x10f;" horiz-adv-x="582" 
d="M462 705h81l-56 -705h-80l6 76q-25 -39 -67.5 -61t-92.5 -22q-61 0 -108 28.5t-73 81.5t-26 124q0 81 28.5 142.5t80.5 95.5t120 34q57 0 99.5 -25t63.5 -69zM576 705h64l-40 -190h-39zM387 114.5q41 54.5 41 148.5q0 82 -37.5 125.5t-108.5 43.5t-112.5 -54t-41.5 -148
q0 -81 38.5 -125.5t107.5 -44.5q72 0 113 54.5z" />
    <glyph glyph-name="dcroat" unicode="&#x111;" horiz-adv-x="582" 
d="M623 555h-92l-43 -555h-81l7 77q-25 -39 -68 -61.5t-93 -22.5q-61 0 -108 29t-73 83t-26 126q0 78 28.5 139t80.5 95t120 34q57 0 99.5 -25t63.5 -69l12 150h-193l5 61h193l7 89h81l-7 -89h92zM387 114.5q41 54.5 41 151.5q0 81 -37.5 123.5t-108.5 42.5t-112.5 -54.5
t-41.5 -149.5q0 -80 38.5 -124t107.5 -44q72 0 113 54.5z" />
    <glyph glyph-name="uni1E0D" unicode="&#x1e0d;" horiz-adv-x="582" 
d="M543 705l-56 -705h-80l6 76q-25 -39 -67.5 -61t-92.5 -22q-61 0 -108 28.5t-73 81.5t-26 124q0 81 28.5 142.5t80.5 95.5t120 34q57 0 99.5 -25t63.5 -69l24 300h81zM387 114.5q41 54.5 41 148.5q0 82 -37.5 125.5t-108.5 43.5t-112.5 -54t-41.5 -148q0 -81 38.5 -125.5
t107.5 -44.5q72 0 113 54.5zM221 -94h92l-8 -88h-92z" />
    <glyph glyph-name="uni1E0F" unicode="&#x1e0f;" horiz-adv-x="582" 
d="M543 705l-56 -705h-80l6 76q-25 -39 -67.5 -61t-92.5 -22q-61 0 -108 28.5t-73 81.5t-26 124q0 81 28.5 142.5t80.5 95.5t120 34q57 0 99.5 -25t63.5 -69l24 300h81zM387 114.5q41 54.5 41 148.5q0 82 -37.5 125.5t-108.5 43.5t-112.5 -54t-41.5 -148q0 -81 38.5 -125.5
t107.5 -44.5q72 0 113 54.5zM111 -168l5 59h299l-5 -59h-299z" />
    <glyph glyph-name="uni01C6" unicode="&#x1c6;" horiz-adv-x="1085" 
d="M543 705l-56 -705h-80l6 76q-25 -39 -67.5 -61t-92.5 -22q-61 0 -108 28.5t-73 81.5t-26 124q0 81 28.5 142.5t80.5 95.5t120 34q57 0 99.5 -25t63.5 -69l24 300h81zM387 114.5q41 54.5 41 148.5q0 82 -37.5 125.5t-108.5 43.5t-112.5 -54t-41.5 -148q0 -81 38.5 -125.5
t107.5 -44.5q72 0 113 54.5zM1051 487l-4 -59l-327 -364h309l-5 -64h-413l5 56l328 367h-289l5 64h391zM948 753h76l-133 -202h-57l-102 202h73l61 -143z" />
    <glyph glyph-name="e" unicode="e" horiz-adv-x="527" 
d="M127 231v-4q0 -80 39.5 -124t114.5 -44q89 0 159 57l23 -60q-30 -29 -81.5 -46t-104.5 -17q-106 0 -168.5 64t-62.5 172q0 79 30 140.5t84 95.5t126 34q93 0 147 -55.5t54 -163.5q0 -23 -3 -49h-357zM182 396.5q-40 -39.5 -51 -113.5h284q3 76 -31 114.5t-95 38.5
q-67 0 -107 -39.5z" />
    <glyph glyph-name="eacute" unicode="&#xe9;" horiz-adv-x="527" 
d="M127 231v-4q0 -80 39.5 -124t114.5 -44q89 0 159 57l23 -60q-30 -29 -81.5 -46t-104.5 -17q-106 0 -168.5 64t-62.5 172q0 79 30 140.5t84 95.5t126 34q93 0 147 -55.5t54 -163.5q0 -23 -3 -49h-357zM182 396.5q-40 -39.5 -51 -113.5h284q3 76 -31 114.5t-95 38.5
q-67 0 -107 -39.5zM328 551h-56l113 202h97z" />
    <glyph glyph-name="ebreve" unicode="&#x115;" horiz-adv-x="527" 
d="M127 231v-4q0 -80 39.5 -124t114.5 -44q89 0 159 57l23 -60q-30 -29 -81.5 -46t-104.5 -17q-106 0 -168.5 64t-62.5 172q0 79 30 140.5t84 95.5t126 34q93 0 147 -55.5t54 -163.5q0 -23 -3 -49h-357zM182 396.5q-40 -39.5 -51 -113.5h284q3 76 -31 114.5t-95 38.5
q-67 0 -107 -39.5zM207 612.5q-42 31.5 -59 95.5l52 21q34 -88 108 -88q36 0 65.5 20t54.5 68l49 -21q-25 -65 -71 -96t-102 -31q-55 0 -97 31.5z" />
    <glyph glyph-name="ecaron" unicode="&#x11b;" horiz-adv-x="527" 
d="M127 231v-4q0 -80 39.5 -124t114.5 -44q89 0 159 57l23 -60q-30 -29 -81.5 -46t-104.5 -17q-106 0 -168.5 64t-62.5 172q0 79 30 140.5t84 95.5t126 34q93 0 147 -55.5t54 -163.5q0 -23 -3 -49h-357zM182 396.5q-40 -39.5 -51 -113.5h284q3 76 -31 114.5t-95 38.5
q-67 0 -107 -39.5zM386 753h76l-133 -202h-57l-102 202h73l61 -143z" />
    <glyph glyph-name="uni1E1D" unicode="&#x1e1d;" horiz-adv-x="527" 
d="M207 612.5q-42 31.5 -59 95.5l52 21q34 -88 108 -88q36 0 65.5 20t54.5 68l49 -21q-25 -65 -71 -96t-102 -31q-55 0 -97 31.5zM127 231v-4q0 -80 39.5 -124t114.5 -44q89 0 159 57l23 -60q-29 -27 -76 -44t-98 -19l-7 -35q6 1 19 1q34 0 54.5 -17.5t20.5 -49.5
q0 -38 -31 -61.5t-86 -23.5q-22 0 -47 5t-43 14l14 43q39 -14 76 -14q27 0 42 9t15 26q0 13 -9 20t-26 7q-21 0 -44 -9l-18 16l14 72q-87 13 -137 75t-50 158q0 79 30 140.5t84 95.5t126 34q93 0 147 -55.5t54 -163.5q0 -23 -3 -49h-357zM182 396.5q-40 -39.5 -51 -113.5
h284q3 76 -31 114.5t-95 38.5q-67 0 -107 -39.5z" />
    <glyph glyph-name="ecircumflex" unicode="&#xea;" horiz-adv-x="527" 
d="M127 231v-4q0 -80 39.5 -124t114.5 -44q89 0 159 57l23 -60q-30 -29 -81.5 -46t-104.5 -17q-106 0 -168.5 64t-62.5 172q0 79 30 140.5t84 95.5t126 34q93 0 147 -55.5t54 -163.5q0 -23 -3 -49h-357zM182 396.5q-40 -39.5 -51 -113.5h284q3 76 -31 114.5t-95 38.5
q-67 0 -107 -39.5zM230 551h-76l134 202h57l101 -202h-72l-62 143z" />
    <glyph glyph-name="uni1EBF" unicode="&#x1ebf;" horiz-adv-x="527" 
d="M127 231v-4q0 -80 39.5 -124t114.5 -44q89 0 159 57l23 -60q-30 -29 -81.5 -46t-104.5 -17q-106 0 -168.5 64t-62.5 172q0 79 30 140.5t84 95.5t126 34q93 0 147 -55.5t54 -163.5q0 -23 -3 -49h-357zM182 396.5q-40 -39.5 -51 -113.5h284q3 76 -31 114.5t-95 38.5
q-67 0 -107 -39.5zM442 654h-49l100 142h89zM228 551h-74l131 147h54l107 -147h-71l-65 99z" />
    <glyph glyph-name="uni1EC7" unicode="&#x1ec7;" horiz-adv-x="527" 
d="M127 231v-4q0 -80 39.5 -124t114.5 -44q89 0 159 57l23 -60q-30 -29 -81.5 -46t-104.5 -17q-106 0 -168.5 64t-62.5 172q0 79 30 140.5t84 95.5t126 34q93 0 147 -55.5t54 -163.5q0 -23 -3 -49h-357zM182 396.5q-40 -39.5 -51 -113.5h284q3 76 -31 114.5t-95 38.5
q-67 0 -107 -39.5zM218 -94h92l-8 -88h-92zM230 551h-76l134 202h57l101 -202h-72l-62 143z" />
    <glyph glyph-name="uni1EC1" unicode="&#x1ec1;" horiz-adv-x="527" 
d="M127 231v-4q0 -80 39.5 -124t114.5 -44q89 0 159 57l23 -60q-30 -29 -81.5 -46t-104.5 -17q-106 0 -168.5 64t-62.5 172q0 79 30 140.5t84 95.5t126 34q93 0 147 -55.5t54 -163.5q0 -23 -3 -49h-357zM182 396.5q-40 -39.5 -51 -113.5h284q3 76 -31 114.5t-95 38.5
q-67 0 -107 -39.5zM436 654l-99 142h80l68 -142h-49zM154 551l131 147h54l107 -147h-71l-65 99l-82 -99h-74z" />
    <glyph glyph-name="uni1EC3" unicode="&#x1ec3;" horiz-adv-x="527" 
d="M127 231v-4q0 -80 39.5 -124t114.5 -44q89 0 159 57l23 -60q-30 -29 -81.5 -46t-104.5 -17q-106 0 -168.5 64t-62.5 172q0 79 30 140.5t84 95.5t126 34q93 0 147 -55.5t54 -163.5q0 -23 -3 -49h-357zM182 396.5q-40 -39.5 -51 -113.5h284q3 76 -31 114.5t-95 38.5
q-67 0 -107 -39.5zM393 671q1 18 13.5 27.5t33.5 17.5q14 6 20 10t6 11q0 16 -36 16q-29 0 -66 -11l-10 43q40 16 82 16q44 0 69 -16t25 -41q0 -21 -13 -32t-36 -21q-16 -6 -25 -12t-10 -16l-1 -9h-53zM154 551l131 147h54l107 -147h-71l-65 99l-82 -99h-74z" />
    <glyph glyph-name="uni1EC5" unicode="&#x1ec5;" horiz-adv-x="527" 
d="M127 231v-4q0 -80 39.5 -124t114.5 -44q89 0 159 57l23 -60q-30 -29 -81.5 -46t-104.5 -17q-106 0 -168.5 64t-62.5 172q0 79 30 140.5t84 95.5t126 34q93 0 147 -55.5t54 -163.5q0 -23 -3 -49h-357zM182 396.5q-40 -39.5 -51 -113.5h284q3 76 -31 114.5t-95 38.5
q-67 0 -107 -39.5zM181 785.5q27 26.5 67 26.5q21 0 38.5 -6t45.5 -18q19 -9 32 -14t25 -5q21 0 34 12t14 32h45q-1 -45 -28.5 -71.5t-67.5 -26.5q-21 0 -37.5 5.5t-45.5 18.5q-19 9 -32 14t-26 5q-21 0 -34 -13t-14 -32h-45q2 46 29 72.5zM154 551l131 147h54l107 -147h-71
l-65 99l-82 -99h-74z" />
    <glyph glyph-name="uni0205" unicode="&#x205;" horiz-adv-x="527" 
d="M127 231v-4q0 -80 39.5 -124t114.5 -44q89 0 159 57l23 -60q-30 -29 -81.5 -46t-104.5 -17q-106 0 -168.5 64t-62.5 172q0 79 30 140.5t84 95.5t126 34q93 0 147 -55.5t54 -163.5q0 -23 -3 -49h-357zM182 396.5q-40 -39.5 -51 -113.5h284q3 76 -31 114.5t-95 38.5
q-67 0 -107 -39.5zM219 551l-61 202h72l30 -202h-41zM340 551l-61 202h71l31 -202h-41z" />
    <glyph glyph-name="edieresis" unicode="&#xeb;" horiz-adv-x="527" 
d="M127 231v-4q0 -80 39.5 -124t114.5 -44q89 0 159 57l23 -60q-30 -29 -81.5 -46t-104.5 -17q-106 0 -168.5 64t-62.5 172q0 79 30 140.5t84 95.5t126 34q93 0 147 -55.5t54 -163.5q0 -23 -3 -49h-357zM182 396.5q-40 -39.5 -51 -113.5h284q3 76 -31 114.5t-95 38.5
q-67 0 -107 -39.5zM182 695h89l-7 -85h-89zM353 695h89l-7 -85h-89z" />
    <glyph glyph-name="edotaccent" unicode="&#x117;" horiz-adv-x="527" 
d="M127 231v-4q0 -80 39.5 -124t114.5 -44q89 0 159 57l23 -60q-30 -29 -81.5 -46t-104.5 -17q-106 0 -168.5 64t-62.5 172q0 79 30 140.5t84 95.5t126 34q93 0 147 -55.5t54 -163.5q0 -23 -3 -49h-357zM182 396.5q-40 -39.5 -51 -113.5h284q3 76 -31 114.5t-95 38.5
q-67 0 -107 -39.5zM263 698h98l-7 -91h-99z" />
    <glyph glyph-name="uni1EB9" unicode="&#x1eb9;" horiz-adv-x="527" 
d="M127 231v-4q0 -80 39.5 -124t114.5 -44q89 0 159 57l23 -60q-30 -29 -81.5 -46t-104.5 -17q-106 0 -168.5 64t-62.5 172q0 79 30 140.5t84 95.5t126 34q93 0 147 -55.5t54 -163.5q0 -23 -3 -49h-357zM182 396.5q-40 -39.5 -51 -113.5h284q3 76 -31 114.5t-95 38.5
q-67 0 -107 -39.5zM218 -94h92l-8 -88h-92z" />
    <glyph glyph-name="egrave" unicode="&#xe8;" horiz-adv-x="527" 
d="M127 231v-4q0 -80 39.5 -124t114.5 -44q89 0 159 57l23 -60q-30 -29 -81.5 -46t-104.5 -17q-106 0 -168.5 64t-62.5 172q0 79 30 140.5t84 95.5t126 34q93 0 147 -55.5t54 -163.5q0 -23 -3 -49h-357zM182 396.5q-40 -39.5 -51 -113.5h284q3 76 -31 114.5t-95 38.5
q-67 0 -107 -39.5zM272 551l-117 202h87l86 -202h-56z" />
    <glyph glyph-name="uni1EBB" unicode="&#x1ebb;" horiz-adv-x="527" 
d="M127 231v-4q0 -80 39.5 -124t114.5 -44q89 0 159 57l23 -60q-30 -29 -81.5 -46t-104.5 -17q-106 0 -168.5 64t-62.5 172q0 79 30 140.5t84 95.5t126 34q93 0 147 -55.5t54 -163.5q0 -23 -3 -49h-357zM182 396.5q-40 -39.5 -51 -113.5h284q3 76 -31 114.5t-95 38.5
q-67 0 -107 -39.5zM329 551h-53l2 27q2 21 13.5 36t30.5 31q15 14 21.5 22t6.5 17q0 11 -10 17t-29 6q-21 0 -60 -11l-11 46q39 15 83 15q42 0 67.5 -18t25.5 -47q0 -23 -12 -38t-34 -32q-21 -16 -30 -27t-10 -27z" />
    <glyph glyph-name="uni0207" unicode="&#x207;" horiz-adv-x="527" 
d="M127 231v-4q0 -80 39.5 -124t114.5 -44q89 0 159 57l23 -60q-30 -29 -81.5 -46t-104.5 -17q-106 0 -168.5 64t-62.5 172q0 79 30 140.5t84 95.5t126 34q93 0 147 -55.5t54 -163.5q0 -23 -3 -49h-357zM182 396.5q-40 -39.5 -51 -113.5h284q3 76 -31 114.5t-95 38.5
q-67 0 -107 -39.5zM409.5 696.5q42.5 -31.5 59.5 -94.5l-52 -22q-34 88 -109 88q-36 0 -65.5 -20t-53.5 -68l-50 21q26 65 71.5 96t101.5 31q55 0 97.5 -31.5z" />
    <glyph glyph-name="emacron" unicode="&#x113;" horiz-adv-x="527" 
d="M127 231v-4q0 -80 39.5 -124t114.5 -44q89 0 159 57l23 -60q-30 -29 -81.5 -46t-104.5 -17q-106 0 -168.5 64t-62.5 172q0 79 30 140.5t84 95.5t126 34q93 0 147 -55.5t54 -163.5q0 -23 -3 -49h-357zM182 396.5q-40 -39.5 -51 -113.5h284q3 76 -31 114.5t-95 38.5
q-67 0 -107 -39.5zM156 622l5 61h299l-5 -61h-299z" />
    <glyph glyph-name="uni1E17" unicode="&#x1e17;" horiz-adv-x="527" 
d="M127 231v-4q0 -80 39.5 -124t114.5 -44q89 0 159 57l23 -60q-30 -29 -81.5 -46t-104.5 -17q-106 0 -168.5 64t-62.5 172q0 79 30 140.5t84 95.5t126 34q93 0 147 -55.5t54 -163.5q0 -23 -3 -49h-357zM182 396.5q-40 -39.5 -51 -113.5h284q3 76 -31 114.5t-95 38.5
q-67 0 -107 -39.5zM156 622l5 61h299l-5 -61h-299zM343 744h-56l113 202h97z" />
    <glyph glyph-name="uni1E15" unicode="&#x1e15;" horiz-adv-x="527" 
d="M127 231v-4q0 -80 39.5 -124t114.5 -44q89 0 159 57l23 -60q-30 -29 -81.5 -46t-104.5 -17q-106 0 -168.5 64t-62.5 172q0 79 30 140.5t84 95.5t126 34q93 0 147 -55.5t54 -163.5q0 -23 -3 -49h-357zM182 396.5q-40 -39.5 -51 -113.5h284q3 76 -31 114.5t-95 38.5
q-67 0 -107 -39.5zM156 622l5 61h299l-5 -61h-299zM287 744l-117 202h87l86 -202h-56z" />
    <glyph glyph-name="eogonek" unicode="&#x119;" horiz-adv-x="527" 
d="M127 231v-4q0 -80 39.5 -124t114.5 -44q89 0 159 57l23 -60q-21 -21 -57 -36q-54 -23 -74 -47.5t-20 -53.5t15.5 -44t43.5 -15q26 0 60 17l13 -47q-39 -23 -84 -23q-52 0 -82.5 27.5t-30.5 71.5q0 53 39 87h-9q-106 0 -168.5 64t-62.5 172q0 79 30 140.5t84 95.5t126 34
q93 0 147 -56t54 -164q0 -22 -3 -48h-357zM184 398.5q-42 -37.5 -53 -115.5h284q3 76 -31 114.5t-95 38.5q-63 0 -105 -37.5z" />
    <glyph glyph-name="uni1EBD" unicode="&#x1ebd;" horiz-adv-x="527" 
d="M127 231v-4q0 -80 39.5 -124t114.5 -44q89 0 159 57l23 -60q-30 -29 -81.5 -46t-104.5 -17q-106 0 -168.5 64t-62.5 172q0 79 30 140.5t84 95.5t126 34q93 0 147 -55.5t54 -163.5q0 -23 -3 -49h-357zM182 396.5q-40 -39.5 -51 -113.5h284q3 76 -31 114.5t-95 38.5
q-67 0 -107 -39.5zM172.5 683q26.5 29 67.5 29q20 0 37 -7.5t45 -24.5q19 -12 32 -18.5t25 -6.5q22 0 35 14t15 40h45q-3 -56 -29.5 -85t-67.5 -29q-21 0 -39.5 8.5t-42.5 24.5q-21 13 -33 18.5t-23 5.5q-22 0 -36 -14.5t-16 -39.5h-44q3 56 29.5 85z" />
    <glyph glyph-name="uni0259" unicode="&#x259;" horiz-adv-x="527" 
d="M421.5 435q61.5 -64 61.5 -172q0 -80 -29 -141t-82 -95t-122 -34q-99 0 -154.5 55t-55.5 164q0 24 3 49h359v3q0 80 -40 124t-113 44q-90 0 -161 -56l-22 59q30 29 82.5 46.5t104.5 17.5q107 0 168.5 -64zM348 95q39 40 50 114h-285q-3 -77 32 -115.5t101 -38.5
q63 0 102 40z" />
    <glyph glyph-name="f" unicode="f" horiz-adv-x="328" 
d="M203 487h138l-5 -64h-138l-34 -423h-81l33 423h-94l4 64h95l2 22q7 96 58.5 143.5t153.5 53.5l41 2l2 -63l-52 -3q-59 -4 -88 -33.5t-33 -91.5z" />
    <glyph glyph-name="g" unicode="g" horiz-adv-x="586" 
d="M530 487l-36 -452q-18 -222 -232 -222q-124 0 -216 66l31 60q50 -33 92 -46.5t94 -13.5q140 0 151 150l6 71q-24 -40 -67 -62.5t-95 -22.5q-96 0 -153.5 61t-57.5 163q0 76 28.5 135t80.5 92t121 33q58 0 101 -25t65 -70l6 83h81zM390.5 133q41.5 51 41.5 140
q0 76 -38.5 117.5t-108.5 41.5q-73 0 -114.5 -51.5t-41.5 -141.5q0 -76 38 -116.5t109 -40.5q73 0 114.5 51z" />
    <glyph glyph-name="gbreve" unicode="&#x11f;" horiz-adv-x="586" 
d="M530 487l-36 -452q-18 -222 -232 -222q-124 0 -216 66l31 60q50 -33 92 -46.5t94 -13.5q140 0 151 150l6 71q-24 -40 -67 -62.5t-95 -22.5q-96 0 -153.5 61t-57.5 163q0 76 28.5 135t80.5 92t121 33q58 0 101 -25t65 -70l6 83h81zM390.5 133q41.5 51 41.5 140
q0 76 -38.5 117.5t-108.5 41.5q-73 0 -114.5 -51.5t-41.5 -141.5q0 -76 38 -116.5t109 -40.5q73 0 114.5 51zM226 612.5q-42 31.5 -59 95.5l52 21q34 -88 108 -88q36 0 65.5 20t54.5 68l49 -21q-25 -65 -71 -96t-102 -31q-55 0 -97 31.5z" />
    <glyph glyph-name="gcaron" unicode="&#x1e7;" horiz-adv-x="586" 
d="M530 487l-36 -452q-18 -222 -232 -222q-124 0 -216 66l31 60q50 -33 92 -46.5t94 -13.5q140 0 151 150l6 71q-24 -40 -67 -62.5t-95 -22.5q-96 0 -153.5 61t-57.5 163q0 76 28.5 135t80.5 92t121 33q58 0 101 -25t65 -70l6 83h81zM390.5 133q41.5 51 41.5 140
q0 76 -38.5 117.5t-108.5 41.5q-73 0 -114.5 -51.5t-41.5 -141.5q0 -76 38 -116.5t109 -40.5q73 0 114.5 51zM405 753h76l-133 -202h-57l-102 202h73l61 -143z" />
    <glyph glyph-name="gcircumflex" unicode="&#x11d;" horiz-adv-x="586" 
d="M530 487l-36 -452q-18 -222 -232 -222q-124 0 -216 66l31 60q50 -33 92 -46.5t94 -13.5q140 0 151 150l6 71q-24 -40 -67 -62.5t-95 -22.5q-96 0 -153.5 61t-57.5 163q0 76 28.5 135t80.5 92t121 33q58 0 101 -25t65 -70l6 83h81zM390.5 133q41.5 51 41.5 140
q0 76 -38.5 117.5t-108.5 41.5q-73 0 -114.5 -51.5t-41.5 -141.5q0 -76 38 -116.5t109 -40.5q73 0 114.5 51zM249 551h-76l134 202h57l101 -202h-72l-62 143z" />
    <glyph glyph-name="gcommaaccent" unicode="&#x123;" horiz-adv-x="586" 
d="M530 487l-36 -452q-18 -222 -232 -222q-124 0 -216 66l31 60q50 -33 92 -46.5t94 -13.5q140 0 151 150l6 71q-24 -40 -67 -62.5t-95 -22.5q-96 0 -153.5 61t-57.5 163q0 76 28.5 135t80.5 92t121 33q58 0 101 -25t65 -70l6 83h81zM390.5 133q41.5 51 41.5 140
q0 76 -38.5 117.5t-108.5 41.5q-73 0 -114.5 -51.5t-41.5 -141.5q0 -76 38 -116.5t109 -40.5q73 0 114.5 51zM377 663l-6 -83h-98l4 58q3 39 17 70.5t44 58.5l35 -27q-20 -19 -29.5 -37.5t-12.5 -39.5h46z" />
    <glyph glyph-name="gdotaccent" unicode="&#x121;" horiz-adv-x="586" 
d="M530 487l-36 -452q-18 -222 -232 -222q-124 0 -216 66l31 60q50 -33 92 -46.5t94 -13.5q140 0 151 150l6 71q-24 -40 -67 -62.5t-95 -22.5q-96 0 -153.5 61t-57.5 163q0 76 28.5 135t80.5 92t121 33q58 0 101 -25t65 -70l6 83h81zM390.5 133q41.5 51 41.5 140
q0 76 -38.5 117.5t-108.5 41.5q-73 0 -114.5 -51.5t-41.5 -141.5q0 -76 38 -116.5t109 -40.5q73 0 114.5 51zM282 698h98l-7 -91h-99z" />
    <glyph glyph-name="uni1E21" unicode="&#x1e21;" horiz-adv-x="586" 
d="M530 487l-36 -452q-18 -222 -232 -222q-124 0 -216 66l31 60q50 -33 92 -46.5t94 -13.5q140 0 151 150l6 71q-24 -40 -67 -62.5t-95 -22.5q-96 0 -153.5 61t-57.5 163q0 76 28.5 135t80.5 92t121 33q58 0 101 -25t65 -70l6 83h81zM390.5 133q41.5 51 41.5 140
q0 76 -38.5 117.5t-108.5 41.5q-73 0 -114.5 -51.5t-41.5 -141.5q0 -76 38 -116.5t109 -40.5q73 0 114.5 51zM175 622l5 61h299l-5 -61h-299z" />
    <glyph glyph-name="h" unicode="h" horiz-adv-x="568" 
d="M458 456q43 -43 43 -125q0 -18 -1 -27l-24 -304h-81l24 299q1 7 1 21q0 111 -107 111q-68 0 -108 -40.5t-46 -111.5l-22 -279h-81l56 705h81l-24 -291q26 41 68.5 63t95.5 22q82 0 125 -43z" />
    <glyph glyph-name="hbar" unicode="&#x127;" horiz-adv-x="568" 
d="M458 456q43 -43 43 -125q0 -18 -1 -27l-24 -304h-81l24 299q1 7 1 21q0 111 -107 111q-68 0 -108 -40.5t-46 -111.5l-22 -279h-81l43 555h-91l5 61h91l7 89h81l-7 -89h193l-5 -61h-193l-11 -141q26 41 68.5 63t95.5 22q82 0 125 -43z" />
    <glyph glyph-name="uni1E2B" unicode="&#x1e2b;" horiz-adv-x="568" 
d="M458 456q43 -43 43 -125q0 -18 -1 -27l-24 -304h-81l24 299q1 7 1 21q0 111 -107 111q-68 0 -108 -40.5t-46 -111.5l-22 -279h-81l56 705h81l-24 -291q26 41 68.5 63t95.5 22q82 0 125 -43zM153.5 -179.5q-42.5 31.5 -59.5 94.5l53 22q34 -89 108 -89q36 0 65.5 20.5
t53.5 68.5l50 -21q-25 -66 -71 -96.5t-102 -30.5q-55 0 -97.5 31.5z" />
    <glyph glyph-name="hcircumflex" unicode="&#x125;" horiz-adv-x="568" 
d="M458 456q43 -43 43 -125q0 -18 -1 -27l-24 -304h-81l24 299q1 7 1 21q0 111 -107 111q-68 0 -108 -40.5t-46 -111.5l-22 -279h-81l56 705h81l-24 -291q26 41 68.5 63t95.5 22q82 0 125 -43zM85 765h-74l131 152h54l107 -152h-72l-63 103z" />
    <glyph glyph-name="uni1E25" unicode="&#x1e25;" horiz-adv-x="568" 
d="M458 456q43 -43 43 -125q0 -18 -1 -27l-24 -304h-81l24 299q1 7 1 21q0 111 -107 111q-68 0 -108 -40.5t-46 -111.5l-22 -279h-81l56 705h81l-24 -291q26 41 68.5 63t95.5 22q82 0 125 -43zM213 -94h92l-8 -88h-92z" />
    <glyph glyph-name="i" unicode="i" horiz-adv-x="232" 
d="M56 0l39 487h81l-39 -487h-81zM103 698h98l-7 -91h-99z" />
    <glyph glyph-name="dotlessi" unicode="&#x131;" horiz-adv-x="232" 
d="M56 0l39 487h81l-39 -487h-81z" />
    <glyph glyph-name="iacute" unicode="&#xed;" horiz-adv-x="232" 
d="M56 0l39 487h81l-39 -487h-81zM168 551h-56l113 202h97z" />
    <glyph glyph-name="ibreve" unicode="&#x12d;" horiz-adv-x="232" 
d="M56 0l39 487h81l-39 -487h-81zM47 612.5q-42 31.5 -59 95.5l52 21q34 -88 108 -88q36 0 65.5 20t54.5 68l49 -21q-25 -65 -71 -96t-102 -31q-55 0 -97 31.5z" />
    <glyph glyph-name="icircumflex" unicode="&#xee;" horiz-adv-x="232" 
d="M56 0l39 487h81l-39 -487h-81zM70 551h-76l134 202h57l101 -202h-72l-62 143z" />
    <glyph glyph-name="uni0209" unicode="&#x209;" horiz-adv-x="232" 
d="M56 0l39 487h81l-39 -487h-81zM59 551l-61 202h72l30 -202h-41zM180 551l-61 202h71l31 -202h-41z" />
    <glyph glyph-name="idieresis" unicode="&#xef;" horiz-adv-x="232" 
d="M56 0l39 487h81l-39 -487h-81zM22 695h89l-7 -85h-89zM193 695h89l-7 -85h-89z" />
    <glyph glyph-name="uni1E2F" unicode="&#x1e2f;" horiz-adv-x="232" 
d="M56 0l39 487h81l-39 -487h-81zM22 695h89l-7 -85h-89zM193 695h89l-7 -85h-89zM183 744h-56l113 202h97z" />
    <glyph glyph-name="i.loclTRK" horiz-adv-x="232" 
d="M56 0l39 487h81l-39 -487h-81zM103 698h98l-7 -91h-99z" />
    <glyph glyph-name="uni1ECB" unicode="&#x1ecb;" horiz-adv-x="232" 
d="M56 0l39 487h81l-39 -487h-81zM103 698h98l-7 -91h-99zM43 -94h92l-8 -88h-92z" />
    <glyph glyph-name="igrave" unicode="&#xec;" horiz-adv-x="232" 
d="M56 0l39 487h81l-39 -487h-81zM112 551l-117 202h87l86 -202h-56z" />
    <glyph glyph-name="uni1EC9" unicode="&#x1ec9;" horiz-adv-x="232" 
d="M56 0l39 487h81l-39 -487h-81zM169 551h-53l2 27q2 21 13.5 36t30.5 31q15 14 21.5 22t6.5 17q0 11 -10 17t-29 6q-21 0 -60 -11l-11 46q39 15 83 15q42 0 67.5 -18t25.5 -47q0 -23 -12 -38t-34 -32q-21 -16 -30 -27t-10 -27z" />
    <glyph glyph-name="uni020B" unicode="&#x20b;" horiz-adv-x="232" 
d="M56 0l39 487h81l-39 -487h-81zM249.5 696.5q42.5 -31.5 59.5 -94.5l-52 -22q-34 88 -109 88q-36 0 -65.5 -20t-53.5 -68l-50 21q26 65 71.5 96t101.5 31q55 0 97.5 -31.5z" />
    <glyph glyph-name="imacron" unicode="&#x12b;" horiz-adv-x="232" 
d="M56 0l39 487h81l-39 -487h-81zM-4 622l5 61h299l-5 -61h-299z" />
    <glyph glyph-name="iogonek" unicode="&#x12f;" horiz-adv-x="232" 
d="M103 698h98l-7 -91h-99zM59.5 -22.5q-23.5 -22.5 -23.5 -57.5q0 -29 16 -44.5t44 -15.5q26 0 60 17l12 -47q-17 -10 -39 -16.5t-44 -6.5q-52 0 -82.5 28t-30.5 74q0 41 22 72t64 47l37 459h81l-39 -487h-5q-49 0 -72.5 -22.5z" />
    <glyph glyph-name="itilde" unicode="&#x129;" horiz-adv-x="232" 
d="M56 0l39 487h81l-39 -487h-81zM12.5 683q26.5 29 67.5 29q20 0 37 -7.5t45 -24.5q19 -12 32 -18.5t25 -6.5q22 0 35 14t15 40h45q-3 -56 -29.5 -85t-67.5 -29q-21 0 -39.5 8.5t-42.5 24.5q-21 13 -33 18.5t-23 5.5q-22 0 -36 -14.5t-16 -39.5h-44q3 56 29.5 85z" />
    <glyph glyph-name="j" unicode="j" horiz-adv-x="232" 
d="M138 6q-8 -93 -53 -137t-141 -50l-45 -3l-3 63l47 3q54 4 81.5 30.5t31.5 81.5l39 493h81zM103 698h98l-7 -91h-99z" />
    <glyph glyph-name="uni0237" unicode="&#x237;" horiz-adv-x="232" 
d="M138 6q-8 -93 -53 -137t-141 -50l-45 -3l-3 63l47 3q54 4 81.5 30.5t31.5 81.5l39 493h81z" />
    <glyph glyph-name="jcircumflex" unicode="&#x135;" horiz-adv-x="232" 
d="M138 6q-8 -93 -53 -137t-141 -50l-45 -3l-3 63l47 3q54 4 81.5 30.5t31.5 81.5l39 493h81zM70 551h-76l134 202h57l101 -202h-72l-62 143z" />
    <glyph glyph-name="k" unicode="k" horiz-adv-x="500" 
d="M505 486l-259 -234l244 -252h-102l-232 237l-19 -237h-81l56 705h81l-35 -441l242 222h105z" />
    <glyph glyph-name="kcommaaccent" unicode="&#x137;" horiz-adv-x="500" 
d="M505 486l-259 -234l244 -252h-102l-232 237l-19 -237h-81l56 705h81l-35 -441l242 222h105zM274 -72l-4 -58q-3 -39 -17 -70.5t-44 -58.5l-35 27q20 19 29.5 37t12.5 40h-46l6 83h98z" />
    <glyph glyph-name="kgreenlandic" unicode="&#x138;" horiz-adv-x="500" 
d="M505 486l-259 -234l244 -252h-102l-232 237l-19 -237h-81l39 487h81l-18 -223l242 222h105z" />
    <glyph glyph-name="l" unicode="l" horiz-adv-x="232" 
d="M56 0l56 705h81l-56 -705h-81z" />
    <glyph glyph-name="lacute" unicode="&#x13a;" horiz-adv-x="232" 
d="M56 0l56 705h81l-56 -705h-81zM185 765h-56l110 152h94z" />
    <glyph glyph-name="lcaron" unicode="&#x13e;" horiz-adv-x="232" 
d="M56 0l56 705h81l-56 -705h-81zM252 515h-39l15 190h64z" />
    <glyph glyph-name="lcommaaccent" unicode="&#x13c;" horiz-adv-x="232" 
d="M56 0l56 705h81l-56 -705h-81zM140 -72l-4 -58q-3 -39 -17 -70.5t-44 -58.5l-35 27q20 19 29.5 37t12.5 40h-46l6 83h98z" />
    <glyph glyph-name="ldot" unicode="&#x140;" horiz-adv-x="261" 
d="M56 0l56 705h81l-56 -705h-81zM199 400h102l-7 -94h-102z" />
    <glyph glyph-name="uni1E37" unicode="&#x1e37;" horiz-adv-x="232" 
d="M56 0l56 705h81l-56 -705h-81zM44 -94h92l-8 -88h-92z" />
    <glyph glyph-name="uni01C9" unicode="&#x1c9;" horiz-adv-x="464" 
d="M56 0l56 705h81l-56 -705h-81zM370 6q-8 -93 -53 -137t-141 -50l-45 -3l-3 63l47 3q54 4 81.5 30.5t31.5 81.5l39 493h81zM335 698h98l-7 -91h-99z" />
    <glyph glyph-name="uni1E3B" unicode="&#x1e3b;" horiz-adv-x="232" 
d="M56 0l56 705h81l-56 -705h-81zM-66 -168l5 59h299l-5 -59h-299z" />
    <glyph glyph-name="lslash" unicode="&#x142;" horiz-adv-x="282" 
d="M303 404l-113 -63l-27 -341h-81l23 295l-79 -44l-28 58l113 63l26 333h81l-22 -286l78 43z" />
    <glyph glyph-name="m" unicode="m" horiz-adv-x="852" 
d="M746 456.5q39 -42.5 39 -123.5q0 -19 -1 -29l-24 -304h-81l24 300q1 8 1 24q0 55 -23.5 81t-71.5 26q-61 0 -97 -40t-41 -114l-22 -277h-81l24 300q1 8 1 24q0 55 -23.5 81t-71.5 26q-61 0 -97 -40t-42 -114l-22 -277h-81l39 486h79l-6 -71q50 84 153 84q56 0 92.5 -23.5
t51.5 -68.5q25 44 68 68t98 24q76 0 115 -42.5z" />
    <glyph glyph-name="uni1E43" unicode="&#x1e43;" horiz-adv-x="852" 
d="M746 456.5q39 -42.5 39 -123.5q0 -19 -1 -29l-24 -304h-81l24 300q1 8 1 24q0 55 -23.5 81t-71.5 26q-61 0 -97 -40t-41 -114l-22 -277h-81l24 300q1 8 1 24q0 55 -23.5 81t-71.5 26q-61 0 -97 -40t-42 -114l-22 -277h-81l39 486h79l-6 -71q50 84 153 84q56 0 92.5 -23.5
t51.5 -68.5q25 44 68 68t98 24q76 0 115 -42.5zM355 -94h92l-8 -88h-92z" />
    <glyph glyph-name="n" unicode="n" horiz-adv-x="568" 
d="M458 456q43 -43 43 -125q0 -18 -1 -27l-24 -304h-81l24 299q1 7 1 21q0 111 -107 111q-68 0 -108 -40.5t-46 -111.5l-22 -279h-81l39 487h79l-6 -75q25 41 68 64t97 23q82 0 125 -43z" />
    <glyph glyph-name="nacute" unicode="&#x144;" horiz-adv-x="568" 
d="M458 456q43 -43 43 -125q0 -18 -1 -27l-24 -304h-81l24 299q1 7 1 21q0 111 -107 111q-68 0 -108 -40.5t-46 -111.5l-22 -279h-81l39 487h79l-6 -75q25 41 68 64t97 23q82 0 125 -43zM337 551h-56l113 202h97z" />
    <glyph glyph-name="napostrophe" unicode="&#x149;" horiz-adv-x="568" 
d="M236 753l-4 -57q-3 -40 -17 -71t-44 -58l-35 27q21 20 30.5 38t11.5 39h-46l6 82h98zM458 456q43 -43 43 -125q0 -18 -1 -27l-24 -304h-81l24 299q1 7 1 21q0 111 -107 111q-68 0 -108 -40.5t-46 -111.5l-22 -279h-81l39 487h79l-6 -75q25 41 68 64t97 23q82 0 125 -43z
" />
    <glyph glyph-name="ncaron" unicode="&#x148;" horiz-adv-x="568" 
d="M458 456q43 -43 43 -125q0 -18 -1 -27l-24 -304h-81l24 299q1 7 1 21q0 111 -107 111q-68 0 -108 -40.5t-46 -111.5l-22 -279h-81l39 487h79l-6 -75q25 41 68 64t97 23q82 0 125 -43zM395 753h76l-133 -202h-57l-102 202h73l61 -143z" />
    <glyph glyph-name="ncommaaccent" unicode="&#x146;" horiz-adv-x="568" 
d="M458 456q43 -43 43 -125q0 -18 -1 -27l-24 -304h-81l24 299q1 7 1 21q0 111 -107 111q-68 0 -108 -40.5t-46 -111.5l-22 -279h-81l39 487h79l-6 -75q25 41 68 64t97 23q82 0 125 -43zM309 -72l-4 -58q-3 -39 -17 -70.5t-44 -58.5l-35 27q20 19 29.5 37t12.5 40h-46l6 83
h98z" />
    <glyph glyph-name="uni1E45" unicode="&#x1e45;" horiz-adv-x="568" 
d="M458 456q43 -43 43 -125q0 -18 -1 -27l-24 -304h-81l24 299q1 7 1 21q0 111 -107 111q-68 0 -108 -40.5t-46 -111.5l-22 -279h-81l39 487h79l-6 -75q25 41 68 64t97 23q82 0 125 -43zM272 698h98l-7 -91h-99z" />
    <glyph glyph-name="uni1E47" unicode="&#x1e47;" horiz-adv-x="568" 
d="M458 456q43 -43 43 -125q0 -18 -1 -27l-24 -304h-81l24 299q1 7 1 21q0 111 -107 111q-68 0 -108 -40.5t-46 -111.5l-22 -279h-81l39 487h79l-6 -75q25 41 68 64t97 23q82 0 125 -43zM213 -94h92l-8 -88h-92z" />
    <glyph glyph-name="eng" unicode="&#x14b;" horiz-adv-x="568" 
d="M458.5 456.5q42.5 -42.5 42.5 -125.5q0 -18 -1 -27l-23 -295q-8 -92 -54.5 -137.5t-140.5 -52.5l-45 -3l-2 63l46 3q54 4 82 32.5t32 83.5l24 301q1 7 1 21q0 111 -107 111q-68 0 -108 -40t-46 -112l-22 -279h-81l39 487h79l-6 -75q25 41 68 64t97 23q83 0 125.5 -42.5z
" />
    <glyph glyph-name="uni01CC" unicode="&#x1cc;" horiz-adv-x="800" 
d="M458 456q43 -43 43 -125q0 -18 -1 -27l-24 -304h-81l24 299q1 7 1 21q0 111 -107 111q-68 0 -108 -40.5t-46 -111.5l-22 -279h-81l39 487h79l-6 -75q25 41 68 64t97 23q82 0 125 -43zM706 6q-8 -93 -53 -137t-141 -50l-45 -3l-3 63l47 3q54 4 81.5 30.5t31.5 81.5l39 493
h81zM671 698h98l-7 -91h-99z" />
    <glyph glyph-name="uni1E49" unicode="&#x1e49;" horiz-adv-x="568" 
d="M458 456q43 -43 43 -125q0 -18 -1 -27l-24 -304h-81l24 299q1 7 1 21q0 111 -107 111q-68 0 -108 -40.5t-46 -111.5l-22 -279h-81l39 487h79l-6 -75q25 41 68 64t97 23q82 0 125 -43zM103 -168l5 59h299l-5 -59h-299z" />
    <glyph glyph-name="ntilde" unicode="&#xf1;" horiz-adv-x="568" 
d="M458 456q43 -43 43 -125q0 -18 -1 -27l-24 -304h-81l24 299q1 7 1 21q0 111 -107 111q-68 0 -108 -40.5t-46 -111.5l-22 -279h-81l39 487h79l-6 -75q25 41 68 64t97 23q82 0 125 -43zM181.5 683q26.5 29 67.5 29q20 0 37 -7.5t45 -24.5q19 -12 32 -18.5t25 -6.5
q22 0 35 14t15 40h45q-3 -56 -29.5 -85t-67.5 -29q-21 0 -39.5 8.5t-42.5 24.5q-21 13 -33 18.5t-23 5.5q-22 0 -36 -14.5t-16 -39.5h-44q3 56 29.5 85z" />
    <glyph glyph-name="o" unicode="o" horiz-adv-x="555" 
d="M152.5 22q-51.5 29 -79 82.5t-27.5 124.5q0 81 29.5 142t83 94.5t124.5 33.5q69 0 120 -29t79 -83t28 -125q0 -81 -29.5 -142t-83.5 -94t-125 -33q-68 0 -119.5 29zM386.5 115q40.5 55 40.5 150q0 80 -37.5 123.5t-106.5 43.5q-73 0 -114 -56t-41 -150q0 -81 37 -123.5
t108 -42.5q73 0 113.5 55z" />
    <glyph glyph-name="oacute" unicode="&#xf3;" horiz-adv-x="555" 
d="M152.5 22q-51.5 29 -79 82.5t-27.5 124.5q0 81 29.5 142t83 94.5t124.5 33.5q69 0 120 -29t79 -83t28 -125q0 -81 -29.5 -142t-83.5 -94t-125 -33q-68 0 -119.5 29zM386.5 115q40.5 55 40.5 150q0 80 -37.5 123.5t-106.5 43.5q-73 0 -114 -56t-41 -150q0 -81 37 -123.5
t108 -42.5q73 0 113.5 55zM329 551h-56l113 202h97z" />
    <glyph glyph-name="obreve" unicode="&#x14f;" horiz-adv-x="555" 
d="M152.5 22q-51.5 29 -79 82.5t-27.5 124.5q0 81 29.5 142t83 94.5t124.5 33.5q69 0 120 -29t79 -83t28 -125q0 -81 -29.5 -142t-83.5 -94t-125 -33q-68 0 -119.5 29zM386.5 115q40.5 55 40.5 150q0 80 -37.5 123.5t-106.5 43.5q-73 0 -114 -56t-41 -150q0 -81 37 -123.5
t108 -42.5q73 0 113.5 55zM208 612.5q-42 31.5 -59 95.5l52 21q34 -88 108 -88q36 0 65.5 20t54.5 68l49 -21q-25 -65 -71 -96t-102 -31q-55 0 -97 31.5z" />
    <glyph glyph-name="ocircumflex" unicode="&#xf4;" horiz-adv-x="555" 
d="M152.5 22q-51.5 29 -79 82.5t-27.5 124.5q0 81 29.5 142t83 94.5t124.5 33.5q69 0 120 -29t79 -83t28 -125q0 -81 -29.5 -142t-83.5 -94t-125 -33q-68 0 -119.5 29zM386.5 115q40.5 55 40.5 150q0 80 -37.5 123.5t-106.5 43.5q-73 0 -114 -56t-41 -150q0 -81 37 -123.5
t108 -42.5q73 0 113.5 55zM231 551h-76l134 202h57l101 -202h-72l-62 143z" />
    <glyph glyph-name="uni1ED1" unicode="&#x1ed1;" horiz-adv-x="555" 
d="M152.5 22q-51.5 29 -79 82.5t-27.5 124.5q0 81 29.5 142t83 94.5t124.5 33.5q69 0 120 -29t79 -83t28 -125q0 -81 -29.5 -142t-83.5 -94t-125 -33q-68 0 -119.5 29zM386.5 115q40.5 55 40.5 150q0 80 -37.5 123.5t-106.5 43.5q-73 0 -114 -56t-41 -150q0 -81 37 -123.5
t108 -42.5q73 0 113.5 55zM443 654h-49l100 142h89zM229 551h-74l131 147h54l107 -147h-71l-65 99z" />
    <glyph glyph-name="uni1ED9" unicode="&#x1ed9;" horiz-adv-x="555" 
d="M152.5 22q-51.5 29 -79 82.5t-27.5 124.5q0 81 29.5 142t83 94.5t124.5 33.5q69 0 120 -29t79 -83t28 -125q0 -81 -29.5 -142t-83.5 -94t-125 -33q-68 0 -119.5 29zM386.5 115q40.5 55 40.5 150q0 80 -37.5 123.5t-106.5 43.5q-73 0 -114 -56t-41 -150q0 -81 37 -123.5
t108 -42.5q73 0 113.5 55zM205 -94h92l-8 -88h-92zM231 551h-76l134 202h57l101 -202h-72l-62 143z" />
    <glyph glyph-name="uni1ED3" unicode="&#x1ed3;" horiz-adv-x="555" 
d="M152.5 22q-51.5 29 -79 82.5t-27.5 124.5q0 81 29.5 142t83 94.5t124.5 33.5q69 0 120 -29t79 -83t28 -125q0 -81 -29.5 -142t-83.5 -94t-125 -33q-68 0 -119.5 29zM386.5 115q40.5 55 40.5 150q0 80 -37.5 123.5t-106.5 43.5q-73 0 -114 -56t-41 -150q0 -81 37 -123.5
t108 -42.5q73 0 113.5 55zM437 654l-99 142h80l68 -142h-49zM155 551l131 147h54l107 -147h-71l-65 99l-82 -99h-74z" />
    <glyph glyph-name="uni1ED5" unicode="&#x1ed5;" horiz-adv-x="555" 
d="M152.5 22q-51.5 29 -79 82.5t-27.5 124.5q0 81 29.5 142t83 94.5t124.5 33.5q69 0 120 -29t79 -83t28 -125q0 -81 -29.5 -142t-83.5 -94t-125 -33q-68 0 -119.5 29zM386.5 115q40.5 55 40.5 150q0 80 -37.5 123.5t-106.5 43.5q-73 0 -114 -56t-41 -150q0 -81 37 -123.5
t108 -42.5q73 0 113.5 55zM394 671q1 18 13.5 27.5t33.5 17.5q14 6 20 10t6 11q0 16 -36 16q-29 0 -66 -11l-10 43q40 16 82 16q44 0 69 -16t25 -41q0 -21 -13 -32t-36 -21q-16 -6 -25 -12t-10 -16l-1 -9h-53zM155 551l131 147h54l107 -147h-71l-65 99l-82 -99h-74z" />
    <glyph glyph-name="uni1ED7" unicode="&#x1ed7;" horiz-adv-x="555" 
d="M152.5 22q-51.5 29 -79 82.5t-27.5 124.5q0 81 29.5 142t83 94.5t124.5 33.5q69 0 120 -29t79 -83t28 -125q0 -81 -29.5 -142t-83.5 -94t-125 -33q-68 0 -119.5 29zM386.5 115q40.5 55 40.5 150q0 80 -37.5 123.5t-106.5 43.5q-73 0 -114 -56t-41 -150q0 -81 37 -123.5
t108 -42.5q73 0 113.5 55zM182 785.5q27 26.5 67 26.5q21 0 38.5 -6t45.5 -18q19 -9 32 -14t25 -5q21 0 34 12t14 32h45q-1 -45 -28.5 -71.5t-67.5 -26.5q-21 0 -37.5 5.5t-45.5 18.5q-19 9 -32 14t-26 5q-21 0 -34 -13t-14 -32h-45q2 46 29 72.5zM155 551l131 147h54
l107 -147h-71l-65 99l-82 -99h-74z" />
    <glyph glyph-name="uni020D" unicode="&#x20d;" horiz-adv-x="555" 
d="M152.5 22q-51.5 29 -79 82.5t-27.5 124.5q0 81 29.5 142t83 94.5t124.5 33.5q69 0 120 -29t79 -83t28 -125q0 -81 -29.5 -142t-83.5 -94t-125 -33q-68 0 -119.5 29zM386.5 115q40.5 55 40.5 150q0 80 -37.5 123.5t-106.5 43.5q-73 0 -114 -56t-41 -150q0 -81 37 -123.5
t108 -42.5q73 0 113.5 55zM220 551l-61 202h72l30 -202h-41zM341 551l-61 202h71l31 -202h-41z" />
    <glyph glyph-name="odieresis" unicode="&#xf6;" horiz-adv-x="555" 
d="M152.5 22q-51.5 29 -79 82.5t-27.5 124.5q0 81 29.5 142t83 94.5t124.5 33.5q69 0 120 -29t79 -83t28 -125q0 -81 -29.5 -142t-83.5 -94t-125 -33q-68 0 -119.5 29zM386.5 115q40.5 55 40.5 150q0 80 -37.5 123.5t-106.5 43.5q-73 0 -114 -56t-41 -150q0 -81 37 -123.5
t108 -42.5q73 0 113.5 55zM183 695h89l-7 -85h-89zM354 695h89l-7 -85h-89z" />
    <glyph glyph-name="uni022B" unicode="&#x22b;" horiz-adv-x="555" 
d="M152.5 22q-51.5 29 -79 82.5t-27.5 124.5q0 81 29.5 142t83 94.5t124.5 33.5q69 0 120 -29t79 -83t28 -125q0 -81 -29.5 -142t-83.5 -94t-125 -33q-68 0 -119.5 29zM386.5 115q40.5 55 40.5 150q0 80 -37.5 123.5t-106.5 43.5q-73 0 -114 -56t-41 -150q0 -81 37 -123.5
t108 -42.5q73 0 113.5 55zM183 695h89l-7 -85h-89zM354 695h89l-7 -85h-89zM172 815l5 61h299l-5 -61h-299z" />
    <glyph glyph-name="uni0231" unicode="&#x231;" horiz-adv-x="555" 
d="M152.5 22q-51.5 29 -79 82.5t-27.5 124.5q0 81 29.5 142t83 94.5t124.5 33.5q69 0 120 -29t79 -83t28 -125q0 -81 -29.5 -142t-83.5 -94t-125 -33q-68 0 -119.5 29zM386.5 115q40.5 55 40.5 150q0 80 -37.5 123.5t-106.5 43.5q-73 0 -114 -56t-41 -150q0 -81 37 -123.5
t108 -42.5q73 0 113.5 55zM264 698h98l-7 -91h-99zM172 815l5 61h299l-5 -61h-299z" />
    <glyph glyph-name="uni1ECD" unicode="&#x1ecd;" horiz-adv-x="555" 
d="M152.5 22q-51.5 29 -79 82.5t-27.5 124.5q0 81 29.5 142t83 94.5t124.5 33.5q69 0 120 -29t79 -83t28 -125q0 -81 -29.5 -142t-83.5 -94t-125 -33q-68 0 -119.5 29zM386.5 115q40.5 55 40.5 150q0 80 -37.5 123.5t-106.5 43.5q-73 0 -114 -56t-41 -150q0 -81 37 -123.5
t108 -42.5q73 0 113.5 55zM205 -94h92l-8 -88h-92z" />
    <glyph glyph-name="ograve" unicode="&#xf2;" horiz-adv-x="555" 
d="M152.5 22q-51.5 29 -79 82.5t-27.5 124.5q0 81 29.5 142t83 94.5t124.5 33.5q69 0 120 -29t79 -83t28 -125q0 -81 -29.5 -142t-83.5 -94t-125 -33q-68 0 -119.5 29zM386.5 115q40.5 55 40.5 150q0 80 -37.5 123.5t-106.5 43.5q-73 0 -114 -56t-41 -150q0 -81 37 -123.5
t108 -42.5q73 0 113.5 55zM273 551l-117 202h87l86 -202h-56z" />
    <glyph glyph-name="uni1ECF" unicode="&#x1ecf;" horiz-adv-x="555" 
d="M152.5 22q-51.5 29 -79 82.5t-27.5 124.5q0 81 29.5 142t83 94.5t124.5 33.5q69 0 120 -29t79 -83t28 -125q0 -81 -29.5 -142t-83.5 -94t-125 -33q-68 0 -119.5 29zM386.5 115q40.5 55 40.5 150q0 80 -37.5 123.5t-106.5 43.5q-73 0 -114 -56t-41 -150q0 -81 37 -123.5
t108 -42.5q73 0 113.5 55zM330 551h-53l2 27q2 21 13.5 36t30.5 31q15 14 21.5 22t6.5 17q0 11 -10 17t-29 6q-21 0 -60 -11l-11 46q39 15 83 15q42 0 67.5 -18t25.5 -47q0 -23 -12 -38t-34 -32q-21 -16 -30 -27t-10 -27z" />
    <glyph glyph-name="ohorn" unicode="&#x1a1;" horiz-adv-x="555" 
d="M508.5 497.5q-26.5 -36.5 -74.5 -49.5q37 -32 56.5 -81t19.5 -105q0 -81 -29.5 -142t-83.5 -94t-125 -33q-68 0 -119.5 29t-79 82.5t-27.5 124.5q0 81 29.5 142t83.5 94.5t125 33.5q26 0 58 -4q17 -3 27 -3q46 0 70.5 25t28.5 84l1 15h72l-1 -26q-5 -56 -31.5 -92.5z
M386.5 115q40.5 55 40.5 150q0 80 -37.5 123.5t-106.5 43.5q-73 0 -114 -56t-41 -150q0 -81 37 -123.5t108 -42.5q73 0 113.5 55z" />
    <glyph glyph-name="uni1EDB" unicode="&#x1edb;" horiz-adv-x="555" 
d="M508.5 497.5q-26.5 -36.5 -74.5 -49.5q37 -32 56.5 -81t19.5 -105q0 -81 -29.5 -142t-83.5 -94t-125 -33q-68 0 -119.5 29t-79 82.5t-27.5 124.5q0 81 29.5 142t83.5 94.5t125 33.5q26 0 58 -4q17 -3 27 -3q46 0 70.5 25t28.5 84l1 15h72l-1 -26q-5 -56 -31.5 -92.5z
M386.5 115q40.5 55 40.5 150q0 80 -37.5 123.5t-106.5 43.5q-73 0 -114 -56t-41 -150q0 -81 37 -123.5t108 -42.5q73 0 113.5 55zM329 551h-56l113 202h97z" />
    <glyph glyph-name="uni1EE3" unicode="&#x1ee3;" horiz-adv-x="555" 
d="M508.5 497.5q-26.5 -36.5 -74.5 -49.5q37 -32 56.5 -81t19.5 -105q0 -81 -29.5 -142t-83.5 -94t-125 -33q-68 0 -119.5 29t-79 82.5t-27.5 124.5q0 81 29.5 142t83.5 94.5t125 33.5q26 0 58 -4q17 -3 27 -3q46 0 70.5 25t28.5 84l1 15h72l-1 -26q-5 -56 -31.5 -92.5z
M386.5 115q40.5 55 40.5 150q0 80 -37.5 123.5t-106.5 43.5q-73 0 -114 -56t-41 -150q0 -81 37 -123.5t108 -42.5q73 0 113.5 55zM205 -94h92l-8 -88h-92z" />
    <glyph glyph-name="uni1EDD" unicode="&#x1edd;" horiz-adv-x="555" 
d="M508.5 497.5q-26.5 -36.5 -74.5 -49.5q37 -32 56.5 -81t19.5 -105q0 -81 -29.5 -142t-83.5 -94t-125 -33q-68 0 -119.5 29t-79 82.5t-27.5 124.5q0 81 29.5 142t83.5 94.5t125 33.5q26 0 58 -4q17 -3 27 -3q46 0 70.5 25t28.5 84l1 15h72l-1 -26q-5 -56 -31.5 -92.5z
M386.5 115q40.5 55 40.5 150q0 80 -37.5 123.5t-106.5 43.5q-73 0 -114 -56t-41 -150q0 -81 37 -123.5t108 -42.5q73 0 113.5 55zM273 551l-117 202h87l86 -202h-56z" />
    <glyph glyph-name="uni1EDF" unicode="&#x1edf;" horiz-adv-x="555" 
d="M508.5 497.5q-26.5 -36.5 -74.5 -49.5q37 -32 56.5 -81t19.5 -105q0 -81 -29.5 -142t-83.5 -94t-125 -33q-68 0 -119.5 29t-79 82.5t-27.5 124.5q0 81 29.5 142t83.5 94.5t125 33.5q26 0 58 -4q17 -3 27 -3q46 0 70.5 25t28.5 84l1 15h72l-1 -26q-5 -56 -31.5 -92.5z
M386.5 115q40.5 55 40.5 150q0 80 -37.5 123.5t-106.5 43.5q-73 0 -114 -56t-41 -150q0 -81 37 -123.5t108 -42.5q73 0 113.5 55zM330 551h-53l2 27q2 21 13.5 36t30.5 31q15 14 21.5 22t6.5 17q0 11 -10 17t-29 6q-21 0 -60 -11l-11 46q39 15 83 15q42 0 67.5 -18t25.5 -47
q0 -23 -12 -38t-34 -32q-21 -16 -30 -27t-10 -27z" />
    <glyph glyph-name="uni1EE1" unicode="&#x1ee1;" horiz-adv-x="555" 
d="M508.5 497.5q-26.5 -36.5 -74.5 -49.5q37 -32 56.5 -81t19.5 -105q0 -81 -29.5 -142t-83.5 -94t-125 -33q-68 0 -119.5 29t-79 82.5t-27.5 124.5q0 81 29.5 142t83.5 94.5t125 33.5q26 0 58 -4q17 -3 27 -3q46 0 70.5 25t28.5 84l1 15h72l-1 -26q-5 -56 -31.5 -92.5z
M386.5 115q40.5 55 40.5 150q0 80 -37.5 123.5t-106.5 43.5q-73 0 -114 -56t-41 -150q0 -81 37 -123.5t108 -42.5q73 0 113.5 55zM173.5 683q26.5 29 67.5 29q20 0 37 -7.5t45 -24.5q19 -12 32 -18.5t25 -6.5q22 0 35 14t15 40h45q-3 -56 -29.5 -85t-67.5 -29
q-21 0 -39.5 8.5t-42.5 24.5q-21 13 -33 18.5t-23 5.5q-22 0 -36 -14.5t-16 -39.5h-44q3 56 29.5 85z" />
    <glyph glyph-name="ohungarumlaut" unicode="&#x151;" horiz-adv-x="555" 
d="M152.5 22q-51.5 29 -79 82.5t-27.5 124.5q0 81 29.5 142t83 94.5t124.5 33.5q69 0 120 -29t79 -83t28 -125q0 -81 -29.5 -142t-83.5 -94t-125 -33q-68 0 -119.5 29zM386.5 115q40.5 55 40.5 150q0 80 -37.5 123.5t-106.5 43.5q-73 0 -114 -56t-41 -150q0 -81 37 -123.5
t108 -42.5q73 0 113.5 55zM261 551h-41l61 202h76zM382 551h-41l60 202h77z" />
    <glyph glyph-name="uni020F" unicode="&#x20f;" horiz-adv-x="555" 
d="M152.5 22q-51.5 29 -79 82.5t-27.5 124.5q0 81 29.5 142t83 94.5t124.5 33.5q69 0 120 -29t79 -83t28 -125q0 -81 -29.5 -142t-83.5 -94t-125 -33q-68 0 -119.5 29zM386.5 115q40.5 55 40.5 150q0 80 -37.5 123.5t-106.5 43.5q-73 0 -114 -56t-41 -150q0 -81 37 -123.5
t108 -42.5q73 0 113.5 55zM410.5 696.5q42.5 -31.5 59.5 -94.5l-52 -22q-34 88 -109 88q-36 0 -65.5 -20t-53.5 -68l-50 21q26 65 71.5 96t101.5 31q55 0 97.5 -31.5z" />
    <glyph glyph-name="omacron" unicode="&#x14d;" horiz-adv-x="555" 
d="M152.5 22q-51.5 29 -79 82.5t-27.5 124.5q0 81 29.5 142t83 94.5t124.5 33.5q69 0 120 -29t79 -83t28 -125q0 -81 -29.5 -142t-83.5 -94t-125 -33q-68 0 -119.5 29zM386.5 115q40.5 55 40.5 150q0 80 -37.5 123.5t-106.5 43.5q-73 0 -114 -56t-41 -150q0 -81 37 -123.5
t108 -42.5q73 0 113.5 55zM157 622l5 61h299l-5 -61h-299z" />
    <glyph glyph-name="uni1E53" unicode="&#x1e53;" horiz-adv-x="555" 
d="M152.5 22q-51.5 29 -79 82.5t-27.5 124.5q0 81 29.5 142t83 94.5t124.5 33.5q69 0 120 -29t79 -83t28 -125q0 -81 -29.5 -142t-83.5 -94t-125 -33q-68 0 -119.5 29zM386.5 115q40.5 55 40.5 150q0 80 -37.5 123.5t-106.5 43.5q-73 0 -114 -56t-41 -150q0 -81 37 -123.5
t108 -42.5q73 0 113.5 55zM157 622l5 61h299l-5 -61h-299zM344 744h-56l113 202h97z" />
    <glyph glyph-name="uni1E51" unicode="&#x1e51;" horiz-adv-x="555" 
d="M152.5 22q-51.5 29 -79 82.5t-27.5 124.5q0 81 29.5 142t83 94.5t124.5 33.5q69 0 120 -29t79 -83t28 -125q0 -81 -29.5 -142t-83.5 -94t-125 -33q-68 0 -119.5 29zM386.5 115q40.5 55 40.5 150q0 80 -37.5 123.5t-106.5 43.5q-73 0 -114 -56t-41 -150q0 -81 37 -123.5
t108 -42.5q73 0 113.5 55zM157 622l5 61h299l-5 -61h-299zM288 744l-117 202h87l86 -202h-56z" />
    <glyph glyph-name="uni01EB" unicode="&#x1eb;" horiz-adv-x="555" 
d="M276.5 -30.5q-21.5 -19.5 -21.5 -50.5q0 -29 15.5 -44t43.5 -15q26 0 60 17l13 -47q-39 -23 -84 -23q-51 0 -81.5 27.5t-30.5 71.5q0 57 41 89q-85 12 -135.5 74.5t-50.5 159.5q0 81 29.5 142t83 94.5t124.5 33.5q69 0 120 -29t79 -83t28 -125q0 -108 -46.5 -172.5
t-119.5 -86.5q-46 -14 -67.5 -33.5zM165 102.5q37 -42.5 108 -42.5q73 0 113.5 55t40.5 150q0 80 -37.5 123.5t-106.5 43.5q-73 0 -114 -56t-41 -150q0 -81 37 -123.5z" />
    <glyph glyph-name="oslash" unicode="&#xf8;" horiz-adv-x="555" 
d="M492 365q18 -46 18 -103q0 -81 -29.5 -142t-83.5 -94t-125 -33q-62 0 -112 25l-42 -64l-46 29l44 66q-34 31 -52 77t-18 103q0 81 29.5 142t83 94.5t124.5 33.5q63 0 113 -25l42 63l46 -28l-44 -66q34 -32 52 -78zM157 112l200 303q-31 17 -74 17q-74 0 -114.5 -55.5
t-40.5 -150.5q0 -71 29 -114zM387.5 114.5q40.5 55.5 40.5 150.5q0 72 -30 114l-200 -303q32 -17 75 -17q74 0 114.5 55.5z" />
    <glyph glyph-name="oslashacute" unicode="&#x1ff;" horiz-adv-x="555" 
d="M492 365q18 -46 18 -103q0 -81 -29.5 -142t-83.5 -94t-125 -33q-62 0 -112 25l-42 -64l-46 29l44 66q-34 31 -52 77t-18 103q0 81 29.5 142t83 94.5t124.5 33.5q63 0 113 -25l42 63l46 -28l-44 -66q34 -32 52 -78zM157 112l200 303q-31 17 -74 17q-74 0 -114.5 -55.5
t-40.5 -150.5q0 -71 29 -114zM387.5 114.5q40.5 55.5 40.5 150.5q0 72 -30 114l-200 -303q32 -17 75 -17q74 0 114.5 55.5zM329 551h-56l113 202h97z" />
    <glyph glyph-name="otilde" unicode="&#xf5;" horiz-adv-x="555" 
d="M152.5 22q-51.5 29 -79 82.5t-27.5 124.5q0 81 29.5 142t83 94.5t124.5 33.5q69 0 120 -29t79 -83t28 -125q0 -81 -29.5 -142t-83.5 -94t-125 -33q-68 0 -119.5 29zM386.5 115q40.5 55 40.5 150q0 80 -37.5 123.5t-106.5 43.5q-73 0 -114 -56t-41 -150q0 -81 37 -123.5
t108 -42.5q73 0 113.5 55zM173.5 683q26.5 29 67.5 29q20 0 37 -7.5t45 -24.5q19 -12 32 -18.5t25 -6.5q22 0 35 14t15 40h45q-3 -56 -29.5 -85t-67.5 -29q-21 0 -39.5 8.5t-42.5 24.5q-21 13 -33 18.5t-23 5.5q-22 0 -36 -14.5t-16 -39.5h-44q3 56 29.5 85z" />
    <glyph glyph-name="uni1E4D" unicode="&#x1e4d;" horiz-adv-x="555" 
d="M152.5 22q-51.5 29 -79 82.5t-27.5 124.5q0 81 29.5 142t83 94.5t124.5 33.5q69 0 120 -29t79 -83t28 -125q0 -81 -29.5 -142t-83.5 -94t-125 -33q-68 0 -119.5 29zM386.5 115q40.5 55 40.5 150q0 80 -37.5 123.5t-106.5 43.5q-73 0 -114 -56t-41 -150q0 -81 37 -123.5
t108 -42.5q73 0 113.5 55zM173.5 683q26.5 29 67.5 29q20 0 37 -7.5t45 -24.5q19 -12 32 -18.5t25 -6.5q22 0 35 14t15 40h45q-3 -56 -29.5 -85t-67.5 -29q-21 0 -39.5 8.5t-42.5 24.5q-21 13 -33 18.5t-23 5.5q-22 0 -36 -14.5t-16 -39.5h-44q3 56 29.5 85zM344 744h-56
l113 202h97z" />
    <glyph glyph-name="uni1E4F" unicode="&#x1e4f;" horiz-adv-x="555" 
d="M152.5 22q-51.5 29 -79 82.5t-27.5 124.5q0 81 29.5 142t83 94.5t124.5 33.5q69 0 120 -29t79 -83t28 -125q0 -81 -29.5 -142t-83.5 -94t-125 -33q-68 0 -119.5 29zM386.5 115q40.5 55 40.5 150q0 80 -37.5 123.5t-106.5 43.5q-73 0 -114 -56t-41 -150q0 -81 37 -123.5
t108 -42.5q73 0 113.5 55zM173.5 683q26.5 29 67.5 29q20 0 37 -7.5t45 -24.5q19 -12 32 -18.5t25 -6.5q22 0 35 14t15 40h45q-3 -56 -29.5 -85t-67.5 -29q-21 0 -39.5 8.5t-42.5 24.5q-21 13 -33 18.5t-23 5.5q-22 0 -36 -14.5t-16 -39.5h-44q3 56 29.5 85zM198 888h89
l-7 -85h-89zM369 888h89l-7 -85h-89z" />
    <glyph glyph-name="uni022D" unicode="&#x22d;" horiz-adv-x="555" 
d="M152.5 22q-51.5 29 -79 82.5t-27.5 124.5q0 81 29.5 142t83 94.5t124.5 33.5q69 0 120 -29t79 -83t28 -125q0 -81 -29.5 -142t-83.5 -94t-125 -33q-68 0 -119.5 29zM386.5 115q40.5 55 40.5 150q0 80 -37.5 123.5t-106.5 43.5q-73 0 -114 -56t-41 -150q0 -81 37 -123.5
t108 -42.5q73 0 113.5 55zM173.5 683q26.5 29 67.5 29q20 0 37 -7.5t45 -24.5q19 -12 32 -18.5t25 -6.5q22 0 35 14t15 40h45q-3 -56 -29.5 -85t-67.5 -29q-21 0 -39.5 8.5t-42.5 24.5q-21 13 -33 18.5t-23 5.5q-22 0 -36 -14.5t-16 -39.5h-44q3 56 29.5 85zM172 815l5 61
h299l-5 -61h-299z" />
    <glyph glyph-name="oe" unicode="&#x153;" horiz-adv-x="904" 
d="M507 231v-4q0 -80 40 -124t117 -44q39 0 78.5 14.5t74.5 42.5l22 -60q-29 -28 -79.5 -45.5t-98.5 -17.5q-71 0 -121.5 29t-76.5 83q-28 -53 -77.5 -82.5t-115.5 -29.5q-67 0 -118 29t-78.5 82.5t-27.5 124.5q0 81 29.5 142t83 94.5t124.5 33.5q140 0 190 -113
q28 54 77.5 83.5t116.5 29.5q91 0 144 -56t53 -163q0 -23 -3 -49h-354zM562.5 396.5q-40.5 -39.5 -51.5 -113.5h281q3 75 -30 114t-92 39q-67 0 -107.5 -39.5zM386 115q40 55 40 150q0 80 -37.5 123.5t-105.5 43.5q-73 0 -114 -56t-41 -150q0 -81 37 -123.5t108 -42.5
q73 0 113 55z" />
    <glyph glyph-name="p" unicode="p" horiz-adv-x="582" 
d="M438 470q47 -29 73 -82.5t26 -124.5q0 -80 -28.5 -141.5t-80.5 -95t-120 -33.5q-57 0 -99.5 24.5t-64.5 68.5l-21 -266h-81l52 667h81l-6 -74q24 40 67 63t94 23q61 0 108 -29zM413 114q41 54 41 149q0 80 -38 124.5t-107 44.5q-72 0 -113 -54.5t-41 -149.5
q0 -82 37.5 -125t108.5 -43t112 54z" />
    <glyph glyph-name="thorn" unicode="&#xfe;" horiz-adv-x="582" 
d="M438 470q47 -29 73 -82.5t26 -124.5q0 -80 -28.5 -141.5t-80.5 -95t-120 -33.5q-57 0 -99.5 24.5t-64.5 68.5l-21 -266h-81l70 885h81l-23 -290q25 39 67.5 61.5t92.5 22.5q61 0 108 -29zM413 114q41 54 41 149q0 80 -38 124.5t-107 44.5q-72 0 -113 -54.5t-41 -149.5
q0 -82 37.5 -125t108.5 -43t112 54z" />
    <glyph glyph-name="q" unicode="q" horiz-adv-x="582" 
d="M526 487l-53 -667h-81l20 256q-25 -39 -67.5 -61t-92.5 -22q-61 0 -108 29t-73 82t-26 124q0 80 29 141.5t81 95.5t119 34q57 0 100 -25.5t64 -70.5l7 84h81zM386 114.5q41 54.5 41 148.5q0 82 -37.5 125.5t-107.5 43.5q-72 0 -113 -54.5t-41 -149.5q0 -80 38 -124
t107 -44q72 0 113 54.5z" />
    <glyph glyph-name="r" unicode="r" horiz-adv-x="353" 
d="M365 499v-70l-55 -5q-73 -7 -109 -43t-41 -103l-23 -278h-81l39 486h78l-6 -78q26 41 67.5 62.5t103.5 26.5z" />
    <glyph glyph-name="racute" unicode="&#x155;" horiz-adv-x="353" 
d="M365 499v-70l-55 -5q-73 -7 -109 -43t-41 -103l-23 -278h-81l39 486h78l-6 -78q26 41 67.5 62.5t103.5 26.5zM266 551h-56l113 202h97z" />
    <glyph glyph-name="rcaron" unicode="&#x159;" horiz-adv-x="353" 
d="M365 499v-70l-55 -5q-73 -7 -109 -43t-41 -103l-23 -278h-81l39 486h78l-6 -78q26 41 67.5 62.5t103.5 26.5zM324 753h76l-133 -202h-57l-102 202h73l61 -143z" />
    <glyph glyph-name="rcommaaccent" unicode="&#x157;" horiz-adv-x="353" 
d="M365 499v-70l-55 -5q-73 -7 -109 -43t-41 -103l-23 -278h-81l39 486h78l-6 -78q26 41 67.5 62.5t103.5 26.5zM140 -72l-4 -58q-3 -39 -17 -70.5t-44 -58.5l-35 27q20 19 29.5 37t12.5 40h-46l6 83h98z" />
    <glyph glyph-name="uni0211" unicode="&#x211;" horiz-adv-x="353" 
d="M365 499v-70l-55 -5q-73 -7 -109 -43t-41 -103l-23 -278h-81l39 486h78l-6 -78q26 41 67.5 62.5t103.5 26.5zM157 551l-61 202h72l30 -202h-41zM278 551l-61 202h71l31 -202h-41z" />
    <glyph glyph-name="uni1E5B" unicode="&#x1e5b;" horiz-adv-x="353" 
d="M365 499v-70l-55 -5q-73 -7 -109 -43t-41 -103l-23 -278h-81l39 486h78l-6 -78q26 41 67.5 62.5t103.5 26.5zM44 -94h92l-8 -88h-92z" />
    <glyph glyph-name="uni0213" unicode="&#x213;" horiz-adv-x="353" 
d="M365 499v-70l-55 -5q-73 -7 -109 -43t-41 -103l-23 -278h-81l39 486h78l-6 -78q26 41 67.5 62.5t103.5 26.5zM347.5 696.5q42.5 -31.5 59.5 -94.5l-52 -22q-34 88 -109 88q-36 0 -65.5 -20t-53.5 -68l-50 21q26 65 71.5 96t101.5 31q55 0 97.5 -31.5z" />
    <glyph glyph-name="uni1E5F" unicode="&#x1e5f;" horiz-adv-x="353" 
d="M365 499v-70l-55 -5q-73 -7 -109 -43t-41 -103l-23 -278h-81l39 486h78l-6 -78q26 41 67.5 62.5t103.5 26.5zM-66 -168l5 59h299l-5 -59h-299z" />
    <glyph glyph-name="s" unicode="s" horiz-adv-x="480" 
d="M120 9.5q-51 16.5 -90 46.5l32 60q40 -30 80 -44t87 -14q117 0 117 72q0 33 -28 49t-88 34q-52 15 -83.5 29t-54 40.5t-22.5 70.5q0 66 53 106t140 40q52 0 98.5 -17t77.5 -47l-32 -59q-66 57 -144 57q-55 0 -84.5 -19.5t-29.5 -56.5q0 -33 28.5 -49t86.5 -33
q51 -15 83 -29t54.5 -41t22.5 -71q0 -65 -54 -103t-143 -38q-56 0 -107 16.5z" />
    <glyph glyph-name="sacute" unicode="&#x15b;" horiz-adv-x="480" 
d="M120 9.5q-51 16.5 -90 46.5l32 60q40 -30 80 -44t87 -14q117 0 117 72q0 33 -28 49t-88 34q-52 15 -83.5 29t-54 40.5t-22.5 70.5q0 66 53 106t140 40q52 0 98.5 -17t77.5 -47l-32 -59q-66 57 -144 57q-55 0 -84.5 -19.5t-29.5 -56.5q0 -33 28.5 -49t86.5 -33
q51 -15 83 -29t54.5 -41t22.5 -71q0 -65 -54 -103t-143 -38q-56 0 -107 16.5zM301 551h-56l113 202h97z" />
    <glyph glyph-name="uni1E65" unicode="&#x1e65;" horiz-adv-x="480" 
d="M120 9.5q-51 16.5 -90 46.5l32 60q40 -30 80 -44t87 -14q117 0 117 72q0 33 -28 49t-88 34q-52 15 -83.5 29t-54 40.5t-22.5 70.5q0 66 53 106t140 40q52 0 98.5 -17t77.5 -47l-32 -59q-66 57 -144 57q-55 0 -84.5 -19.5t-29.5 -56.5q0 -33 28.5 -49t86.5 -33
q51 -15 83 -29t54.5 -41t22.5 -71q0 -65 -54 -103t-143 -38q-56 0 -107 16.5zM305 551h-56l113 202h97zM141 753h98l-7 -91h-99z" />
    <glyph glyph-name="scaron" unicode="&#x161;" horiz-adv-x="480" 
d="M120 9.5q-51 16.5 -90 46.5l32 60q40 -30 80 -44t87 -14q117 0 117 72q0 33 -28 49t-88 34q-52 15 -83.5 29t-54 40.5t-22.5 70.5q0 66 53 106t140 40q52 0 98.5 -17t77.5 -47l-32 -59q-66 57 -144 57q-55 0 -84.5 -19.5t-29.5 -56.5q0 -33 28.5 -49t86.5 -33
q51 -15 83 -29t54.5 -41t22.5 -71q0 -65 -54 -103t-143 -38q-56 0 -107 16.5zM359 753h76l-133 -202h-57l-102 202h73l61 -143z" />
    <glyph glyph-name="uni1E67" unicode="&#x1e67;" horiz-adv-x="480" 
d="M120 9.5q-51 16.5 -90 46.5l32 60q40 -30 80 -44t87 -14q117 0 117 72q0 33 -28 49t-88 34q-52 15 -83.5 29t-54 40.5t-22.5 70.5q0 66 53 106t140 40q52 0 98.5 -17t77.5 -47l-32 -59q-66 57 -144 57q-55 0 -84.5 -19.5t-29.5 -56.5q0 -33 28.5 -49t86.5 -33
q51 -15 83 -29t54.5 -41t22.5 -71q0 -65 -54 -103t-143 -38q-56 0 -107 16.5zM359 753h76l-133 -202h-57l-102 202h73l61 -143zM251 891h98l-7 -91h-99z" />
    <glyph glyph-name="scedilla" unicode="&#x15f;" horiz-adv-x="480" 
d="M177.5 308q28.5 -16 86.5 -33q51 -15 83 -29t54.5 -41t22.5 -71q0 -63 -50.5 -101t-135.5 -40l-7 -35q6 1 19 1q34 0 54.5 -17.5t20.5 -49.5q0 -38 -31 -61.5t-86 -23.5q-22 0 -47 5t-43 14l14 43q39 -14 76 -14q27 0 42 9t15 26q0 13 -9 20t-26 7q-21 0 -44 -9l-18 16
l14 72q-87 11 -152 60l32 60q40 -30 80 -44t87 -14q117 0 117 72q0 33 -28 49t-88 34q-52 15 -83.5 29t-54 40.5t-22.5 70.5q0 66 53 106t140 40q52 0 98.5 -17t77.5 -47l-32 -59q-66 57 -144 57q-55 0 -84.5 -19.5t-29.5 -56.5q0 -33 28.5 -49z" />
    <glyph glyph-name="scircumflex" unicode="&#x15d;" horiz-adv-x="480" 
d="M120 9.5q-51 16.5 -90 46.5l32 60q40 -30 80 -44t87 -14q117 0 117 72q0 33 -28 49t-88 34q-52 15 -83.5 29t-54 40.5t-22.5 70.5q0 66 53 106t140 40q52 0 98.5 -17t77.5 -47l-32 -59q-66 57 -144 57q-55 0 -84.5 -19.5t-29.5 -56.5q0 -33 28.5 -49t86.5 -33
q51 -15 83 -29t54.5 -41t22.5 -71q0 -65 -54 -103t-143 -38q-56 0 -107 16.5zM203 551h-76l134 202h57l101 -202h-72l-62 143z" />
    <glyph glyph-name="scommaaccent" unicode="&#x219;" horiz-adv-x="480" 
d="M120 9.5q-51 16.5 -90 46.5l32 60q40 -30 80 -44t87 -14q117 0 117 72q0 33 -28 49t-88 34q-52 15 -83.5 29t-54 40.5t-22.5 70.5q0 66 53 106t140 40q52 0 98.5 -17t77.5 -47l-32 -59q-66 57 -144 57q-55 0 -84.5 -19.5t-29.5 -56.5q0 -33 28.5 -49t86.5 -33
q51 -15 83 -29t54.5 -41t22.5 -71q0 -65 -54 -103t-143 -38q-56 0 -107 16.5zM263 -72l-4 -58q-3 -39 -17 -70.5t-44 -58.5l-35 27q20 19 29.5 37t12.5 40h-46l6 83h98z" />
    <glyph glyph-name="uni1E61" unicode="&#x1e61;" horiz-adv-x="480" 
d="M120 9.5q-51 16.5 -90 46.5l32 60q40 -30 80 -44t87 -14q117 0 117 72q0 33 -28 49t-88 34q-52 15 -83.5 29t-54 40.5t-22.5 70.5q0 66 53 106t140 40q52 0 98.5 -17t77.5 -47l-32 -59q-66 57 -144 57q-55 0 -84.5 -19.5t-29.5 -56.5q0 -33 28.5 -49t86.5 -33
q51 -15 83 -29t54.5 -41t22.5 -71q0 -65 -54 -103t-143 -38q-56 0 -107 16.5zM236 698h98l-7 -91h-99z" />
    <glyph glyph-name="uni1E63" unicode="&#x1e63;" horiz-adv-x="480" 
d="M120 9.5q-51 16.5 -90 46.5l32 60q40 -30 80 -44t87 -14q117 0 117 72q0 33 -28 49t-88 34q-52 15 -83.5 29t-54 40.5t-22.5 70.5q0 66 53 106t140 40q52 0 98.5 -17t77.5 -47l-32 -59q-66 57 -144 57q-55 0 -84.5 -19.5t-29.5 -56.5q0 -33 28.5 -49t86.5 -33
q51 -15 83 -29t54.5 -41t22.5 -71q0 -65 -54 -103t-143 -38q-56 0 -107 16.5zM167 -94h92l-8 -88h-92z" />
    <glyph glyph-name="uni1E69" unicode="&#x1e69;" horiz-adv-x="480" 
d="M120 9.5q-51 16.5 -90 46.5l32 60q40 -30 80 -44t87 -14q117 0 117 72q0 33 -28 49t-88 34q-52 15 -83.5 29t-54 40.5t-22.5 70.5q0 66 53 106t140 40q52 0 98.5 -17t77.5 -47l-32 -59q-66 57 -144 57q-55 0 -84.5 -19.5t-29.5 -56.5q0 -33 28.5 -49t86.5 -33
q51 -15 83 -29t54.5 -41t22.5 -71q0 -65 -54 -103t-143 -38q-56 0 -107 16.5zM167 -94h92l-8 -88h-92zM236 698h98l-7 -91h-99z" />
    <glyph glyph-name="germandbls" unicode="&#xdf;" horiz-adv-x="616" 
d="M94 482q9 113 72.5 170.5t164.5 57.5q76 0 121 -32t45 -89q0 -44 -23 -75t-66 -68q-33 -28 -48 -46t-15 -40q0 -29 23.5 -44.5t73.5 -34.5q44 -16 71 -30.5t46 -40.5t19 -66q0 -67 -51.5 -109t-138.5 -42q-50 0 -98.5 16.5t-84.5 46.5l32 60q40 -29 78 -43t79 -14
q48 0 76.5 21t28.5 58q0 30 -24.5 46t-75.5 35q-43 16 -70 29.5t-45.5 37.5t-18.5 62q0 40 21.5 68.5t62.5 62.5q36 31 53 52.5t17 49.5q0 30 -23.5 47t-66.5 17q-141 0 -153 -161l-39 -484h-81z" />
    <glyph glyph-name="t" unicode="t" horiz-adv-x="340" 
d="M178 176q-1 -7 -1 -19q0 -99 98 -99q24 0 44 4l-9 -64q-21 -5 -47 -5q-81 0 -124 41t-43 116q0 14 1 22l20 251h-95l4 64h95l12 148h81l-12 -148h139l-5 -64h-139z" />
    <glyph glyph-name="tbar" unicode="&#x167;" horiz-adv-x="350" 
d="M202 423l-8 -112h118l-5 -62h-118l-6 -73q-1 -7 -1 -19q0 -99 98 -99q24 0 44 4l-9 -64q-21 -5 -47 -5q-81 0 -124 41t-43 116q0 14 1 22l6 77h-76l5 62h76l9 112h-95l4 64h95l12 148h81l-12 -148h139l-5 -64h-139z" />
    <glyph glyph-name="tcaron" unicode="&#x165;" horiz-adv-x="340" 
d="M348 705l-44 -171h-45l15 171h74zM202 487h139l-5 -64h-139l-19 -247q-1 -7 -1 -19q0 -99 98 -99q24 0 44 4l-9 -64q-21 -5 -47 -5q-81 0 -124 41t-43 116q0 14 1 22l20 251h-95l4 64h95l12 148h81z" />
    <glyph glyph-name="uni0163" unicode="&#x163;" horiz-adv-x="340" 
d="M178 176q-1 -7 -1 -19q0 -99 98 -99q24 0 44 4l-9 -64q-21 -5 -47 -5t-45 4l-7 -39q6 1 19 1q34 0 54.5 -17.5t20.5 -49.5q0 -38 -31 -61.5t-86 -23.5q-22 0 -47 5t-43 14l14 43q39 -14 76 -14q27 0 42 9t15 26q0 13 -9 20t-26 7q-21 0 -44 -9l-18 16l18 91
q-70 38 -70 135q0 14 1 22l20 251h-95l4 64h95l12 148h81l-12 -148h139l-5 -64h-139z" />
    <glyph glyph-name="uni021B" unicode="&#x21b;" horiz-adv-x="340" 
d="M178 176q-1 -7 -1 -19q0 -99 98 -99q24 0 44 4l-9 -64q-21 -5 -47 -5q-81 0 -124 41t-43 116q0 14 1 22l20 251h-95l4 64h95l12 148h81l-12 -148h139l-5 -64h-139zM243 -72l-4 -58q-3 -39 -17 -70.5t-44 -58.5l-35 27q20 19 29.5 37t12.5 40h-46l6 83h98z" />
    <glyph glyph-name="uni1E97" unicode="&#x1e97;" horiz-adv-x="340" 
d="M178 176q-1 -7 -1 -19q0 -99 98 -99q24 0 44 4l-9 -64q-21 -5 -47 -5q-81 0 -124 41t-43 116q0 14 1 22l20 251h-95l4 64h95l12 148h81l-12 -148h139l-5 -64h-139zM59 815h89l-7 -86h-89zM230 815h89l-7 -86h-89z" />
    <glyph glyph-name="uni1E6D" unicode="&#x1e6d;" horiz-adv-x="340" 
d="M178 176q-1 -7 -1 -19q0 -99 98 -99q24 0 44 4l-9 -64q-21 -5 -47 -5q-81 0 -124 41t-43 116q0 14 1 22l20 251h-95l4 64h95l12 148h81l-12 -148h139l-5 -64h-139zM147 -94h92l-8 -88h-92z" />
    <glyph glyph-name="uni1E6F" unicode="&#x1e6f;" horiz-adv-x="340" 
d="M178 176q-1 -7 -1 -19q0 -99 98 -99q24 0 44 4l-9 -64q-21 -5 -47 -5q-81 0 -124 41t-43 116q0 14 1 22l20 251h-95l4 64h95l12 148h81l-12 -148h139l-5 -64h-139zM37 -168l5 59h299l-5 -59h-299z" />
    <glyph glyph-name="u" unicode="u" horiz-adv-x="561" 
d="M504 487l-38 -487h-79l6 79q-25 -41 -67 -63.5t-94 -22.5q-81 0 -123 42.5t-42 124.5q0 18 1 27l24 300h81l-24 -295q-1 -7 -1 -21q0 -110 105 -110q65 0 104 40t44 111l22 275h81z" />
    <glyph glyph-name="uacute" unicode="&#xfa;" horiz-adv-x="561" 
d="M504 487l-38 -487h-79l6 79q-25 -41 -67 -63.5t-94 -22.5q-81 0 -123 42.5t-42 124.5q0 18 1 27l24 300h81l-24 -295q-1 -7 -1 -21q0 -110 105 -110q65 0 104 40t44 111l22 275h81zM332 551h-56l113 202h97z" />
    <glyph glyph-name="ubreve" unicode="&#x16d;" horiz-adv-x="561" 
d="M504 487l-38 -487h-79l6 79q-25 -41 -67 -63.5t-94 -22.5q-81 0 -123 42.5t-42 124.5q0 18 1 27l24 300h81l-24 -295q-1 -7 -1 -21q0 -110 105 -110q65 0 104 40t44 111l22 275h81zM211 612.5q-42 31.5 -59 95.5l52 21q34 -88 108 -88q36 0 65.5 20t54.5 68l49 -21
q-25 -65 -71 -96t-102 -31q-55 0 -97 31.5z" />
    <glyph glyph-name="ucircumflex" unicode="&#xfb;" horiz-adv-x="561" 
d="M504 487l-38 -487h-79l6 79q-25 -41 -67 -63.5t-94 -22.5q-81 0 -123 42.5t-42 124.5q0 18 1 27l24 300h81l-24 -295q-1 -7 -1 -21q0 -110 105 -110q65 0 104 40t44 111l22 275h81zM234 551h-76l134 202h57l101 -202h-72l-62 143z" />
    <glyph glyph-name="uni0215" unicode="&#x215;" horiz-adv-x="561" 
d="M504 487l-38 -487h-79l6 79q-25 -41 -67 -63.5t-94 -22.5q-81 0 -123 42.5t-42 124.5q0 18 1 27l24 300h81l-24 -295q-1 -7 -1 -21q0 -110 105 -110q65 0 104 40t44 111l22 275h81zM223 551l-61 202h72l30 -202h-41zM344 551l-61 202h71l31 -202h-41z" />
    <glyph glyph-name="udieresis" unicode="&#xfc;" horiz-adv-x="561" 
d="M504 487l-38 -487h-79l6 79q-25 -41 -67 -63.5t-94 -22.5q-81 0 -123 42.5t-42 124.5q0 18 1 27l24 300h81l-24 -295q-1 -7 -1 -21q0 -110 105 -110q65 0 104 40t44 111l22 275h81zM186 695h89l-7 -85h-89zM357 695h89l-7 -85h-89z" />
    <glyph glyph-name="uni1EE5" unicode="&#x1ee5;" horiz-adv-x="561" 
d="M504 487l-38 -487h-79l6 79q-25 -41 -67 -63.5t-94 -22.5q-81 0 -123 42.5t-42 124.5q0 18 1 27l24 300h81l-24 -295q-1 -7 -1 -21q0 -110 105 -110q65 0 104 40t44 111l22 275h81zM208 -94h92l-8 -88h-92z" />
    <glyph glyph-name="ugrave" unicode="&#xf9;" horiz-adv-x="561" 
d="M504 487l-38 -487h-79l6 79q-25 -41 -67 -63.5t-94 -22.5q-81 0 -123 42.5t-42 124.5q0 18 1 27l24 300h81l-24 -295q-1 -7 -1 -21q0 -110 105 -110q65 0 104 40t44 111l22 275h81zM276 551l-117 202h87l86 -202h-56z" />
    <glyph glyph-name="uni1EE7" unicode="&#x1ee7;" horiz-adv-x="561" 
d="M504 487l-38 -487h-79l6 79q-25 -41 -67 -63.5t-94 -22.5q-81 0 -123 42.5t-42 124.5q0 18 1 27l24 300h81l-24 -295q-1 -7 -1 -21q0 -110 105 -110q65 0 104 40t44 111l22 275h81zM333 551h-53l2 27q2 21 13.5 36t30.5 31q15 14 21.5 22t6.5 17q0 11 -10 17t-29 6
q-21 0 -60 -11l-11 46q39 15 83 15q42 0 67.5 -18t25.5 -47q0 -23 -12 -38t-34 -32q-21 -16 -30 -27t-10 -27z" />
    <glyph glyph-name="uhorn" unicode="&#x1b0;" horiz-adv-x="575" 
d="M631 616l-1 -26q-4 -61 -38.5 -99.5t-90.5 -47.5l-35 -443h-79l6 79q-25 -41 -67 -63.5t-94 -22.5q-81 0 -123 42.5t-42 124.5q0 18 1 27l24 300h81l-24 -295q-1 -7 -1 -21q0 -110 105 -110q65 0 104 40t44 111l22 275h24q54 0 80.5 27t30.5 87l1 15h72z" />
    <glyph glyph-name="uni1EE9" unicode="&#x1ee9;" horiz-adv-x="575" 
d="M631 616l-1 -26q-4 -61 -38.5 -99.5t-90.5 -47.5l-35 -443h-79l6 79q-25 -41 -67 -63.5t-94 -22.5q-81 0 -123 42.5t-42 124.5q0 18 1 27l24 300h81l-24 -295q-1 -7 -1 -21q0 -110 105 -110q65 0 104 40t44 111l22 275h24q54 0 80.5 27t30.5 87l1 15h72zM332 551h-56
l113 202h97z" />
    <glyph glyph-name="uni1EF1" unicode="&#x1ef1;" horiz-adv-x="575" 
d="M631 616l-1 -26q-4 -61 -38.5 -99.5t-90.5 -47.5l-35 -443h-79l6 79q-25 -41 -67 -63.5t-94 -22.5q-81 0 -123 42.5t-42 124.5q0 18 1 27l24 300h81l-24 -295q-1 -7 -1 -21q0 -110 105 -110q65 0 104 40t44 111l22 275h24q54 0 80.5 27t30.5 87l1 15h72zM208 -94h92
l-8 -88h-92z" />
    <glyph glyph-name="uni1EEB" unicode="&#x1eeb;" horiz-adv-x="575" 
d="M631 616l-1 -26q-4 -61 -38.5 -99.5t-90.5 -47.5l-35 -443h-79l6 79q-25 -41 -67 -63.5t-94 -22.5q-81 0 -123 42.5t-42 124.5q0 18 1 27l24 300h81l-24 -295q-1 -7 -1 -21q0 -110 105 -110q65 0 104 40t44 111l22 275h24q54 0 80.5 27t30.5 87l1 15h72zM276 551
l-117 202h87l86 -202h-56z" />
    <glyph glyph-name="uni1EED" unicode="&#x1eed;" horiz-adv-x="575" 
d="M631 616l-1 -26q-4 -61 -38.5 -99.5t-90.5 -47.5l-35 -443h-79l6 79q-25 -41 -67 -63.5t-94 -22.5q-81 0 -123 42.5t-42 124.5q0 18 1 27l24 300h81l-24 -295q-1 -7 -1 -21q0 -110 105 -110q65 0 104 40t44 111l22 275h24q54 0 80.5 27t30.5 87l1 15h72zM333 551h-53
l2 27q2 21 13.5 36t30.5 31q15 14 21.5 22t6.5 17q0 11 -10 17t-29 6q-21 0 -60 -11l-11 46q39 15 83 15q42 0 67.5 -18t25.5 -47q0 -23 -12 -38t-34 -32q-21 -16 -30 -27t-10 -27z" />
    <glyph glyph-name="uni1EEF" unicode="&#x1eef;" horiz-adv-x="575" 
d="M631 616l-1 -26q-4 -61 -38.5 -99.5t-90.5 -47.5l-35 -443h-79l6 79q-25 -41 -67 -63.5t-94 -22.5q-81 0 -123 42.5t-42 124.5q0 18 1 27l24 300h81l-24 -295q-1 -7 -1 -21q0 -110 105 -110q65 0 104 40t44 111l22 275h24q54 0 80.5 27t30.5 87l1 15h72zM176.5 683
q26.5 29 67.5 29q20 0 37 -7.5t45 -24.5q19 -12 32 -18.5t25 -6.5q22 0 35 14t15 40h45q-3 -56 -29.5 -85t-67.5 -29q-21 0 -39.5 8.5t-42.5 24.5q-21 13 -33 18.5t-23 5.5q-22 0 -36 -14.5t-16 -39.5h-44q3 56 29.5 85z" />
    <glyph glyph-name="uhungarumlaut" unicode="&#x171;" horiz-adv-x="561" 
d="M504 487l-38 -487h-79l6 79q-25 -41 -67 -63.5t-94 -22.5q-81 0 -123 42.5t-42 124.5q0 18 1 27l24 300h81l-24 -295q-1 -7 -1 -21q0 -110 105 -110q65 0 104 40t44 111l22 275h81zM264 551h-41l61 202h76zM385 551h-41l60 202h77z" />
    <glyph glyph-name="uni0217" unicode="&#x217;" horiz-adv-x="561" 
d="M504 487l-38 -487h-79l6 79q-25 -41 -67 -63.5t-94 -22.5q-81 0 -123 42.5t-42 124.5q0 18 1 27l24 300h81l-24 -295q-1 -7 -1 -21q0 -110 105 -110q65 0 104 40t44 111l22 275h81zM413.5 696.5q42.5 -31.5 59.5 -94.5l-52 -22q-34 88 -109 88q-36 0 -65.5 -20t-53.5 -68
l-50 21q26 65 71.5 96t101.5 31q55 0 97.5 -31.5z" />
    <glyph glyph-name="umacron" unicode="&#x16b;" horiz-adv-x="561" 
d="M504 487l-38 -487h-79l6 79q-25 -41 -67 -63.5t-94 -22.5q-81 0 -123 42.5t-42 124.5q0 18 1 27l24 300h81l-24 -295q-1 -7 -1 -21q0 -110 105 -110q65 0 104 40t44 111l22 275h81zM160 622l5 61h299l-5 -61h-299z" />
    <glyph glyph-name="uni1E7B" unicode="&#x1e7b;" horiz-adv-x="561" 
d="M504 487l-38 -487h-79l6 79q-25 -41 -67 -63.5t-94 -22.5q-81 0 -123 42.5t-42 124.5q0 18 1 27l24 300h81l-24 -295q-1 -7 -1 -21q0 -110 105 -110q65 0 104 40t44 111l22 275h81zM160 622l5 61h299l-5 -61h-299zM201 888h89l-7 -85h-89zM372 888h89l-7 -85h-89z" />
    <glyph glyph-name="uogonek" unicode="&#x173;" horiz-adv-x="561" 
d="M485 -123l12 -47q-17 -10 -39 -16.5t-45 -6.5q-51 0 -81.5 27.5t-30.5 71.5q0 40 22.5 71t65.5 47l4 55q-25 -41 -67 -63.5t-94 -22.5q-81 0 -123 42.5t-42 124.5q0 18 1 27l24 300h81l-24 -295q-1 -7 -1 -21q0 -110 105 -110q65 0 104 40t44 111l22 275h81l-38 -487h-8
q-44 0 -68.5 -23.5t-24.5 -57.5q0 -59 60 -59q26 0 60 17z" />
    <glyph glyph-name="uring" unicode="&#x16f;" horiz-adv-x="561" 
d="M504 487l-38 -487h-79l6 79q-25 -41 -67 -63.5t-94 -22.5q-81 0 -123 42.5t-42 124.5q0 18 1 27l24 300h81l-24 -295q-1 -7 -1 -21q0 -110 105 -110q65 0 104 40t44 111l22 275h81zM240.5 581.5q-29.5 28.5 -29.5 70.5t29.5 70.5t71.5 28.5t71.5 -28.5t29.5 -70.5
t-29.5 -70.5t-71.5 -28.5t-71.5 28.5zM346.5 616.5q13.5 14.5 13.5 35.5t-13.5 35.5t-34.5 14.5t-34.5 -14.5t-13.5 -35.5t13.5 -35.5t34.5 -14.5t34.5 14.5z" />
    <glyph glyph-name="utilde" unicode="&#x169;" horiz-adv-x="561" 
d="M504 487l-38 -487h-79l6 79q-25 -41 -67 -63.5t-94 -22.5q-81 0 -123 42.5t-42 124.5q0 18 1 27l24 300h81l-24 -295q-1 -7 -1 -21q0 -110 105 -110q65 0 104 40t44 111l22 275h81zM176.5 683q26.5 29 67.5 29q20 0 37 -7.5t45 -24.5q19 -12 32 -18.5t25 -6.5q22 0 35 14
t15 40h45q-3 -56 -29.5 -85t-67.5 -29q-21 0 -39.5 8.5t-42.5 24.5q-21 13 -33 18.5t-23 5.5q-22 0 -36 -14.5t-16 -39.5h-44q3 56 29.5 85z" />
    <glyph glyph-name="uni1E79" unicode="&#x1e79;" horiz-adv-x="561" 
d="M504 487l-38 -487h-79l6 79q-25 -41 -67 -63.5t-94 -22.5q-81 0 -123 42.5t-42 124.5q0 18 1 27l24 300h81l-24 -295q-1 -7 -1 -21q0 -110 105 -110q65 0 104 40t44 111l22 275h81zM176.5 683q26.5 29 67.5 29q20 0 37 -7.5t45 -24.5q19 -12 32 -18.5t25 -6.5q22 0 35 14
t15 40h45q-3 -56 -29.5 -85t-67.5 -29q-21 0 -39.5 8.5t-42.5 24.5q-21 13 -33 18.5t-23 5.5q-22 0 -36 -14.5t-16 -39.5h-44q3 56 29.5 85zM347 744h-56l113 202h97z" />
    <glyph glyph-name="v" unicode="v" horiz-adv-x="514" 
d="M441 486h83l-248 -486h-76l-171 486h83l133 -397z" />
    <glyph glyph-name="w" unicode="w" horiz-adv-x="842" 
d="M753 487h84l-220 -487h-78l-109 377l-166 -377h-77l-143 487h82l108 -391l171 391h70l109 -392z" />
    <glyph glyph-name="wacute" unicode="&#x1e83;" horiz-adv-x="842" 
d="M753 487h84l-220 -487h-78l-109 377l-166 -377h-77l-143 487h82l108 -391l171 391h70l109 -392zM473 551h-56l113 202h97z" />
    <glyph glyph-name="wcircumflex" unicode="&#x175;" horiz-adv-x="842" 
d="M753 487h84l-220 -487h-78l-109 377l-166 -377h-77l-143 487h82l108 -391l171 391h70l109 -392zM375 551h-76l134 202h57l101 -202h-72l-62 143z" />
    <glyph glyph-name="wdieresis" unicode="&#x1e85;" horiz-adv-x="842" 
d="M753 487h84l-220 -487h-78l-109 377l-166 -377h-77l-143 487h82l108 -391l171 391h70l109 -392zM327 695h89l-7 -85h-89zM498 695h89l-7 -85h-89z" />
    <glyph glyph-name="wgrave" unicode="&#x1e81;" horiz-adv-x="842" 
d="M753 487h84l-220 -487h-78l-109 377l-166 -377h-77l-143 487h82l108 -391l171 391h70l109 -392zM417 551l-117 202h87l86 -202h-56z" />
    <glyph glyph-name="x" unicode="x" horiz-adv-x="518" 
d="M517 487l-209 -237l182 -250h-98l-136 192l-166 -192h-100l222 252l-172 235h98l125 -177l155 177h99z" />
    <glyph glyph-name="y" unicode="y" horiz-adv-x="514" 
d="M441 486h83l-340 -666h-83l96 187l-168 479h83l133 -397z" />
    <glyph glyph-name="yacute" unicode="&#xfd;" horiz-adv-x="514" 
d="M441 486h83l-340 -666h-83l96 187l-168 479h83l133 -397zM310 551h-56l113 202h97z" />
    <glyph glyph-name="ycircumflex" unicode="&#x177;" horiz-adv-x="514" 
d="M441 486h83l-340 -666h-83l96 187l-168 479h83l133 -397zM212 551h-76l134 202h57l101 -202h-72l-62 143z" />
    <glyph glyph-name="ydieresis" unicode="&#xff;" horiz-adv-x="514" 
d="M441 486h83l-340 -666h-83l96 187l-168 479h83l133 -397zM164 695h89l-7 -85h-89zM335 695h89l-7 -85h-89z" />
    <glyph glyph-name="uni1E8F" unicode="&#x1e8f;" horiz-adv-x="514" 
d="M441 486h83l-340 -666h-83l96 187l-168 479h83l133 -397zM245 698h98l-7 -91h-99z" />
    <glyph glyph-name="uni1EF5" unicode="&#x1ef5;" horiz-adv-x="514" 
d="M441 486h83l-340 -666h-83l96 187l-168 479h83l133 -397zM318 -94h92l-8 -88h-92z" />
    <glyph glyph-name="ygrave" unicode="&#x1ef3;" horiz-adv-x="514" 
d="M441 486h83l-340 -666h-83l96 187l-168 479h83l133 -397zM254 551l-117 202h87l86 -202h-56z" />
    <glyph glyph-name="uni1EF7" unicode="&#x1ef7;" horiz-adv-x="514" 
d="M441 486h83l-340 -666h-83l96 187l-168 479h83l133 -397zM311 551h-53l2 27q2 21 13.5 36t30.5 31q15 14 21.5 22t6.5 17q0 11 -10 17t-29 6q-21 0 -60 -11l-11 46q39 15 83 15q42 0 67.5 -18t25.5 -47q0 -23 -12 -38t-34 -32q-21 -16 -30 -27t-10 -27z" />
    <glyph glyph-name="uni0233" unicode="&#x233;" horiz-adv-x="514" 
d="M441 486h83l-340 -666h-83l96 187l-168 479h83l133 -397zM138 622l5 61h299l-5 -61h-299z" />
    <glyph glyph-name="uni1EF9" unicode="&#x1ef9;" horiz-adv-x="514" 
d="M441 486h83l-340 -666h-83l96 187l-168 479h83l133 -397zM154.5 683q26.5 29 67.5 29q20 0 37 -7.5t45 -24.5q19 -12 32 -18.5t25 -6.5q22 0 35 14t15 40h45q-3 -56 -29.5 -85t-67.5 -29q-21 0 -39.5 8.5t-42.5 24.5q-21 13 -33 18.5t-23 5.5q-22 0 -36 -14.5t-16 -39.5
h-44q3 56 29.5 85z" />
    <glyph glyph-name="z" unicode="z" horiz-adv-x="503" 
d="M469 487l-4 -59l-327 -364h309l-5 -64h-413l5 56l328 367h-289l5 64h391z" />
    <glyph glyph-name="zacute" unicode="&#x17a;" horiz-adv-x="503" 
d="M469 487l-4 -59l-327 -364h309l-5 -64h-413l5 56l328 367h-289l5 64h391zM308 551h-56l113 202h97z" />
    <glyph glyph-name="zcaron" unicode="&#x17e;" horiz-adv-x="503" 
d="M469 487l-4 -59l-327 -364h309l-5 -64h-413l5 56l328 367h-289l5 64h391zM366 753h76l-133 -202h-57l-102 202h73l61 -143z" />
    <glyph glyph-name="zdotaccent" unicode="&#x17c;" horiz-adv-x="503" 
d="M469 487l-4 -59l-327 -364h309l-5 -64h-413l5 56l328 367h-289l5 64h391zM243 698h98l-7 -91h-99z" />
    <glyph glyph-name="uni1E93" unicode="&#x1e93;" horiz-adv-x="503" 
d="M469 487l-4 -59l-327 -364h309l-5 -64h-413l5 56l328 367h-289l5 64h391zM178 -94h92l-8 -88h-92z" />
    <glyph glyph-name="iacute_j.loclNLD" horiz-adv-x="464" 
d="M56 0l39 487h81l-39 -487h-81zM168 551h-56l113 202h97zM370 6q-8 -93 -53 -137t-141 -50l-45 -3l-3 63l47 3q54 4 81.5 30.5t31.5 81.5l39 493h81zM400 551h-56l113 202h97z" />
    <glyph glyph-name="a.ss01" horiz-adv-x="582" 
d="M526 487l-39 -487h-80l6 77q-24 -39 -66.5 -61.5t-93.5 -22.5q-62 0 -108.5 29t-72.5 82t-26 124q0 80 28.5 141.5t80.5 95.5t120 34q57 0 100 -25t64 -70l6 83h81zM387 114.5q41 54.5 41 148.5q0 82 -37.5 125.5t-108.5 43.5q-72 0 -113 -54.5t-41 -149.5q0 -80 38 -124
t108 -44q72 0 113 54.5z" />
    <glyph glyph-name="aacute.ss01" horiz-adv-x="582" 
d="M526 487l-39 -487h-80l6 77q-24 -39 -66.5 -61.5t-93.5 -22.5q-62 0 -108.5 29t-72.5 82t-26 124q0 80 28.5 141.5t80.5 95.5t120 34q57 0 100 -25t64 -70l6 83h81zM387 114.5q41 54.5 41 148.5q0 82 -37.5 125.5t-108.5 43.5q-72 0 -113 -54.5t-41 -149.5q0 -80 38 -124
t108 -44q72 0 113 54.5zM344 551h-56l113 202h97z" />
    <glyph glyph-name="abreve.ss01" horiz-adv-x="582" 
d="M526 487l-39 -487h-80l6 77q-24 -39 -66.5 -61.5t-93.5 -22.5q-62 0 -108.5 29t-72.5 82t-26 124q0 80 28.5 141.5t80.5 95.5t120 34q57 0 100 -25t64 -70l6 83h81zM387 114.5q41 54.5 41 148.5q0 82 -37.5 125.5t-108.5 43.5q-72 0 -113 -54.5t-41 -149.5q0 -80 38 -124
t108 -44q72 0 113 54.5zM223 612.5q-42 31.5 -59 95.5l52 21q34 -88 108 -88q36 0 65.5 20t54.5 68l49 -21q-25 -65 -71 -96t-102 -31q-55 0 -97 31.5z" />
    <glyph glyph-name="uni1EAF.ss01" horiz-adv-x="582" 
d="M526 487l-39 -487h-80l6 77q-24 -39 -66.5 -61.5t-93.5 -22.5q-62 0 -108.5 29t-72.5 82t-26 124q0 80 28.5 141.5t80.5 95.5t120 34q57 0 100 -25t64 -70l6 83h81zM387 114.5q41 54.5 41 148.5q0 82 -37.5 125.5t-108.5 43.5q-72 0 -113 -54.5t-41 -149.5q0 -80 38 -124
t108 -44q72 0 113 54.5zM351 654h-53l107 142h91zM221.5 572.5q-41.5 26.5 -60.5 79.5l49 20q19 -39 46.5 -55t65.5 -16q36 0 65 16t54 55l46 -20q-26 -55 -70.5 -80.5t-98.5 -25.5q-55 0 -96.5 26.5z" />
    <glyph glyph-name="uni1EB7.ss01" horiz-adv-x="582" 
d="M526 487l-39 -487h-80l6 77q-24 -39 -66.5 -61.5t-93.5 -22.5q-62 0 -108.5 29t-72.5 82t-26 124q0 80 28.5 141.5t80.5 95.5t120 34q57 0 100 -25t64 -70l6 83h81zM387 114.5q41 54.5 41 148.5q0 82 -37.5 125.5t-108.5 43.5q-72 0 -113 -54.5t-41 -149.5q0 -80 38 -124
t108 -44q72 0 113 54.5zM220 -94h92l-8 -88h-92zM223 612.5q-42 31.5 -59 95.5l52 21q34 -88 108 -88q36 0 65.5 20t54.5 68l49 -21q-25 -65 -71 -96t-102 -31q-55 0 -97 31.5z" />
    <glyph glyph-name="uni1EB1.ss01" horiz-adv-x="582" 
d="M526 487l-39 -487h-80l6 77q-24 -39 -66.5 -61.5t-93.5 -22.5q-62 0 -108.5 29t-72.5 82t-26 124q0 80 28.5 141.5t80.5 95.5t120 34q57 0 100 -25t64 -70l6 83h81zM387 114.5q41 54.5 41 148.5q0 82 -37.5 125.5t-108.5 43.5q-72 0 -113 -54.5t-41 -149.5q0 -80 38 -124
t108 -44q72 0 113 54.5zM298 654l-119 142h81l91 -142h-53zM221.5 572.5q-41.5 26.5 -60.5 79.5l49 20q19 -39 46.5 -55t65.5 -16q36 0 65 16t54 55l46 -20q-26 -55 -70.5 -80.5t-98.5 -25.5q-55 0 -96.5 26.5z" />
    <glyph glyph-name="uni1EB3.ss01" horiz-adv-x="582" 
d="M526 487l-39 -487h-80l6 77q-24 -39 -66.5 -61.5t-93.5 -22.5q-62 0 -108.5 29t-72.5 82t-26 124q0 80 28.5 141.5t80.5 95.5t120 34q57 0 100 -25t64 -70l6 83h81zM387 114.5q41 54.5 41 148.5q0 82 -37.5 125.5t-108.5 43.5q-72 0 -113 -54.5t-41 -149.5q0 -80 38 -124
t108 -44q72 0 113 54.5zM299 671q1 18 13.5 27t33.5 18q14 6 20 10t6 11q0 16 -36 16q-29 0 -66 -11l-10 43q40 16 82 16q44 0 69 -16t25 -41q0 -21 -13 -32t-36 -21q-16 -6 -25 -12t-10 -16l-1 -9h-53zM221.5 572.5q-41.5 26.5 -60.5 79.5l49 20q19 -39 46.5 -55t65.5 -16
q36 0 65 16t54 55l46 -20q-26 -55 -70.5 -80.5t-98.5 -25.5q-55 0 -96.5 26.5z" />
    <glyph glyph-name="uni1EB5.ss01" horiz-adv-x="582" 
d="M526 487l-39 -487h-80l6 77q-24 -39 -66.5 -61.5t-93.5 -22.5q-62 0 -108.5 29t-72.5 82t-26 124q0 80 28.5 141.5t80.5 95.5t120 34q57 0 100 -25t64 -70l6 83h81zM387 114.5q41 54.5 41 148.5q0 82 -37.5 125.5t-108.5 43.5q-72 0 -113 -54.5t-41 -149.5q0 -80 38 -124
t108 -44q72 0 113 54.5zM362.5 705.5q-18.5 7.5 -43.5 21.5q-21 12 -33.5 17.5t-24.5 5.5q-21 0 -34.5 -13t-14.5 -36h-45q2 49 29 76t67 27q20 0 38.5 -7.5t43.5 -21.5q20 -11 33.5 -17t25.5 -6q21 0 34 13t14 36h45q-2 -49 -29 -76t-67 -27q-20 0 -38.5 7.5zM221.5 572.5
q-41.5 26.5 -60.5 79.5l49 20q19 -39 46.5 -55t65.5 -16q36 0 65 16t54 55l46 -20q-26 -55 -70.5 -80.5t-98.5 -25.5q-55 0 -96.5 26.5z" />
    <glyph glyph-name="uni01CE.ss01" horiz-adv-x="582" 
d="M526 487l-39 -487h-80l6 77q-24 -39 -66.5 -61.5t-93.5 -22.5q-62 0 -108.5 29t-72.5 82t-26 124q0 80 28.5 141.5t80.5 95.5t120 34q57 0 100 -25t64 -70l6 83h81zM387 114.5q41 54.5 41 148.5q0 82 -37.5 125.5t-108.5 43.5q-72 0 -113 -54.5t-41 -149.5q0 -80 38 -124
t108 -44q72 0 113 54.5zM402 753h76l-133 -202h-57l-102 202h73l61 -143z" />
    <glyph glyph-name="acircumflex.ss01" horiz-adv-x="582" 
d="M526 487l-39 -487h-80l6 77q-24 -39 -66.5 -61.5t-93.5 -22.5q-62 0 -108.5 29t-72.5 82t-26 124q0 80 28.5 141.5t80.5 95.5t120 34q57 0 100 -25t64 -70l6 83h81zM387 114.5q41 54.5 41 148.5q0 82 -37.5 125.5t-108.5 43.5q-72 0 -113 -54.5t-41 -149.5q0 -80 38 -124
t108 -44q72 0 113 54.5zM246 551h-76l134 202h57l101 -202h-72l-62 143z" />
    <glyph glyph-name="uni1EA5.ss01" horiz-adv-x="582" 
d="M526 487l-39 -487h-80l6 77q-24 -39 -66.5 -61.5t-93.5 -22.5q-62 0 -108.5 29t-72.5 82t-26 124q0 80 28.5 141.5t80.5 95.5t120 34q57 0 100 -25t64 -70l6 83h81zM387 114.5q41 54.5 41 148.5q0 82 -37.5 125.5t-108.5 43.5q-72 0 -113 -54.5t-41 -149.5q0 -80 38 -124
t108 -44q72 0 113 54.5zM458 654h-49l100 142h89zM244 551h-74l131 147h54l107 -147h-71l-65 99z" />
    <glyph glyph-name="uni1EAD.ss01" horiz-adv-x="582" 
d="M526 487l-39 -487h-80l6 77q-24 -39 -66.5 -61.5t-93.5 -22.5q-62 0 -108.5 29t-72.5 82t-26 124q0 80 28.5 141.5t80.5 95.5t120 34q57 0 100 -25t64 -70l6 83h81zM387 114.5q41 54.5 41 148.5q0 82 -37.5 125.5t-108.5 43.5q-72 0 -113 -54.5t-41 -149.5q0 -80 38 -124
t108 -44q72 0 113 54.5zM220 -94h92l-8 -88h-92zM246 551h-76l134 202h57l101 -202h-72l-62 143z" />
    <glyph glyph-name="uni1EA7.ss01" horiz-adv-x="582" 
d="M526 487l-39 -487h-80l6 77q-24 -39 -66.5 -61.5t-93.5 -22.5q-62 0 -108.5 29t-72.5 82t-26 124q0 80 28.5 141.5t80.5 95.5t120 34q57 0 100 -25t64 -70l6 83h81zM387 114.5q41 54.5 41 148.5q0 82 -37.5 125.5t-108.5 43.5q-72 0 -113 -54.5t-41 -149.5q0 -80 38 -124
t108 -44q72 0 113 54.5zM452 654l-99 142h80l68 -142h-49zM170 551l131 147h54l107 -147h-71l-65 99l-82 -99h-74z" />
    <glyph glyph-name="uni1EA9.ss01" horiz-adv-x="582" 
d="M526 487l-39 -487h-80l6 77q-24 -39 -66.5 -61.5t-93.5 -22.5q-62 0 -108.5 29t-72.5 82t-26 124q0 80 28.5 141.5t80.5 95.5t120 34q57 0 100 -25t64 -70l6 83h81zM387 114.5q41 54.5 41 148.5q0 82 -37.5 125.5t-108.5 43.5q-72 0 -113 -54.5t-41 -149.5q0 -80 38 -124
t108 -44q72 0 113 54.5zM409 671q1 18 13.5 27.5t33.5 17.5q14 6 20 10t6 11q0 16 -36 16q-29 0 -66 -11l-10 43q40 16 82 16q44 0 69 -16t25 -41q0 -21 -13 -32t-36 -21q-16 -6 -25 -12t-10 -16l-1 -9h-53zM170 551l131 147h54l107 -147h-71l-65 99l-82 -99h-74z" />
    <glyph glyph-name="uni1EAB.ss01" horiz-adv-x="582" 
d="M526 487l-39 -487h-80l6 77q-24 -39 -66.5 -61.5t-93.5 -22.5q-62 0 -108.5 29t-72.5 82t-26 124q0 80 28.5 141.5t80.5 95.5t120 34q57 0 100 -25t64 -70l6 83h81zM387 114.5q41 54.5 41 148.5q0 82 -37.5 125.5t-108.5 43.5q-72 0 -113 -54.5t-41 -149.5q0 -80 38 -124
t108 -44q72 0 113 54.5zM197 785.5q27 26.5 67 26.5q21 0 38.5 -6t45.5 -18q19 -9 32 -14t25 -5q21 0 34 12t14 32h45q-1 -45 -28.5 -71.5t-67.5 -26.5q-21 0 -37.5 5.5t-45.5 18.5q-19 9 -32 14t-26 5q-21 0 -34 -13t-14 -32h-45q2 46 29 72.5zM170 551l131 147h54
l107 -147h-71l-65 99l-82 -99h-74z" />
    <glyph glyph-name="uni0201.ss01" horiz-adv-x="582" 
d="M526 487l-39 -487h-80l6 77q-24 -39 -66.5 -61.5t-93.5 -22.5q-62 0 -108.5 29t-72.5 82t-26 124q0 80 28.5 141.5t80.5 95.5t120 34q57 0 100 -25t64 -70l6 83h81zM387 114.5q41 54.5 41 148.5q0 82 -37.5 125.5t-108.5 43.5q-72 0 -113 -54.5t-41 -149.5q0 -80 38 -124
t108 -44q72 0 113 54.5zM235 551l-61 202h72l30 -202h-41zM356 551l-61 202h71l31 -202h-41z" />
    <glyph glyph-name="adieresis.ss01" horiz-adv-x="582" 
d="M526 487l-39 -487h-80l6 77q-24 -39 -66.5 -61.5t-93.5 -22.5q-62 0 -108.5 29t-72.5 82t-26 124q0 80 28.5 141.5t80.5 95.5t120 34q57 0 100 -25t64 -70l6 83h81zM387 114.5q41 54.5 41 148.5q0 82 -37.5 125.5t-108.5 43.5q-72 0 -113 -54.5t-41 -149.5q0 -80 38 -124
t108 -44q72 0 113 54.5zM198 695h89l-7 -85h-89zM369 695h89l-7 -85h-89z" />
    <glyph glyph-name="uni0227.ss01" horiz-adv-x="582" 
d="M526 487l-39 -487h-80l6 77q-24 -39 -66.5 -61.5t-93.5 -22.5q-62 0 -108.5 29t-72.5 82t-26 124q0 80 28.5 141.5t80.5 95.5t120 34q57 0 100 -25t64 -70l6 83h81zM387 114.5q41 54.5 41 148.5q0 82 -37.5 125.5t-108.5 43.5q-72 0 -113 -54.5t-41 -149.5q0 -80 38 -124
t108 -44q72 0 113 54.5zM279 698h98l-7 -91h-99z" />
    <glyph glyph-name="uni1EA1.ss01" horiz-adv-x="582" 
d="M526 487l-39 -487h-80l6 77q-24 -39 -66.5 -61.5t-93.5 -22.5q-62 0 -108.5 29t-72.5 82t-26 124q0 80 28.5 141.5t80.5 95.5t120 34q57 0 100 -25t64 -70l6 83h81zM387 114.5q41 54.5 41 148.5q0 82 -37.5 125.5t-108.5 43.5q-72 0 -113 -54.5t-41 -149.5q0 -80 38 -124
t108 -44q72 0 113 54.5zM220 -94h92l-8 -88h-92z" />
    <glyph glyph-name="agrave.ss01" horiz-adv-x="582" 
d="M526 487l-39 -487h-80l6 77q-24 -39 -66.5 -61.5t-93.5 -22.5q-62 0 -108.5 29t-72.5 82t-26 124q0 80 28.5 141.5t80.5 95.5t120 34q57 0 100 -25t64 -70l6 83h81zM387 114.5q41 54.5 41 148.5q0 82 -37.5 125.5t-108.5 43.5q-72 0 -113 -54.5t-41 -149.5q0 -80 38 -124
t108 -44q72 0 113 54.5zM288 551l-117 202h87l86 -202h-56z" />
    <glyph glyph-name="uni1EA3.ss01" horiz-adv-x="582" 
d="M526 487l-39 -487h-80l6 77q-24 -39 -66.5 -61.5t-93.5 -22.5q-62 0 -108.5 29t-72.5 82t-26 124q0 80 28.5 141.5t80.5 95.5t120 34q57 0 100 -25t64 -70l6 83h81zM387 114.5q41 54.5 41 148.5q0 82 -37.5 125.5t-108.5 43.5q-72 0 -113 -54.5t-41 -149.5q0 -80 38 -124
t108 -44q72 0 113 54.5zM345 551h-53l2 27q2 21 13.5 36t30.5 31q15 14 21.5 22t6.5 17q0 11 -10 17t-29 6q-21 0 -60 -11l-11 46q39 15 83 15q42 0 67.5 -18t25.5 -47q0 -23 -12 -38t-34 -32q-21 -16 -30 -27t-10 -27z" />
    <glyph glyph-name="uni0203.ss01" horiz-adv-x="582" 
d="M526 487l-39 -487h-80l6 77q-24 -39 -66.5 -61.5t-93.5 -22.5q-62 0 -108.5 29t-72.5 82t-26 124q0 80 28.5 141.5t80.5 95.5t120 34q57 0 100 -25t64 -70l6 83h81zM387 114.5q41 54.5 41 148.5q0 82 -37.5 125.5t-108.5 43.5q-72 0 -113 -54.5t-41 -149.5q0 -80 38 -124
t108 -44q72 0 113 54.5zM425.5 696.5q42.5 -31.5 59.5 -94.5l-52 -22q-34 88 -109 88q-36 0 -65.5 -20t-53.5 -68l-50 21q26 65 71.5 96t101.5 31q55 0 97.5 -31.5z" />
    <glyph glyph-name="amacron.ss01" horiz-adv-x="582" 
d="M526 487l-39 -487h-80l6 77q-24 -39 -66.5 -61.5t-93.5 -22.5q-62 0 -108.5 29t-72.5 82t-26 124q0 80 28.5 141.5t80.5 95.5t120 34q57 0 100 -25t64 -70l6 83h81zM387 114.5q41 54.5 41 148.5q0 82 -37.5 125.5t-108.5 43.5q-72 0 -113 -54.5t-41 -149.5q0 -80 38 -124
t108 -44q72 0 113 54.5zM172 622l5 61h299l-5 -61h-299z" />
    <glyph glyph-name="aogonek.ss01" horiz-adv-x="582" 
d="M506 -123l13 -47q-39 -23 -84 -23q-51 0 -82 27.5t-31 71.5q0 41 23 71.5t64 46.5l5 54q-25 -40 -68 -62.5t-93 -22.5q-61 0 -108 29t-73 82t-26 124q0 80 28.5 141.5t80.5 95.5t120 34q57 0 100 -25t64 -70l6 83h81l-39 -487h-11q-38 0 -63.5 -22t-25.5 -59
q0 -29 15.5 -44t43.5 -15q26 0 60 17zM387 114.5q41 54.5 41 148.5q0 82 -37.5 125.5t-108.5 43.5t-112.5 -54.5t-41.5 -149.5q0 -80 38.5 -124t107.5 -44q72 0 113 54.5z" />
    <glyph glyph-name="aring.ss01" horiz-adv-x="582" 
d="M526 487l-39 -487h-80l6 77q-24 -39 -66.5 -61.5t-93.5 -22.5q-62 0 -108.5 29t-72.5 82t-26 124q0 80 28.5 141.5t80.5 95.5t120 34q57 0 100 -25t64 -70l6 83h81zM387 114.5q41 54.5 41 148.5q0 82 -37.5 125.5t-108.5 43.5q-72 0 -113 -54.5t-41 -149.5q0 -80 38 -124
t108 -44q72 0 113 54.5zM252.5 581.5q-29.5 28.5 -29.5 70.5t29.5 70.5t71.5 28.5t71.5 -28.5t29.5 -70.5t-29.5 -70.5t-71.5 -28.5t-71.5 28.5zM358.5 616.5q13.5 14.5 13.5 35.5t-13.5 35.5t-34.5 14.5t-34.5 -14.5t-13.5 -35.5t13.5 -35.5t34.5 -14.5t34.5 14.5z" />
    <glyph glyph-name="aringacute.ss01" horiz-adv-x="582" 
d="M251.5 581.5q-28.5 27.5 -28.5 67.5q0 43 30 73t73 30q40 0 67 -25l49 92l76 31l-64 -111l-48 -26q19 -27 19 -60q-1 -42 -31.5 -70.5t-72.5 -28.5q-41 0 -69.5 27.5zM288.5 617.5q13.5 -14.5 34.5 -14.5t35 15t14 37q0 20 -13.5 34t-33.5 14q-21 0 -35 -14.5t-14 -35.5
q-1 -21 12.5 -35.5zM526 487l-39 -487h-80l6 77q-24 -39 -66.5 -61.5t-93.5 -22.5q-62 0 -108.5 29t-72.5 82t-26 124q0 80 28.5 141.5t80.5 95.5t120 34q57 0 100 -25t64 -70l6 83h81zM387 114.5q41 54.5 41 148.5q0 82 -37.5 125.5t-108.5 43.5q-72 0 -113 -54.5
t-41 -149.5q0 -80 38 -124t108 -44q72 0 113 54.5z" />
    <glyph glyph-name="atilde.ss01" horiz-adv-x="582" 
d="M526 487l-39 -487h-80l6 77q-24 -39 -66.5 -61.5t-93.5 -22.5q-62 0 -108.5 29t-72.5 82t-26 124q0 80 28.5 141.5t80.5 95.5t120 34q57 0 100 -25t64 -70l6 83h81zM387 114.5q41 54.5 41 148.5q0 82 -37.5 125.5t-108.5 43.5q-72 0 -113 -54.5t-41 -149.5q0 -80 38 -124
t108 -44q72 0 113 54.5zM188.5 683q26.5 29 67.5 29q20 0 37 -7.5t45 -24.5q19 -12 32 -18.5t25 -6.5q22 0 35 14t15 40h45q-3 -56 -29.5 -85t-67.5 -29q-21 0 -39.5 8.5t-42.5 24.5q-21 13 -33 18.5t-23 5.5q-22 0 -36 -14.5t-16 -39.5h-44q3 56 29.5 85z" />
    <glyph glyph-name="I_J.loclNLD" horiz-adv-x="582" 
d="M68 0l55 705h82l-55 -705h-82zM233 62l59 4q107 8 116 125l41 514h82l-40 -515q-15 -181 -193 -193l-62 -4z" />
    <glyph glyph-name="i_j.loclNLD" horiz-adv-x="464" 
d="M56 0l39 487h81l-39 -487h-81zM103 698h98l-7 -91h-99zM370 6q-8 -93 -53 -137t-141 -50l-45 -3l-3 63l47 3q54 4 81.5 30.5t31.5 81.5l39 493h81zM335 698h98l-7 -91h-99z" />
    <glyph glyph-name="ordfeminine" unicode="&#xaa;" horiz-adv-x="330" 
d="M288 682q29 -28 29 -81l-1 -16l-14 -173h-68l4 47q-13 -25 -36.5 -38.5t-53.5 -13.5q-43 0 -70.5 24.5t-27.5 62.5q0 47 40 67.5t134 20.5h22l1 17q5 57 -54 57q-48 0 -99 -30l-14 51q25 16 57.5 24.5t64.5 8.5q57 0 86 -28zM219 478q21 20 23 52l1 14h-21q-58 0 -81 -10
t-23 -35q0 -18 14 -29.5t34 -11.5q32 0 53 20z" />
    <glyph glyph-name="ordmasculine" unicode="&#xba;" horiz-adv-x="342" 
d="M84 445q-38 38 -38 100q0 75 43.5 120t115.5 45q64 0 102.5 -38t38.5 -101q0 -74 -43.5 -119t-116.5 -45q-64 0 -102 38zM251.5 492q22.5 28 22.5 78q0 40 -18.5 61.5t-52.5 21.5q-41 0 -63 -28.5t-22 -77.5q0 -40 18 -61.5t52 -21.5q41 0 63.5 28z" />
    <glyph glyph-name="uni0394" unicode="&#x394;" horiz-adv-x="727" 
d="M612 207l61 -177l-478 -30l-181 21l261 527l123 157zM110 70h476l-195 537z" />
    <glyph glyph-name="Sigma" unicode="&#x3a3;" horiz-adv-x="582" 
d="M575 705l-5 -69h-401l214 -345l-4 -56l-268 -346h401l-6 -69h-498l5 60l298 388l-238 377l4 60h498z" />
    <glyph glyph-name="uni03A9" unicode="&#x3a9;" horiz-adv-x="779" 
d="M719.5 357.5q-20.5 -51.5 -66.5 -117t-133 -171.5h182l-5 -69h-261l6 66q85 116 130.5 187t64 118t18.5 88q0 88 -63 136t-174 48q-128 0 -195.5 -55t-67.5 -150q0 -63 34 -143.5t121 -228.5l-5 -66h-261l6 69h181q-65 101 -98.5 164.5t-47.5 109.5t-14 93q0 83 41 146
t119.5 97.5t187.5 34.5q98 0 170.5 -30t111.5 -87t39 -135q0 -53 -20.5 -104.5z" />
    <glyph glyph-name="uni03BC" unicode="&#x3bc;" horiz-adv-x="561" 
d="M504 487l-38 -487h-79l6 79q-25 -41 -67 -63.5t-94 -22.5q-60 0 -96 27l-15 -200h-81l52 667h81l-24 -295q-1 -7 -1 -21q0 -110 105 -110q65 0 104 40.5t44 110.5l22 275h81z" />
    <glyph glyph-name="pi" unicode="&#x3c0;" horiz-adv-x="580" 
d="M416 163q0 -51 25.5 -75t80.5 -28l33 -3l-6 -64l-38 2q-91 5 -133.5 45.5t-42.5 122.5q0 19 1 29l18 231h-154q-12 -125 -36.5 -228.5t-64.5 -194.5h-86q83 195 106 423h-100l5 64h534l-5 -64h-118l-18 -239q-1 -7 -1 -21z" />
    <glyph glyph-name="zero" unicode="0" 
d="M119.5 70.5q-59.5 78.5 -59.5 229.5q0 130 31 223t90 141.5t142 48.5q115 0 175 -78.5t60 -229.5q0 -196 -69.5 -304.5t-194.5 -108.5q-115 0 -174.5 78.5zM429.5 151.5q45.5 90.5 45.5 266.5q0 115 -37.5 170.5t-115.5 55.5q-88 0 -133.5 -90.5t-45.5 -266.5
q0 -115 38 -170.5t116 -55.5q87 0 132.5 90.5z" />
    <glyph glyph-name="one" unicode="1" 
d="M353 69h156l-6 -69h-392l6 69h154l43 533l-129 -77l-36 62l195 118h59z" />
    <glyph glyph-name="two" unicode="2" 
d="M179 69h346l-5 -69h-454l4 62l270 271q60 60 85.5 105.5t25.5 94.5q0 51 -33 81t-89 30q-55 0 -105 -19.5t-102 -61.5l-25 63q45 41 107 64t130 23q91 0 145 -48t54 -131q0 -62 -31.5 -119.5t-106.5 -132.5z" />
    <glyph glyph-name="three" unicode="3" 
d="M490.5 304q31.5 -40 31.5 -100q0 -63 -29.5 -111t-84 -74t-128.5 -26q-69 0 -129.5 22.5t-107.5 64.5l36 63q49 -41 98.5 -61t104.5 -20q75 0 117 36.5t42 103.5q0 121 -154 121h-80l6 69h72q77 0 121.5 38.5t44.5 105.5q0 50 -33.5 79t-91.5 29q-105 0 -204 -81l-25 63
q44 41 107 64t130 23q90 0 144.5 -46.5t54.5 -124.5q0 -63 -34.5 -111.5t-95.5 -70.5q56 -16 87.5 -56z" />
    <glyph glyph-name="four" unicode="4" 
d="M563 221l-6 -68h-107l-12 -153h-81l12 153h-325l4 62l378 490h68l-38 -484h107zM137 221h238l27 344z" />
    <glyph glyph-name="five" unicode="5" 
d="M212 637l-20 -247q29 25 67 38.5t80 13.5q62 0 110 -25.5t74 -72t26 -106.5q0 -73 -31 -128.5t-87.5 -86t-129.5 -30.5q-67 0 -127 22.5t-107 64.5l36 63q94 -81 199 -81q76 0 121 46t45 124q0 64 -39.5 103t-104.5 39q-105 0 -164 -82h-57l32 413h423l-6 -68h-340z" />
    <glyph glyph-name="six" unicode="6" horiz-adv-x="599" 
d="M445 415.5q49 -26.5 76 -75t27 -111.5q0 -68 -30 -122t-83 -84.5t-119 -30.5q-122 0 -188 79t-66 224q0 127 36 221.5t102 145.5t155 51q62 0 120 -22.5t104 -64.5l-35 -63q-45 40 -93 60.5t-94 20.5q-90 0 -145 -75t-66 -217l-2 -24q26 53 76 83.5t112 30.5
q64 0 113 -26.5zM424.5 106.5q42.5 45.5 42.5 119.5q0 67 -41 107.5t-109 40.5q-69 0 -113 -46t-44 -118q0 -67 42.5 -108t111.5 -41q68 0 110.5 45.5z" />
    <glyph glyph-name="seven" unicode="7" 
d="M104 705h465l-5 -61l-375 -644h-87l371 636h-375z" />
    <glyph glyph-name="eight" unicode="8" 
d="M519 297.5q30 -42.5 30 -106.5q0 -59 -31.5 -104t-89.5 -69.5t-137 -24.5q-120 0 -184.5 49t-64.5 141q0 64 39 113t106 68q-49 20 -75.5 59t-26.5 94q0 59 30 103.5t85 68.5t128 24q110 0 170.5 -46.5t60.5 -128.5q0 -63 -34.5 -110.5t-93.5 -68.5q58 -19 88 -61.5z
M207.5 610.5q-41.5 -34.5 -41.5 -98.5q0 -56 39 -88t113 -32q77 0 118 36t41 101q0 56 -37.5 86t-111.5 30q-79 0 -120.5 -34.5zM421.5 96.5q46.5 34.5 46.5 98.5q0 66 -39.5 97t-128.5 31q-86 0 -131.5 -34.5t-45.5 -103.5q0 -123 167 -123q85 0 131.5 34.5z" />
    <glyph glyph-name="nine" unicode="9" 
d="M490.5 634q66.5 -79 66.5 -224q0 -127 -36 -221.5t-102.5 -145.5t-155.5 -51q-62 0 -120 22.5t-104 64.5l36 63q92 -81 186 -81q91 0 146 75.5t65 217.5l2 24q-26 -54 -75 -84.5t-112 -30.5q-64 0 -113 27t-76 75.5t-27 111.5q0 67 30 121t82.5 84.5t118.5 30.5
q122 0 188.5 -79zM414.5 377q44.5 46 44.5 118q0 67 -42.5 108t-110.5 41q-69 0 -111.5 -45.5t-42.5 -119.5q0 -67 40.5 -107.5t108.5 -40.5q69 0 113.5 46z" />
    <glyph glyph-name="one.ss01" 
d="M347 705h60l-56 -705h-82l48 601l-129 -76l-35 62z" />
    <glyph glyph-name="one.tosf.ss01" 
d="M331 487h59l-38 -487h-82l30 383l-128 -77l-36 63z" />
    <glyph glyph-name="zero.tosf" 
d="M168 22.5q-55 30.5 -85.5 85.5t-30.5 125q0 77 32.5 137.5t90 94.5t130.5 34q71 0 126.5 -30.5t86 -85.5t30.5 -125q0 -77 -32.5 -137.5t-90 -94.5t-131.5 -34q-71 0 -126 30.5zM420.5 113q47.5 54 47.5 144q0 80 -45 127.5t-120 47.5q-50 0 -89 -24.5t-60.5 -69.5
t-21.5 -104q0 -79 45 -127t119 -48q77 0 124.5 54z" />
    <glyph glyph-name="one.tosf" 
d="M354 64h155l-6 -64h-392l6 64h154l26 329l-133 -80l-33 56l196 118h60z" />
    <glyph glyph-name="two.tosf" 
d="M434 201q-70 -69 -220 -135h286l-6 -66h-414l4 61q180 81 258 147.5t78 137.5q0 41 -28.5 63t-82.5 22q-95 0 -188 -56l-23 60q46 31 103 47.5t116 16.5q88 0 137.5 -39t49.5 -108q0 -82 -70 -151z" />
    <glyph glyph-name="three.tosf" 
d="M463 106.5q29 -38.5 29 -93.5q0 -61 -30 -106t-83 -69.5t-122 -24.5q-62 0 -119.5 16t-103.5 47l32 60q51 -29 97 -42.5t97 -13.5q70 0 110.5 35t40.5 99q0 55 -38 84t-110 29h-71l5 66h56q79 0 123 38t44 103q0 47 -31 72t-87 25q-89 0 -181 -56l-23 60q46 30 102 47
t108 17q89 0 141.5 -41.5t52.5 -114.5q0 -60 -33 -109.5t-89 -70.5q54 -18 83 -56.5z" />
    <glyph glyph-name="four.tosf" 
d="M535 66l-5 -66h-97l-14 -180h-78l14 180h-318l5 62l363 425h67l-33 -421h96zM126 66h235l24 304z" />
    <glyph glyph-name="five.tosf" 
d="M195 421l-19 -235q29 26 68.5 40.5t80.5 14.5q91 0 144.5 -54.5t53.5 -146.5q0 -67 -31 -118.5t-87 -80t-127 -28.5q-56 0 -112 16.5t-100 46.5l32 60q94 -56 179 -56q75 0 120 42.5t45 115.5q0 62 -36 99t-97 37q-100 0 -165 -82h-53l31 395h408l-5 -66h-330z" />
    <glyph glyph-name="six.tosf" 
d="M441 415q48 -27 75 -75t27 -111q0 -67 -29.5 -121.5t-81.5 -85t-116 -30.5q-118 0 -183 79t-65 224q0 127 36 221.5t101.5 145.5t152.5 51q56 0 108 -16.5t95 -46.5l-31 -60q-45 29 -86 42.5t-84 13.5q-89 0 -143.5 -76.5t-64.5 -215.5l-2 -27q25 53 74 84t108 31
q61 0 109 -27zM421.5 105.5q41.5 46.5 41.5 120.5q0 68 -40.5 108.5t-104.5 40.5q-43 0 -78 -21t-55 -58.5t-20 -85.5q0 -67 42 -109t108 -42q65 0 106.5 46.5z" />
    <glyph glyph-name="seven.tosf" 
d="M97 487h445l-5 -62l-362 -606h-86l362 602h-360z" />
    <glyph glyph-name="eight.tosf" 
d="M519 297.5q30 -42.5 30 -106.5q0 -59 -31.5 -104t-89.5 -69.5t-137 -24.5q-120 0 -184.5 49t-64.5 141q0 64 39 113t106 68q-49 20 -75.5 59t-26.5 94q0 59 30 103.5t85 68.5t128 24q110 0 170.5 -46.5t60.5 -128.5q0 -63 -34.5 -110.5t-93.5 -68.5q58 -19 88 -61.5z
M207.5 610.5q-41.5 -34.5 -41.5 -98.5q0 -56 39 -88t113 -32q77 0 118 36t41 101q0 56 -37.5 86t-111.5 30q-79 0 -120.5 -34.5zM421.5 96.5q46.5 34.5 46.5 98.5q0 66 -39.5 97t-128.5 31q-86 0 -131.5 -34.5t-45.5 -103.5q0 -123 167 -123q85 0 131.5 34.5z" />
    <glyph glyph-name="nine.tosf" 
d="M467 417q65 -79 65 -223q0 -113 -36 -199.5t-101.5 -134t-152.5 -47.5q-55 0 -107 16.5t-96 47.5l31 60q44 -29 85 -42.5t85 -13.5q88 0 144 68.5t64 185.5l2 27q-25 -53 -74 -84t-108 -31q-62 0 -109.5 26.5t-74.5 75t-27 111.5q0 67 30 121t82 84.5t116 30.5
q117 0 182 -79zM360 135q35 21 55 58.5t20 84.5q0 67 -42 108.5t-108 41.5q-64 0 -106 -46t-42 -120q0 -67 40.5 -107.5t104.5 -40.5q43 0 78 21z" />
    <glyph glyph-name="uni2080" unicode="&#x2080;" horiz-adv-x="380" 
d="M69 45q-38 48 -38 140q0 114 43.5 178.5t119.5 64.5q72 0 111 -48t39 -138q0 -115 -43.5 -180t-120.5 -65q-73 0 -111 48zM247 105q23 50 23 146q0 119 -75 119q-44 0 -67 -49.5t-23 -144.5q0 -61 18 -91t56 -30q45 0 68 50z" />
    <glyph glyph-name="uni2081" unicode="&#x2081;" horiz-adv-x="380" 
d="M237 60h76l-5 -60h-223l4 60h76l23 281l-72 -42l-27 53l122 71h55z" />
    <glyph glyph-name="uni2082" unicode="&#x2082;" horiz-adv-x="380" 
d="M128 60h193l-5 -60h-281l4 54l155 156q31 32 44.5 55.5t13.5 47.5q0 27 -17 41t-48 14q-27 0 -58.5 -12t-58.5 -33l-20 53q29 23 67.5 37t78.5 14q60 0 95 -29.5t35 -79.5q0 -37 -19 -71.5t-63 -75.5z" />
    <glyph glyph-name="uni2083" unicode="&#x2083;" horiz-adv-x="380" 
d="M302 183q18 -24 18 -60q0 -59 -41.5 -93t-108.5 -34q-42 0 -82 14.5t-69 37.5l28 52q60 -45 119 -45q38 0 61 17t23 51q0 62 -78 62h-56l4 58h47q42 0 65 18t23 53q0 26 -17.5 40t-47.5 14q-28 0 -60.5 -12t-59.5 -33l-20 53q29 23 67.5 37t78.5 14q60 0 95 -29t35 -74
q0 -40 -20.5 -67t-54.5 -40q33 -10 51 -34z" />
    <glyph glyph-name="uni2084" unicode="&#x2084;" horiz-adv-x="380" 
d="M349 140l-4 -57h-63l-6 -83h-69l6 83h-191l4 53l224 287h59l-22 -283h62zM94 140h124l13 176z" />
    <glyph glyph-name="uni2085" unicode="&#x2085;" horiz-adv-x="380" 
d="M300 235.5q35 -33.5 35 -90.5q0 -44 -21 -78t-56.5 -52.5t-78.5 -18.5q-40 0 -79.5 14t-68.5 38l29 52q56 -44 114 -44q42 0 66 22t24 63q0 32 -20 51t-55 19q-52 0 -92 -37h-43l19 249h264l-4 -59h-195l-9 -119q33 24 79 24q57 0 92 -33.5z" />
    <glyph glyph-name="uni2086" unicode="&#x2086;" horiz-adv-x="380" 
d="M303.5 233.5q35.5 -34.5 35.5 -92.5q0 -64 -42 -104.5t-107 -40.5q-74 0 -115 47.5t-41 132.5q0 75 23 131.5t65 88t99 31.5q75 0 137 -51l-27 -53q-54 45 -111 45q-49 0 -78 -38.5t-35 -110.5v-3q16 24 43 38t59 14q59 0 94.5 -34.5zM248 75.5q22 23.5 22 61.5
q0 35 -19.5 55.5t-52.5 20.5q-38 0 -62 -23.5t-24 -60.5q0 -34 21.5 -55.5t55.5 -21.5q37 0 59 23.5z" />
    <glyph glyph-name="uni2087" unicode="&#x2087;" horiz-adv-x="380" 
d="M59 423h291l-4 -57l-211 -366h-79l210 362h-212z" />
    <glyph glyph-name="uni2088" unicode="&#x2088;" horiz-adv-x="380" 
d="M320.5 180.5q18.5 -25.5 18.5 -60.5q0 -57 -44 -90.5t-121 -33.5q-71 0 -112 30.5t-41 82.5q0 41 22.5 70t63.5 40q-28 11 -44 35t-16 55q0 55 42 86.5t113 31.5q66 0 104 -29t38 -77q0 -37 -20 -65t-55 -39q33 -11 51.5 -36.5zM137 353q-22 -17 -22 -51q0 -28 20 -44
t56 -16q40 0 62.5 18.5t22.5 51.5q0 28 -19 43t-56 15q-42 0 -64 -17zM246 71q24 18 24 52q0 63 -85 63q-95 0 -95 -73q0 -29 21.5 -44.5t63.5 -15.5q47 0 71 18z" />
    <glyph glyph-name="uni2089" unicode="&#x2089;" horiz-adv-x="380" 
d="M300 379.5q41 -47.5 41 -132.5q0 -75 -23 -131.5t-65 -88t-99 -31.5q-75 0 -137 51l27 53q54 -45 111 -45q49 0 78 38.5t35 110.5v3q-16 -24 -43 -38t-59 -14q-59 0 -94 34.5t-35 92.5q0 64 41.5 104.5t106.5 40.5q74 0 115 -47.5zM239.5 233q23.5 23 23.5 61
q0 35 -21 56t-56 21q-37 0 -59 -23.5t-22 -61.5q0 -35 19.5 -55.5t52.5 -20.5q39 0 62.5 23z" />
    <glyph glyph-name="zero.dnom" horiz-adv-x="380" 
d="M69 45q-38 48 -38 140q0 114 43.5 178.5t119.5 64.5q72 0 111 -48t39 -138q0 -115 -43.5 -180t-120.5 -65q-73 0 -111 48zM247 105q23 50 23 146q0 119 -75 119q-44 0 -67 -49.5t-23 -144.5q0 -61 18 -91t56 -30q45 0 68 50z" />
    <glyph glyph-name="one.dnom" horiz-adv-x="380" 
d="M237 60h76l-5 -60h-223l4 60h76l23 281l-72 -42l-27 53l122 71h55z" />
    <glyph glyph-name="two.dnom" horiz-adv-x="380" 
d="M128 60h193l-5 -60h-281l4 54l155 156q31 32 44.5 55.5t13.5 47.5q0 27 -17 41t-48 14q-27 0 -58.5 -12t-58.5 -33l-20 53q29 23 67.5 37t78.5 14q60 0 95 -29.5t35 -79.5q0 -37 -19 -71.5t-63 -75.5z" />
    <glyph glyph-name="three.dnom" horiz-adv-x="380" 
d="M302 183q18 -24 18 -60q0 -59 -41.5 -93t-108.5 -34q-42 0 -82 14.5t-69 37.5l28 52q60 -45 119 -45q38 0 61 17t23 51q0 62 -78 62h-56l4 58h47q42 0 65 18t23 53q0 26 -17.5 40t-47.5 14q-28 0 -60.5 -12t-59.5 -33l-20 53q29 23 67.5 37t78.5 14q60 0 95 -29t35 -74
q0 -40 -20.5 -67t-54.5 -40q33 -10 51 -34z" />
    <glyph glyph-name="four.dnom" horiz-adv-x="380" 
d="M349 140l-4 -57h-63l-6 -83h-69l6 83h-191l4 53l224 287h59l-22 -283h62zM94 140h124l13 176z" />
    <glyph glyph-name="five.dnom" horiz-adv-x="380" 
d="M300 235.5q35 -33.5 35 -90.5q0 -44 -21 -78t-56.5 -52.5t-78.5 -18.5q-40 0 -79.5 14t-68.5 38l29 52q56 -44 114 -44q42 0 66 22t24 63q0 32 -20 51t-55 19q-52 0 -92 -37h-43l19 249h264l-4 -59h-195l-9 -119q33 24 79 24q57 0 92 -33.5z" />
    <glyph glyph-name="six.dnom" horiz-adv-x="380" 
d="M303.5 233.5q35.5 -34.5 35.5 -92.5q0 -64 -42 -104.5t-107 -40.5q-74 0 -115 47.5t-41 132.5q0 75 23 131.5t65 88t99 31.5q75 0 137 -51l-27 -53q-54 45 -111 45q-49 0 -78 -38.5t-35 -110.5v-3q16 24 43 38t59 14q59 0 94.5 -34.5zM248 75.5q22 23.5 22 61.5
q0 35 -19.5 55.5t-52.5 20.5q-38 0 -62 -23.5t-24 -60.5q0 -34 21.5 -55.5t55.5 -21.5q37 0 59 23.5z" />
    <glyph glyph-name="seven.dnom" horiz-adv-x="380" 
d="M59 423h291l-4 -57l-211 -366h-79l210 362h-212z" />
    <glyph glyph-name="eight.dnom" horiz-adv-x="380" 
d="M320.5 180.5q18.5 -25.5 18.5 -60.5q0 -57 -44 -90.5t-121 -33.5q-71 0 -112 30.5t-41 82.5q0 41 22.5 70t63.5 40q-28 11 -44 35t-16 55q0 55 42 86.5t113 31.5q66 0 104 -29t38 -77q0 -37 -20 -65t-55 -39q33 -11 51.5 -36.5zM137 353q-22 -17 -22 -51q0 -28 20 -44
t56 -16q40 0 62.5 18.5t22.5 51.5q0 28 -19 43t-56 15q-42 0 -64 -17zM246 71q24 18 24 52q0 63 -85 63q-95 0 -95 -73q0 -29 21.5 -44.5t63.5 -15.5q47 0 71 18z" />
    <glyph glyph-name="nine.dnom" horiz-adv-x="380" 
d="M300 379.5q41 -47.5 41 -132.5q0 -75 -23 -131.5t-65 -88t-99 -31.5q-75 0 -137 51l27 53q54 -45 111 -45q49 0 78 38.5t35 110.5v3q-16 -24 -43 -38t-59 -14q-59 0 -94 34.5t-35 92.5q0 64 41.5 104.5t106.5 40.5q74 0 115 -47.5zM239.5 233q23.5 23 23.5 61
q0 35 -21 56t-56 21q-37 0 -59 -23.5t-22 -61.5q0 -35 19.5 -55.5t52.5 -20.5q39 0 62.5 23z" />
    <glyph glyph-name="zero.numr" horiz-adv-x="380" 
d="M91 327q-38 48 -38 140q0 114 43.5 178.5t119.5 64.5q72 0 111 -48t39 -138q0 -115 -43.5 -180t-120.5 -65q-73 0 -111 48zM269 387q23 50 23 146q0 119 -75 119q-44 0 -67 -49.5t-23 -144.5q0 -61 18 -91t56 -30q45 0 68 50z" />
    <glyph glyph-name="one.numr" horiz-adv-x="380" 
d="M259 342h76l-5 -60h-223l4 60h76l23 281l-72 -42l-27 53l122 71h55z" />
    <glyph glyph-name="two.numr" horiz-adv-x="380" 
d="M150 342h193l-5 -60h-281l4 54l155 156q31 32 44.5 55.5t13.5 47.5q0 27 -17 41t-48 14q-27 0 -58.5 -12t-58.5 -33l-20 53q29 23 67.5 37t78.5 14q60 0 95 -29.5t35 -79.5q0 -37 -19 -71.5t-63 -75.5z" />
    <glyph glyph-name="three.numr" horiz-adv-x="380" 
d="M324 465q18 -24 18 -60q0 -59 -41.5 -93t-108.5 -34q-42 0 -82 14.5t-69 37.5l28 52q60 -45 119 -45q38 0 61 17t23 51q0 62 -78 62h-56l4 58h47q42 0 65 18t23 53q0 26 -17.5 40t-47.5 14q-28 0 -60.5 -12t-59.5 -33l-20 53q29 23 67.5 37t78.5 14q60 0 95 -29t35 -74
q0 -40 -20.5 -67t-54.5 -40q33 -10 51 -34z" />
    <glyph glyph-name="four.numr" horiz-adv-x="380" 
d="M371 422l-4 -57h-63l-6 -83h-69l6 83h-191l4 53l224 287h59l-22 -283h62zM116 422h124l13 176z" />
    <glyph glyph-name="five.numr" horiz-adv-x="380" 
d="M322 517.5q35 -33.5 35 -90.5q0 -44 -21 -78t-56.5 -52.5t-78.5 -18.5q-40 0 -79.5 14t-68.5 38l29 52q56 -44 114 -44q42 0 66 22t24 63q0 32 -20 51t-55 19q-52 0 -92 -37h-43l19 249h264l-4 -59h-195l-9 -119q33 24 79 24q57 0 92 -33.5z" />
    <glyph glyph-name="six.numr" horiz-adv-x="380" 
d="M325.5 515.5q35.5 -34.5 35.5 -92.5q0 -64 -42 -104.5t-107 -40.5q-74 0 -115 47.5t-41 132.5q0 75 23 131.5t65 88t99 31.5q75 0 137 -51l-27 -53q-54 45 -111 45q-49 0 -78 -38.5t-35 -110.5v-3q16 24 43 38t59 14q59 0 94.5 -34.5zM270 357.5q22 23.5 22 61.5
q0 35 -19.5 55.5t-52.5 20.5q-38 0 -62 -23.5t-24 -60.5q0 -34 21.5 -55.5t55.5 -21.5q37 0 59 23.5z" />
    <glyph glyph-name="seven.numr" horiz-adv-x="380" 
d="M81 705h291l-4 -57l-211 -366h-79l210 362h-212z" />
    <glyph glyph-name="eight.numr" horiz-adv-x="380" 
d="M342.5 462.5q18.5 -25.5 18.5 -60.5q0 -57 -44 -90.5t-121 -33.5q-71 0 -112 30.5t-41 82.5q0 41 22.5 70t63.5 40q-28 11 -44 35t-16 55q0 55 42 86.5t113 31.5q66 0 104 -29t38 -77q0 -37 -20 -65t-55 -39q33 -11 51.5 -36.5zM159 635q-22 -17 -22 -51q0 -28 20 -44
t56 -16q40 0 62.5 18.5t22.5 51.5q0 28 -19 43t-56 15q-42 0 -64 -17zM268 353q24 18 24 52q0 63 -85 63q-95 0 -95 -73q0 -29 21.5 -44.5t63.5 -15.5q47 0 71 18z" />
    <glyph glyph-name="nine.numr" horiz-adv-x="380" 
d="M322 661.5q41 -47.5 41 -132.5q0 -75 -23 -131.5t-65 -88t-99 -31.5q-75 0 -137 51l27 53q54 -45 111 -45q49 0 78 38.5t35 110.5v3q-16 -24 -43 -38t-59 -14q-59 0 -94 34.5t-35 92.5q0 64 41.5 104.5t106.5 40.5q74 0 115 -47.5zM261.5 515q23.5 23 23.5 61
q0 35 -21 56t-56 21q-37 0 -59 -23.5t-22 -61.5q0 -35 19.5 -55.5t52.5 -20.5q39 0 62.5 23z" />
    <glyph glyph-name="uni2070" unicode="&#x2070;" horiz-adv-x="380" 
d="M91 327q-38 48 -38 140q0 114 43.5 178.5t119.5 64.5q72 0 111 -48t39 -138q0 -115 -43.5 -180t-120.5 -65q-73 0 -111 48zM269 387q23 50 23 146q0 119 -75 119q-44 0 -67 -49.5t-23 -144.5q0 -61 18 -91t56 -30q45 0 68 50z" />
    <glyph glyph-name="uni00B9" unicode="&#xb9;" horiz-adv-x="380" 
d="M259 342h76l-5 -60h-223l4 60h76l23 281l-72 -42l-27 53l122 71h55z" />
    <glyph glyph-name="uni00B2" unicode="&#xb2;" horiz-adv-x="380" 
d="M150 342h193l-5 -60h-281l4 54l155 156q31 32 44.5 55.5t13.5 47.5q0 27 -17 41t-48 14q-27 0 -58.5 -12t-58.5 -33l-20 53q29 23 67.5 37t78.5 14q60 0 95 -29.5t35 -79.5q0 -37 -19 -71.5t-63 -75.5z" />
    <glyph glyph-name="uni00B3" unicode="&#xb3;" horiz-adv-x="380" 
d="M324 465q18 -24 18 -60q0 -59 -41.5 -93t-108.5 -34q-42 0 -82 14.5t-69 37.5l28 52q60 -45 119 -45q38 0 61 17t23 51q0 62 -78 62h-56l4 58h47q42 0 65 18t23 53q0 26 -17.5 40t-47.5 14q-28 0 -60.5 -12t-59.5 -33l-20 53q29 23 67.5 37t78.5 14q60 0 95 -29t35 -74
q0 -40 -20.5 -67t-54.5 -40q33 -10 51 -34z" />
    <glyph glyph-name="uni2074" unicode="&#x2074;" horiz-adv-x="380" 
d="M371 422l-4 -57h-63l-6 -83h-69l6 83h-191l4 53l224 287h59l-22 -283h62zM116 422h124l13 176z" />
    <glyph glyph-name="uni2075" unicode="&#x2075;" horiz-adv-x="380" 
d="M322 517.5q35 -33.5 35 -90.5q0 -44 -21 -78t-56.5 -52.5t-78.5 -18.5q-40 0 -79.5 14t-68.5 38l29 52q56 -44 114 -44q42 0 66 22t24 63q0 32 -20 51t-55 19q-52 0 -92 -37h-43l19 249h264l-4 -59h-195l-9 -119q33 24 79 24q57 0 92 -33.5z" />
    <glyph glyph-name="uni2076" unicode="&#x2076;" horiz-adv-x="380" 
d="M325.5 515.5q35.5 -34.5 35.5 -92.5q0 -64 -42 -104.5t-107 -40.5q-74 0 -115 47.5t-41 132.5q0 75 23 131.5t65 88t99 31.5q75 0 137 -51l-27 -53q-54 45 -111 45q-49 0 -78 -38.5t-35 -110.5v-3q16 24 43 38t59 14q59 0 94.5 -34.5zM270 357.5q22 23.5 22 61.5
q0 35 -19.5 55.5t-52.5 20.5q-38 0 -62 -23.5t-24 -60.5q0 -34 21.5 -55.5t55.5 -21.5q37 0 59 23.5z" />
    <glyph glyph-name="uni2077" unicode="&#x2077;" horiz-adv-x="380" 
d="M81 705h291l-4 -57l-211 -366h-79l210 362h-212z" />
    <glyph glyph-name="uni2078" unicode="&#x2078;" horiz-adv-x="380" 
d="M342.5 462.5q18.5 -25.5 18.5 -60.5q0 -57 -44 -90.5t-121 -33.5q-71 0 -112 30.5t-41 82.5q0 41 22.5 70t63.5 40q-28 11 -44 35t-16 55q0 55 42 86.5t113 31.5q66 0 104 -29t38 -77q0 -37 -20 -65t-55 -39q33 -11 51.5 -36.5zM159 635q-22 -17 -22 -51q0 -28 20 -44
t56 -16q40 0 62.5 18.5t22.5 51.5q0 28 -19 43t-56 15q-42 0 -64 -17zM268 353q24 18 24 52q0 63 -85 63q-95 0 -95 -73q0 -29 21.5 -44.5t63.5 -15.5q47 0 71 18z" />
    <glyph glyph-name="uni2079" unicode="&#x2079;" horiz-adv-x="380" 
d="M322 661.5q41 -47.5 41 -132.5q0 -75 -23 -131.5t-65 -88t-99 -31.5q-75 0 -137 51l27 53q54 -45 111 -45q49 0 78 38.5t35 110.5v3q-16 -24 -43 -38t-59 -14q-59 0 -94 34.5t-35 92.5q0 64 41.5 104.5t106.5 40.5q74 0 115 -47.5zM261.5 515q23.5 23 23.5 61
q0 35 -21 56t-56 21q-37 0 -59 -23.5t-22 -61.5q0 -35 19.5 -55.5t52.5 -20.5q39 0 62.5 23z" />
    <glyph glyph-name="fraction" unicode="&#x2044;" horiz-adv-x="173" 
d="M-113 -25l-54 37l471 718l54 -37z" />
    <glyph glyph-name="onehalf" unicode="&#xbd;" horiz-adv-x="933" 
d="M259 342h76l-5 -60h-223l4 60h76l23 281l-72 -42l-27 53l122 71h55zM267 -25l-54 37l471 718l54 -37zM681 60h193l-5 -60h-281l4 54l155 156q31 32 44.5 55.5t13.5 47.5q0 27 -17 41t-48 14q-27 0 -58.5 -12t-58.5 -33l-20 53q29 23 67.5 37t78.5 14q60 0 95 -29.5
t35 -79.5q0 -37 -19 -71.5t-63 -75.5z" />
    <glyph glyph-name="onequarter" unicode="&#xbc;" horiz-adv-x="933" 
d="M259 342h76l-5 -60h-223l4 60h76l23 281l-72 -42l-27 53l122 71h55zM267 -25l-54 37l471 718l54 -37zM902 140l-4 -57h-63l-6 -83h-69l6 83h-191l4 53l224 287h59l-22 -283h62zM647 140h124l13 176z" />
    <glyph glyph-name="threequarters" unicode="&#xbe;" horiz-adv-x="933" 
d="M324 465q18 -24 18 -60q0 -59 -41.5 -93t-108.5 -34q-42 0 -82 14.5t-69 37.5l28 52q60 -45 119 -45q38 0 61 17t23 51q0 62 -78 62h-56l4 58h47q42 0 65 18t23 53q0 26 -17.5 40t-47.5 14q-28 0 -60.5 -12t-59.5 -33l-20 53q29 23 67.5 37t78.5 14q60 0 95 -29t35 -74
q0 -40 -20.5 -67t-54.5 -40q33 -10 51 -34zM267 -25l-54 37l471 718l54 -37zM902 140l-4 -57h-63l-6 -83h-69l6 83h-191l4 53l224 287h59l-22 -283h62zM647 140h124l13 176z" />
    <glyph glyph-name="asterisk" unicode="*" horiz-adv-x="450" 
d="M440 565v-62l-148 5l78 -124l-53 -31l-69 130l-69 -130l-53 31l78 124l-147 -5v62l147 -5l-78 124l53 31l69 -130l69 130l53 -31l-78 -124z" />
    <glyph glyph-name="backslash" unicode="\" horiz-adv-x="282" 
d="M211 -65l-193 800l69 18l193 -800z" />
    <glyph glyph-name="periodcentered" unicode="&#xb7;" horiz-adv-x="229" 
d="M69 317h102l-8 -102h-102z" />
    <glyph glyph-name="bullet" unicode="&#x2022;" horiz-adv-x="524" 
d="M173 111.5q-42 23.5 -66.5 64t-24.5 89.5q0 46 23.5 87t65 66t92.5 25q48 0 89.5 -23.5t66.5 -64t25 -90.5q0 -48 -24.5 -88.5t-66 -64.5t-90.5 -24q-48 0 -90 23.5z" />
    <glyph glyph-name="colon" unicode=":" horiz-adv-x="229" 
d="M82 487h102l-7 -103h-102zM52 102h102l-8 -102h-102z" />
    <glyph glyph-name="comma" unicode="," horiz-adv-x="229" 
d="M154 102l-5 -73q-4 -43 -20.5 -76.5t-51.5 -66.5l-35 29q42 44 50 85h-48l8 102h102z" />
    <glyph glyph-name="ellipsis" unicode="&#x2026;" horiz-adv-x="687" 
d="M52 102h102l-8 -102h-102zM281 102h102l-8 -102h-102zM510 102h102l-8 -102h-102z" />
    <glyph glyph-name="exclam" unicode="!" horiz-adv-x="229" 
d="M84 185l16 520h101l-67 -520h-50zM52 102h102l-8 -102h-102z" />
    <glyph glyph-name="exclamdown" unicode="&#xa1;" horiz-adv-x="229" 
d="M75 384l7 103h102l-7 -103h-102zM94 301h49l-12 -481h-101z" />
    <glyph glyph-name="numbersign" unicode="#" 
d="M584 472h-100l-63 -231h123l-4 -59h-135l-50 -182h-63l50 182h-159l-50 -182h-64l50 182h-89l4 59h101l63 231h-124l4 59h136l48 174h63l-47 -174h159l47 174h64l-48 -174h88zM358 241l63 231h-159l-63 -231h159z" />
    <glyph glyph-name="period" unicode="." horiz-adv-x="229" 
d="M52 102h102l-8 -102h-102z" />
    <glyph glyph-name="question" unicode="?" horiz-adv-x="443" 
d="M180 209q4 62 30 106t73 96q40 45 59 76t19 72q0 40 -28.5 62.5t-78.5 22.5q-99 0 -197 -81l-26 63q45 41 106 64t124 23q85 0 134.5 -39.5t49.5 -105.5q0 -57 -26.5 -98.5t-79.5 -94.5q-48 -50 -74 -87t-35 -86l-4 -18h-48zM138 0l7 102h102l-7 -102h-102z" />
    <glyph glyph-name="questiondown" unicode="&#xbf;" horiz-adv-x="443" 
d="M196 384l7 103h103l-8 -103h-102zM52 -147q-50 40 -50 104q0 38 14 68.5t34.5 52.5t55.5 53q47 41 73 74t34 80l4 18h48l-2 -25q-3 -42 -17.5 -74.5t-33.5 -55t-51 -53.5q-39 -37 -57.5 -64t-18.5 -64q0 -40 29 -62.5t79 -22.5q98 0 196 81l26 -63q-45 -41 -105.5 -64
t-121.5 -23q-86 0 -136 40z" />
    <glyph glyph-name="quotedbl" unicode="&#x22;" horiz-adv-x="421" 
d="M99 428v277h95l-41 -277h-54zM299 428v277h95l-41 -277h-54z" />
    <glyph glyph-name="quotesingle" unicode="'" horiz-adv-x="221" 
d="M99 428v277h95l-41 -277h-54z" />
    <glyph glyph-name="semicolon" unicode=";" horiz-adv-x="229" 
d="M83 487h102l-8 -103h-102zM52 102h102l-5 -73q-4 -43 -20.5 -76.5t-51.5 -66.5l-35 29q42 44 50 85h-48z" />
    <glyph glyph-name="slash" unicode="/" horiz-adv-x="283" 
d="M23 -65l-64 25l316 793l65 -25z" />
    <glyph glyph-name="underscore" unicode="_" horiz-adv-x="500" 
d="M-15 -53l4 53h484l-4 -53h-484z" />
    <glyph glyph-name="periodcentered.loclCAT" horiz-adv-x="300" 
d="M104 302h102l-7 -94h-102z" />
    <glyph glyph-name="braceleft" unicode="{" horiz-adv-x="351" 
d="M209 297q-23 -27 -54 -34q29 -7 48.5 -34t16.5 -71l-19 -229q-3 -45 40 -45h74l-5 -64h-86q-55 0 -81 27t-22 75l18 227q3 41 -11 60t-53 21l-27 2l4 62l28 2q40 2 57 20.5t20 59.5l17 227q4 51 31 76.5t75 25.5h99l-4 -64h-74q-22 0 -33.5 -11t-13.5 -34l-18 -228
q-4 -44 -27 -71z" />
    <glyph glyph-name="braceright" unicode="}" horiz-adv-x="351" 
d="M306 294l-5 -62l-27 -2q-39 -2 -56 -21t-21 -60l-18 -227q-9 -102 -108 -102h-97l5 64h74q44 0 47 45l18 229q4 44 27.5 71t54.5 34q-30 7 -49.5 34t-15.5 71l17 228q4 45 -39 45h-74l4 64h87q55 0 81 -27t22 -75l-18 -227q-3 -41 11 -59.5t53 -20.5z" />
    <glyph glyph-name="bracketleft" unicode="[" horiz-adv-x="314" 
d="M76 -180l70 885h196l-4 -64h-117l-60 -757h117l-5 -64h-197z" />
    <glyph glyph-name="bracketright" unicode="]" horiz-adv-x="314" 
d="M171 -180h-197l5 64h117l60 757h-117l4 64h197z" />
    <glyph glyph-name="parenleft" unicode="(" horiz-adv-x="314" 
d="M122.5 -1.5q-20.5 92.5 -20.5 187.5q0 287 158 533l55 -26q-65 -127 -97.5 -253t-32.5 -262q0 -172 62 -348l-58 -23q-46 99 -66.5 191.5z" />
    <glyph glyph-name="parenright" unicode=")" horiz-adv-x="314" 
d="M3 -167q65 128 97.5 254t32.5 261q0 172 -62 348l58 23q46 -99 66.5 -191.5t20.5 -187.5q0 -288 -159 -533z" />
    <glyph glyph-name="emdash" unicode="&#x2014;" horiz-adv-x="1000" 
d="M-1 240l5 52h1000l-5 -52h-1000z" />
    <glyph glyph-name="endash" unicode="&#x2013;" horiz-adv-x="500" 
d="M-1 240l5 52h500l-5 -52h-500z" />
    <glyph glyph-name="figuredash" unicode="&#x2012;" 
d="M72 240l4 52h455l-4 -52h-455z" />
    <glyph glyph-name="uni2015" unicode="&#x2015;" horiz-adv-x="1000" 
d="M-1 240l5 52h1000l-5 -52h-1000z" />
    <glyph glyph-name="hyphen" unicode="-" horiz-adv-x="425" 
d="M72 233l5 67h280l-5 -67h-280z" />
    <glyph glyph-name="uni2010" unicode="&#x2010;" horiz-adv-x="425" 
d="M72 233l5 67h280l-5 -67h-280z" />
    <glyph glyph-name="uni00AD" unicode="&#xad;" horiz-adv-x="425" 
d="M72 233l5 67h280l-5 -67h-280z" />
    <glyph glyph-name="guillemotleft" unicode="&#xab;" horiz-adv-x="441" 
d="M144 85l-83 160l3 41l108 159l57 -24l-91 -156l65 -157zM325 85l-83 160l3 41l108 159l57 -24l-91 -156l65 -157z" />
    </font>
</defs>
</svg>
