<?xml version="1.0" standalone="no"?>
<!DOCTYPE svg PUBLIC "-//W3C//DTD SVG 1.1//EN" "http://www.w3.org/Graphics/SVG/1.1/DTD/svg11.dtd" >
<svg xmlns="http://www.w3.org/2000/svg" xmlns:xlink="http://www.w3.org/1999/xlink" version="1.1">
<metadata>
Created by FontForge 20190801 at Tue Nov 24 10:58:18 1998
 By root
(C) 1993 B &#38; P Graphics, Ltd.
</metadata>
<defs>
<font id="Sunset-Medium" horiz-adv-x="640" >
  <font-face 
    font-family="Sunset-Medium"
    font-weight="5"
    font-stretch="normal"
    units-per-em="1000"
    panose-1="0 0 0 0 0 0 0 0 0 0"
    ascent="800"
    descent="-200"
    x-height="469"
    cap-height="721"
    bbox="-101 -278 1184 967"
    underline-thickness="50"
    underline-position="-125"
    unicode-range="U+0020-F002"
  />
<missing-glyph horiz-adv-x="792" 
d="M49 0v792h694v-792h-694zM694 49v694h-596v-694h596z" />
    <glyph glyph-name=".notdef" horiz-adv-x="792" 
d="M49 0v792h694v-792h-694zM694 49v694h-596v-694h596z" />
    <glyph glyph-name="glyph1" horiz-adv-x="0" 
 />
    <glyph glyph-name="glyph2" horiz-adv-x="290" 
 />
    <glyph glyph-name="space" unicode=" " horiz-adv-x="290" 
 />
    <glyph glyph-name="exclam" unicode="!" horiz-adv-x="257" 
d="M48 659q0 16 4 33.5t13.5 33t70.5 15.5q44 0 63 -19t19 -63v-6l-5 -35l-45 -377q-5 -32 -14 -43t-28 -11q-17 0 -25 12t-11 42l-40 381zM133 130q34 0 57 -21t23 -52t-23 -50t-60 -19q-34 0 -57.5 20t-23.5 49q0 30 24.5 51.5t59.5 21.5z" />
    <glyph glyph-name="quotedbl" unicode="&#x22;" horiz-adv-x="419" 
d="M96 601q-35 0 -56 17t-21 46q0 28 25.5 48.5t60.5 20.5q40 0 65 -25t25 -66q0 -19 -9.5 -39.5t-25 -46t-27.5 -40.5t-23.5 -25t-28.5 -23.5t-31 -13.5q-8 0 -14.5 6.5t-6.5 13.5q0 8 10 17l19 18q20 19 33 41.5t13 39.5l-1 11h-7zM304 601q-35 0 -56 17t-21 46
q0 28 25.5 48.5t59.5 20.5q40 0 64.5 -25.5t24.5 -65.5q0 -20 -7 -37.5t-25 -46.5t-32.5 -46.5t-40.5 -37.5t-39 -20q-7 0 -13.5 6.5t-6.5 13.5q0 8 9 17l20 18q44 41 44 81l-1 11h-5z" />
    <glyph glyph-name="numbersign" unicode="#" horiz-adv-x="632" 
d="M54 274h116l36 172h-115l11 54h116l44 209h54l-44 -209h100l45 209h54l-45 -209h116l-12 -54h-115l-37 -172h116l-12 -54h-115l-44 -209h-54l44 209h-101l-44 -209h-54l44 209h-115zM324 274l37 172h-101l-36 -172h100z" />
    <glyph glyph-name="dollar" unicode="$" horiz-adv-x="667" 
d="M319 301l-56 10q-32 6 -67 21t-66.5 37t-51 60t-19.5 83q0 98 56 141.5t89 56.5t54.5 18t60.5 5v68h37v-68q31 0 43 -1.5t44.5 -10t54 -16.5t39.5 -18t23.5 -26t8.5 -35.5t3 -38.5q0 -20 -9.5 -31.5t-26.5 -11.5q-16 0 -28 19l-24 35q-24 34 -55 49t-43.5 18.5t-29.5 3.5
v-228l103 -26q32 -8 63.5 -23.5t52.5 -36t35 -55.5t14 -73q0 -78 -34.5 -119t-51.5 -55t-43.5 -28.5t-56 -23t-84.5 -16.5v-79h-36v79q-45 0 -81 9q-36 6 -71.5 22.5t-68.5 42t-50.5 52t-17.5 50.5q0 20 13.5 34.5t34.5 14.5q27 0 51 -39t36.5 -53.5t35 -29t43.5 -20.5
t36.5 -8.5t39.5 -2.5v244zM432 91q22 17 36 44t14 55q0 35 -26 60t-73 36l-28 6v-231q31 7 47 13.5t30 16.5zM239 638q-18 -13 -28 -34t-10 -45q0 -29 10 -49.5t27 -30.5l29 -13l22 -8l31 -8v218q-59 -13 -81 -30z" />
    <glyph glyph-name="percent" unicode="%" horiz-adv-x="902" 
d="M444 541q0 -86 -58 -140t-150 -54q-91 0 -148 53t-57 137q0 85 58 142t146 57q24 0 42.5 -3t36.5 -11l61 -28q28 -12 54.5 -19t52.5 -7q73 0 130 48l22 18l11 7q11 3 34 3q32 0 32 -19l-2 -8l-15 -25l-418 -679q-15 -21 -21.5 -24t-24.5 -3q-40 0 -40 18q0 11 16 30
l365 598q-55 -14 -83 -14q-18 0 -28.5 1t-35.5 6q12 -28 16 -44t4 -40zM663 376q89 0 148 -55t59 -137q0 -84 -61.5 -140.5t-151.5 -56.5t-148 54t-58 137q0 87 59.5 142.5t152.5 55.5zM144 544q0 -65 26 -104t69 -39q46 0 72 37.5t26 104.5q0 63 -26 101t-69 38
q-44 0 -71 -38t-27 -100zM562 181v-5q0 -64 25 -99.5t71 -35.5q45 0 71.5 38.5t26.5 102.5q0 65 -25.5 103.5t-69.5 38.5q-48 0 -73.5 -36.5t-25.5 -106.5z" />
    <glyph glyph-name="ampersand" unicode="&#x26;" horiz-adv-x="829" 
d="M166 416q-28 47 -39 77.5t-11 63.5q0 80 61.5 133t155.5 53q89 0 145 -42t56 -109q0 -56 -43 -103.5t-137 -93.5l170 -197q33 34 51.5 68t18.5 62q0 27 -21 33l-23 7q-18 5 -18 24q0 15 9 20t36 5h161l18 -1q8 -2 13.5 -9.5t5.5 -17.5q0 -9 -3 -13.5t-5.5 -7t-8.5 -5.5
l-24 -8q-24 -9 -36 -30l-23 -42q-18 -34 -96 -137q67 -72 146 -72l17 2l32 6l9 1q30 0 30 -28q0 -24 -45.5 -44t-101.5 -20q-29 0 -57 6t-53.5 17t-77.5 49q-57 -43 -104 -60t-109 -17q-110 0 -179.5 55t-69.5 142q0 98 54 138.5t67 48.5t44 25zM227 339q-28 -23 -49 -49.5
t-29 -45t-8 -39.5q0 -62 41 -102t103 -40q67 0 132 49zM308 457l23 13q34 20 49 32t32.5 37t17.5 51q0 35 -28 62t-66 27q-40 0 -67 -27t-27 -68q0 -31 21 -62l32 -46z" />
    <glyph glyph-name="quotesingle" unicode="'" horiz-adv-x="212" 
d="M96 603q-35 0 -56 17t-21 46q0 28 25.5 48.5t60.5 20.5q40 0 65 -25t25 -66q0 -20 -9.5 -40t-25 -45.5t-27 -39.5t-19.5 -22t-29 -24.5t-35 -16.5q-8 0 -14 7q-7 4 -7 13q0 7 10 17l19 18q20 17 33 40.5t13 40.5l-1 11h-7z" />
    <glyph glyph-name="parenleft" unicode="(" horiz-adv-x="302" 
d="M54 474q12 49 39 119t58 131t53.5 84.5t49.5 23.5q30 0 30 -21q0 -13 -18.5 -53t-33.5 -84t-28 -106t-20 -114t-7 -93q0 -40 7 -93t25.5 -139.5t46.5 -145t28 -71.5q0 -22 -30 -22q-33 0 -58 34t-50 84.5t-53.5 124t-39 121.5t-10.5 107q0 68 11 113z" />
    <glyph glyph-name="parenright" unicode=")" horiz-adv-x="302" 
d="M248 249q-11 -48 -38 -116.5t-59 -131.5t-54.5 -87t-48.5 -24q-31 0 -31 22q0 11 19.5 52t34 85t34 136t19.5 176q0 85 -25 203t-53.5 176.5t-28.5 69.5q0 22 31 22q35 0 57 -33q48 -65 90.5 -172.5t52.5 -157.5t10 -108q0 -66 -10 -112z" />
    <glyph glyph-name="asterisk" unicode="*" horiz-adv-x="357" 
d="M71 472q-16 0 -30.5 12t-14.5 30l3 14l13 15l20 11l73 10q8 1 11 3t4 5q-3 2 -7 4t-9 2q-55 10 -71 15.5t-25 15t-9 23.5q0 19 13 31t33 12q17 0 29 -12l47 -53q5 -6 8 -8t4 -3l2 3l-3 12l-27 66l-1 5q0 19 13.5 33.5t30.5 14.5q18 0 31.5 -14.5t13.5 -33.5l-1 -5
l-27 -66q-2 -3 -2.5 -6t-1.5 -6l3 -3q2 2 6.5 6t5.5 5l48 53q5 7 11.5 9t17.5 2q21 0 33 -11t12 -31q0 -13 -9 -23t-24 -15t-47 -11t-35.5 -7t-6.5 -4q2 -2 6.5 -4.5t10.5 -3.5l72 -10q10 -3 20 -10q16 -16 16 -30q0 -9 -10 -25.5t-33 -16.5q-24 0 -37 16l-46 49q-4 6 -7 8
t-7 4l-2 -3l3 -14l29 -65l3 -15q0 -17 -13 -28t-34 -11q-43 0 -43 41l2 12l28 66l4 14l-3 3q-4 -2 -7.5 -4.5t-7.5 -6.5l-44 -50q-13 -16 -35 -16z" />
    <glyph glyph-name="plus" unicode="+" 
d="M108 413h157v157h111v-157h155v-110h-155v-156h-111v156h-157v110z" />
    <glyph glyph-name="comma" unicode="," horiz-adv-x="212" 
d="M96 -2q-35 0 -56 17t-21 46q0 28 25.5 48.5t60.5 20.5q40 0 65 -25t25 -66q0 -19 -9 -39t-24.5 -45.5t-32.5 -46t-36 -34.5q-27 -23 -43 -23q-8 0 -14.5 6.5t-6.5 12.5q0 9 10 18l19 18q20 19 33 41.5t13 39.5l-1 11h-7z" />
    <glyph glyph-name="hyphen" unicode="-" horiz-adv-x="303" 
d="M18 264q0 55 60 55h147q59 0 59 -50q0 -56 -59 -56h-149q-26 0 -42 14t-16 37z" />
    <glyph glyph-name="period" unicode="." horiz-adv-x="202" 
d="M104 130q34 0 57 -21t23 -52t-23 -50t-62 -19q-33 0 -57 20t-24 49q0 30 25.5 51.5t60.5 21.5z" />
    <glyph glyph-name="slash" unicode="/" horiz-adv-x="497" 
d="M77 -67q-16 -34 -37 -34q-36 0 -36 20q0 7 11 32l406 839q10 21 17.5 28.5t19.5 7.5q36 0 36 -21l-3 -10l-11 -23z" />
    <glyph glyph-name="zero" unicode="0" 
d="M85 583q79 150 235 150q97 0 157.5 -51.5t94.5 -137.5t34 -185q0 -60 -13 -117t-45.5 -119.5t-90 -99.5t-137.5 -37q-52 0 -89.5 12t-83 51.5t-80.5 125.5t-35 184q0 60 14 117.5t39 106.5zM181 359q0 -178 29.5 -227t56 -65t53.5 -16q45 0 78.5 36.5t43 87t13 91
t3.5 93.5q0 181 -29.5 229.5t-55.5 63.5t-53 15q-46 0 -79 -36t-46.5 -105t-13.5 -167z" />
    <glyph glyph-name="one" unicode="1" 
d="M225 600h-25l-18 -1q-52 0 -52 28q0 24 49 35q23 3 57 13t59 20t52 26t41 16q41 0 41 -53v-559q0 -33 4 -44.5t18 -14.5l32 -9q26 -5 26 -29q0 -12 -9 -20t-25 -8h-238q-35 0 -35 28q0 24 26 29l33 9q14 4 19 20.5t5 59.5v402q0 30 -13 41t-47 11z" />
    <glyph glyph-name="two" unicode="2" 
d="M424 109q54 0 86 34l21 20q13 13 28 13q12 0 20 -8t8 -22q0 -12 -8 -31l-27 -80q-7 -22 -18 -27q-12 -8 -31 -8h-386l-40 2q-24 3 -24 32q0 19 13 47.5t35 53.5l36 41l87 101l106 110q23 25 46 60t32.5 60t9.5 50q0 52 -32.5 83.5t-86.5 31.5q-46 0 -79.5 -30t-33.5 -72
q0 -17 12 -39.5t12 -29.5q0 -21 -19.5 -35.5t-48.5 -14.5q-34 0 -55.5 25.5t-21.5 66.5q0 82 75 138t185 56q108 0 173.5 -53t65.5 -141q0 -51 -27 -99.5t-86 -102.5l-116 -107q-40 -38 -57.5 -57.5t-52.5 -66.5z" />
    <glyph glyph-name="three" unicode="3" 
d="M584 210q0 -100 -79.5 -161.5t-207.5 -61.5q-109 0 -177.5 44t-68.5 115q0 62 65 62q21 0 37 -10t23.5 -55.5t32.5 -68.5t76 -23q64 0 101 38t37 105q0 69 -36.5 112.5t-95.5 43.5l-50 1q-28 0 -38.5 7.5t-10.5 28.5q0 17 10.5 24t38.5 7l54 4q41 0 73 42t32 96
q0 51 -28 81t-76 30q-36 0 -59.5 -19.5t-23.5 -51.5l1 -11l5 -25l2 -5q0 -18 -19 -30t-48 -12q-63 0 -63 59q0 68 64 113t162 45q104 0 167.5 -48.5t63.5 -128.5q0 -60 -36 -102q-26 -33 -87 -58q83 -32 121 -77t38 -110z" />
    <glyph glyph-name="four" unicode="4" 
d="M103 188q-51 0 -66 7.5t-15 32.5q0 26 22 66.5t87 134.5l108 157q41 60 68 94.5t44.5 47.5t60.5 13q22 0 35.5 -4t23 -12t10.5 -12t2.5 -17t1.5 -32l1 -403h87q16 0 21 -1t14 -7.5t9 -29.5q0 -34 -38 -34h-91v-78q0 -40 21 -45l33 -9q26 -5 26 -29q0 -28 -35 -28h-238
q-34 0 -34 28q0 24 25 29l33 9q11 3 16.5 13.5t5.5 31.5l1 77h-239zM343 605q-49 -61 -76.5 -99.5t-75.5 -111.5l-61 -100l-10 -16q-10 -17 -10 -20l23 -2l15 -1h195v350z" />
    <glyph glyph-name="five" unicode="5" 
d="M228 442q48 17 111 17q114 0 183 -61t69 -162q0 -109 -78.5 -178.5t-203.5 -69.5q-96 0 -169 44t-73 102q0 29 18.5 46.5t47.5 17.5q62 0 62 -54v-20q0 -72 96 -72q67 0 108 48t41 128q0 71 -36 116t-94 45h-16t-20.5 -3.5t-27 -8t-24.5 -11.5l-36 -23q-20 -14 -37 -14
q-29 0 -29 42v14l21 298q0 30 4.5 39.5t18.5 9.5l19 -2l71 -9q40 -4 107 -4h12q43 0 60 2.5t47.5 6t39.5 3.5q27 0 27 -27q0 -19 -16 -39t-40.5 -29.5t-64.5 -14.5t-97 -5h-32q-37 0 -78 5l-14 -187z" />
    <glyph glyph-name="six" unicode="6" 
d="M249 438q48 21 113 21q104 0 170.5 -59.5t66.5 -155.5q0 -114 -79 -185t-204 -71q-124 0 -199 80t-75 211q0 204 122.5 335.5t312.5 131.5q65 0 65 -32q0 -28 -56 -34q-22 0 -47.5 -5.5t-44 -10.5t-55.5 -28t-53 -43t-39.5 -64t-40.5 -113q14 8 25 14t18 8zM198 276
l-1 -10q0 -93 36 -151t95 -58q54 0 87 45.5t33 121.5q0 73 -36 119.5t-93 46.5q-22 0 -51 -11.5t-49.5 -31.5t-20.5 -71z" />
    <glyph glyph-name="seven" unicode="7" 
d="M194 612q-29 0 -40 -10q-9 -4 -12 -15l-10 -26q-10 -24 -31 -24q-31 0 -31 35v4l6 104q0 21 8.5 29t17.5 10t30 2l384 -1h26q3 0 7.5 -1.5l7.5 -2.5q7 -7 7 -17q0 -8 -5 -23.5t-44 -115.5t-71 -199t-59 -197t-33 -120t-13.5 -37t-32.5 -15l-47 -1h-11q-47 0 -63 7t-16 29
q0 12 5 25.5t22 44.5l111 246q37 82 62 131t75 138h-250z" />
    <glyph glyph-name="eight" unicode="8" 
d="M55 532q0 89 74 145t193 56q91 0 142 -23.5t78 -62.5t27 -77q0 -64 -39 -97t-52.5 -42t-36.5 -22q86 -44 125 -91.5t39 -108.5q0 -50 -23.5 -95.5t-81 -87.5t-194.5 -42q-122 0 -196 52t-74 139q0 40 13.5 68.5t40 54t41 34.5t48.5 27q-65 40 -94.5 80.5t-29.5 92.5z
M277 341q-45 -28 -65 -47t-35.5 -49t-15.5 -66q0 -57 43 -93t111 -36q64 0 101.5 29t37.5 79q0 66 -44 102t-98 62zM331 426q35 20 52.5 33t33 31.5t21.5 32t6 34.5q0 51 -35 82t-92 31q-49 0 -83.5 -29.5t-34.5 -70.5q0 -20 15 -46.5t35 -45t34.5 -27.5t47.5 -25z" />
    <glyph glyph-name="nine" unicode="9" 
d="M391 280q-50 -22 -114 -22q-104 0 -170 60t-66 156q0 112 77 184t199 72q128 0 204 -79t76 -212q0 -204 -122 -335t-313 -131q-64 0 -64 32q0 14 15 23.5t41 9.5q29 3 47.5 6t41 9.5t58.5 29.5t50 40.5t22 30t18 33.5q16 29 24.5 53t16.5 62zM191 508v-13q0 -73 36 -120
t94 -47q23 0 51 11.5t49 32t21 83.5q0 91 -36 149t-94 58q-54 0 -87.5 -41.5t-33.5 -112.5z" />
    <glyph glyph-name="colon" unicode=":" horiz-adv-x="224" 
d="M125 130q34 0 57 -21t23 -52t-23 -50t-61 -19q-33 0 -57 20t-24 49t25.5 51t59.5 22zM125 483q35 0 57.5 -20.5t22.5 -51.5t-23 -50t-61 -19q-33 0 -57 20t-24 49q0 30 25 51t60 21z" />
    <glyph glyph-name="semicolon" unicode=";" horiz-adv-x="232" 
d="M125 483q35 0 57.5 -20.5t22.5 -51.5t-23 -50t-61 -19q-33 0 -57 20t-24 49q0 30 25 51t60 21zM118 -2q-35 0 -56 17t-21 46q0 27 26 48t59 21q40 0 65 -25t25 -66q0 -22 -7.5 -39t-24.5 -44t-34 -48q-6 -10 -14 -17t-29 -23.5t-36 -16.5q-6 0 -14 6q-6 8 -6 13
q0 8 10 18l20 18q20 19 32 41t12 40l-1 11h-6z" />
    <glyph glyph-name="less" unicode="&#x3c;" horiz-adv-x="266" 
d="M174 438q19 25 36 25q24 0 24 -25q0 -11 -7 -25l-82 -182l82 -182q7 -14 7 -25q0 -25 -24 -25q-19 0 -36 25l-140 207z" />
    <glyph glyph-name="equal" unicode="=" 
d="M108 334h424v-95h-424v95zM108 478h424v-95h-424v95z" />
    <glyph glyph-name="greater" unicode="&#x3e;" horiz-adv-x="266" 
d="M91 24q-17 -25 -35 -25q-24 0 -24 25q0 11 7 25l82 182l-82 182q-7 14 -7 25q0 25 24 25q17 0 35 -25l141 -208z" />
    <glyph glyph-name="question" unicode="?" horiz-adv-x="496" 
d="M157 363l9 7l22 9q58 29 77.5 48.5t27.5 31t14 25.5t9 34t3 39q0 57 -30 92.5t-80 35.5q-72 0 -72 -62l1 -13v-8q0 -55 -62 -55t-62 61q0 58 60.5 96.5t151.5 38.5q102 0 170 -59t68 -149q0 -70 -46 -124.5t-108 -75t-71 -28t-9 -26.5q0 -41 -5.5 -66.5t-36.5 -25.5
q-41 0 -41 40v101q0 23 10 33zM187 130q34 0 57 -21t23 -52t-23 -50t-61 -19q-34 0 -57.5 20t-23.5 49q0 30 24.5 51.5t60.5 21.5z" />
    <glyph glyph-name="at" unicode="@" horiz-adv-x="845" 
d="M436 195q-36 -43 -82 -43q-22 0 -74.5 22.5t-52.5 166.5l4 35q7 49 23 85.5t42 68t54.5 45.5t57.5 14q59 0 86 -52l5 -10l9 54h49l-37 -213l-13 -85q-3 -20 -3 -34t1 -20q3 -6 8 -22t35 -16q7 0 18 4t22.5 13t29.5 31q19 20 33 53.5t18.5 61.5t5.5 43t1 29
q0 114 -70.5 185.5t-181.5 71.5q-22 0 -89 -9.5t-140.5 -99.5t-73.5 -215v-24q2 -11 8 -77.5t89 -145.5t196 -79q58 0 123 27t122 89l25 30l18 -43l-25 -29q-115 -121 -268 -121q-154 0 -252.5 112.5t-98.5 285.5q0 77 31 140.5t104.5 129.5t140 73.5t89.5 7.5
q134 0 220.5 -86.5t86.5 -220.5q0 -33 -8.5 -81t-35 -96t-55.5 -70t-49.5 -29t-41.5 -7q-29 0 -51.5 15t-26.5 29.5t-5 21t-1 18.5q-6 -18 -20 -34zM299 230q17 -36 59 -36q26 0 42.5 16.5t25 33t20 48.5t21.5 80l1 10l7 42q3 23 3 37q0 15 -2.5 32t-21 34t-43.5 17
q-12 0 -32.5 -8.5t-38 -32t-30 -60.5t-17.5 -63.5t-6 -44.5t-1 -44q0 -18 3.5 -33.5t9.5 -27.5z" />
    <glyph glyph-name="A" unicode="A" horiz-adv-x="737" 
d="M174 194q-23 -64 -23 -89q0 -21 7 -31t30 -17.5t23 -28.5q0 -13 -9.5 -20.5t-26.5 -7.5h-156q-15 0 -24.5 7.5t-9.5 20.5q0 20 18 27l9 2q16 7 23 16t18 38l33 90l76 195q65 160 102 226t42.5 74t13 17.5t17.5 13.5t33 4q25 0 32.5 -5t33 -42.5t58 -105t73 -165
t73 -184.5t41 -109.5t17 -38t28.5 -24.5l8 -2q18 -7 18 -27q0 -12 -9 -20t-25 -8h-214q-35 0 -35 28q0 21 26 29q31 12 31 40q0 14 -5 32.5t-19 55.5l-20 54h-292zM218 318h236q-16 46 -26.5 72t-28.5 70.5t-26 62.5t-37 72q-28 -58 -37 -77.5t-30 -68.5z" />
    <glyph glyph-name="B" unicode="B" horiz-adv-x="717" 
d="M86 372v38l-3 206q0 22 -6 31t-28.5 17t-22.5 28q0 29 32 29h356q92 0 136 -24t66 -60.5t22 -76.5q0 -97 -129 -162q174 -70 174 -193q0 -65 -37 -113q-21 -30 -59 -52t-77.5 -31t-100.5 -9h-351q-32 0 -32 28q0 21 28.5 30.5t28.5 48.5l1 125zM230 319v-186
q0 -42 20 -53.5t94 -11.5q87 0 134 37t47 106q0 25 -15.5 53.5t-37.5 47t-37 26t-43 16.5q-58 -15 -96 -22.5t-66 -12.5zM230 391q34 5 53 9.5t50.5 13t57.5 19.5t45 24q52 41 52 104q0 67 -45 78.5t-64 13.5t-50 2q-51 0 -66 -2t-24 -14t-9 -57v-191z" />
    <glyph glyph-name="C" unicode="C" horiz-adv-x="754" 
d="M680 186q38 0 38 -37q0 -14 -11 -32t-43.5 -49.5t-99.5 -56.5t-140 -25q-165 0 -273.5 105.5t-108.5 264.5t114 269t278 110q75 0 147.5 -24t91.5 -50.5t21 -44t5 -42t3 -40.5q0 -35 -30 -35q-17 0 -29 10t-32 46t-58.5 73t-121.5 37q-102 0 -167 -87t-65 -223
q0 -131 66 -210t176 -79q52 0 102 21t84 58l26 29q11 12 27 12z" />
    <glyph glyph-name="D" unicode="D" horiz-adv-x="789" 
d="M85 492l-2 114q0 30 -5.5 40t-28.5 18t-23 29q0 28 35 28h125q184 0 226.5 -3t97 -19.5t91 -42t91 -94.5t54.5 -196q0 -213 -103.5 -273t-137 -70.5t-72 -14.5t-101.5 -6t-147 -2h-124q-35 0 -35 28q0 22 26 29q25 9 28 24.5t4 42t1 112.5v127v129zM235 606l-4 -113
l-1 -130l1 -129v-36q0 -72 4 -92t19.5 -29t60.5 -9q130 0 204.5 79.5t74.5 216.5q0 135 -78 213t-213 78q-28 0 -38 -2t-18 -9.5t-10 -13.5t-2 -24z" />
    <glyph glyph-name="E" unicode="E" horiz-adv-x="654" 
d="M252 422l78 -1h25h16q27 0 35 1t21 4t22 9l16 8q25 15 38 15t19 -13l4 -14q2 -10 2.5 -26.5t0.5 -28.5q0 -35 -5 -47t-20 -12q-11 0 -29 8l-16 8l-15 8l-17 7q-4 1 -30 4t-60 3h-8l-78 -1h-16v-199v-34q0 -9 4 -21t10.5 -19t30 -11t70.5 -4q78 0 131 13q35 6 76 41l17 14
q23 20 37 20q11 0 18 -10t7 -24l-1 -8l-7 -44q-7 -47 -19.5 -57.5t-63.5 -10.5h-484q-35 0 -35 28q0 22 26 29q18 7 25 18.5t7 35.5v499q0 25 -6.5 36t-29 18.5t-22.5 28.5q0 28 35 28h450q48 0 62 -6.5t17 -15.5q7 -12 10 -45l2 -39q0 -31 -26 -31q-17 0 -50 30l-18 16
q-7 6 -17.5 10.5t-21.5 7.5l-24 3q-70 7 -114 7q-61 0 -78 -8.5t-17 -38.5v-189h16z" />
    <glyph glyph-name="F" unicode="F" horiz-adv-x="582" 
d="M245 405q38 0 90.5 2.5t59.5 2.5q18 0 28 3.5t29 14.5l12 9q10 5 21 5q16 0 23 -13l7 -13l2 -44l1 -20q0 -55 -30 -55l-7 1l-15 6l-14 8q-23 16 -43 20t-70 4h-11h-84h-12l-1 -225q0 -24 7 -35.5t26 -18.5q26 -7 26 -29q0 -28 -35 -28h-194q-35 0 -35 28q0 22 26 29
q18 7 25 18.5t7 35.5v499q0 24 -6.5 35.5t-29 19t-22.5 28.5q0 28 35 28h430q63 0 75 -19q5 -6 7.5 -15.5t7.5 -29.5l6 -41q0 -15 -8.5 -24.5t-21.5 -9.5l-7 1q-10 4 -20 13l-16 15q-32 28 -55 34l-23 6q-29 3 -59.5 5t-53.5 2q-53 0 -72 -12t-19 -47v-194h13z" />
    <glyph glyph-name="G" unicode="G" horiz-adv-x="788" 
d="M746 335l-3 -30q-5 -30 -6 -38.5t-1 -38.5q0 -65 5 -86l4 -30q0 -18 -64 -72.5t-247 -54.5q-175 0 -251.5 71.5t-108.5 147t-32 154.5q0 162 114 270t285 108q76 0 138 -17t85 -36t29 -28.5t11 -20.5q4 -17 7 -38t3 -39q0 -47 -36 -47q-24 0 -34 24l-13 34
q-16 45 -65.5 73t-112.5 28q-109 0 -181 -87t-72 -221q0 -130 66.5 -212.5t171.5 -82.5q37 0 77 12.5t55.5 28t23 41.5t7.5 65q0 29 -5 49q-9 25 -25 29t-37.5 7t-37.5 3q-44 0 -44 31q0 22 16 30.5t32.5 10.5t60.5 2h83q69 0 85.5 -6.5t16.5 -33.5z" />
    <glyph glyph-name="H" unicode="H" horiz-adv-x="796" 
d="M231 111q0 -24 7 -35.5t26 -18.5q26 -7 26 -29q0 -28 -35 -28h-194q-35 0 -35 28q0 22 26 29q18 7 25 18.5t7 35.5v499q0 25 -6.5 36t-29 18.5t-22.5 28.5q0 28 35 28h194q35 0 35 -28q0 -21 -23.5 -29t-29.5 -17.5t-6 -36.5v-185h333v185q0 27 -5.5 36.5t-29 17.5
t-23.5 29q0 28 35 28h194q36 0 36 -29q0 -20 -22.5 -27.5t-29.5 -19t-7 -35.5v-499q0 -26 6 -36.5t29 -17.5t23 -29q0 -28 -35 -28h-194q-35 0 -35 28q0 21 22 28.5t29 19t7 35.5v237h-333v-237z" />
    <glyph glyph-name="I" unicode="I" horiz-adv-x="316" 
d="M52 663q-26 9 -26 30q0 28 35 28h194q35 0 35 -28q0 -21 -23.5 -29t-29.5 -17.5t-6 -36.5v-499q0 -24 7 -35.5t26 -18.5q26 -7 26 -29q0 -28 -35 -28h-194q-35 0 -35 28q0 22 26 29q18 7 25 18.5t7 35.5v499q0 25 -6.5 36t-25.5 17z" />
    <glyph glyph-name="J" unicode="J" horiz-adv-x="528" 
d="M122 131q0 -31 25 -52t62 -21q27 0 50 14t29.5 31t9.5 35.5t3 80.5l-2 391q0 25 -6 36t-28.5 18.5t-22.5 28.5q0 28 35 28h194q35 0 35 -29q0 -20 -22 -27.5t-29 -19t-7 -35.5v-411q0 -103 -60.5 -158.5t-172.5 -55.5q-97 0 -154 46t-57 124q0 56 32.5 94.5t79.5 38.5
q30 0 51 -15t21 -38l-1 -9q-6 -27 -23 -37l-13 -7q-29 -17 -29 -51z" />
    <glyph glyph-name="K" unicode="K" horiz-adv-x="725" 
d="M232 111q0 -26 6 -36.5t29 -17.5t23 -29q0 -28 -35 -28h-194q-35 0 -35 28q0 22 26 29q18 7 25 18.5t7 35.5v489q0 34 -5.5 45t-29 19t-23.5 29q0 28 35 28h194q35 0 35 -28q0 -21 -22.5 -28.5t-29.5 -18.5t-7 -36v-251q61 46 95.5 76t109 103t74.5 98q0 17 -27.5 26.5
t-27.5 30.5q0 28 35 28h162q34 0 34 -29q0 -21 -18 -27t-25 -11t-17 -19l-22 -25l-100 -111l-68 -69l80 -89q42 -51 84 -112.5t64 -105.5l18 -38q7 -12 13.5 -18t25 -12t18.5 -27q0 -12 -8.5 -20t-21.5 -8h-213q-35 0 -35 28q0 22 27 29q29 11 29 28q0 27 -43 88l-65 92
l-75 86l-103 -83z" />
    <glyph glyph-name="L" unicode="L" horiz-adv-x="601" 
d="M234 116q0 -32 18.5 -41t85.5 -9q68 0 111.5 15t75.5 44t46 29q29 0 29 -33q0 -15 -17 -83q-7 -22 -19.5 -30t-42.5 -8h-460q-35 0 -35 28q0 22 26 29q19 7 25.5 18t6.5 35v501q0 24 -6.5 35t-29 18.5t-22.5 28.5q0 28 35 28h194q35 0 35 -29q0 -20 -22.5 -27.5
t-29.5 -18.5t-7 -36l1 -441z" />
    <glyph glyph-name="M" unicode="M" horiz-adv-x="886" 
d="M619 674l11 27q9 20 52 20h133q35 0 35 -29q0 -20 -29.5 -30t-29.5 -49l19 -502q0 -26 6 -36.5t25 -17.5q26 -7 26 -29q0 -28 -35 -28h-191q-35 0 -35 28q0 22 26 29q33 12 33 51l-15 444l-168 -386l-13 -30l-6 -12q-21 -40 -49 -40q-20 0 -37 20l-13 18l-9 20l-13 26
l-171 386l-13 -443q0 -25 6 -36t25 -18q27 -7 27 -29q0 -12 -9.5 -20t-24.5 -8h-126q-34 0 -34 28q0 22 26 29q19 7 25.5 17.5t6.5 36.5l15 499q0 24 -6.5 35.5t-29 19t-22.5 28.5q0 28 35 28h159q28 0 44 -36l173 -413z" />
    <glyph glyph-name="N" unicode="N" horiz-adv-x="754" 
d="M163 109q0 -23 7 -34t29.5 -18.5t22.5 -28.5q0 -13 -9.5 -20.5t-26.5 -7.5h-125q-35 0 -35 28q0 22 26 29q19 7 25.5 18t6.5 34v501q0 25 -6.5 36t-29 18.5t-22.5 28.5q0 28 35 28h135q14 0 23 -5t22 -22l117 -140q101 -123 230 -313l-4 369q0 26 -6 36.5t-29 18
t-23 28.5q0 28 35 28h132q35 0 35 -29q0 -20 -22.5 -27.5t-29.5 -18.5t-7 -36v-499q0 -56 -3 -77t-16 -33t-37 -12q-20 0 -36.5 17t-57 82t-103.5 151.5t-99.5 135.5t-61.5 79t-92 107v-452z" />
    <glyph glyph-name="O" unicode="O" horiz-adv-x="848" 
d="M152 631q104 103 272 103t244 -77t106 -150.5t30 -146.5q0 -76 -28.5 -146.5t-104.5 -149t-247 -78.5q-88 0 -152 24t-117.5 77t-82.5 124t-29 149q0 75 29 147t80 124zM201 360q0 -128 65 -217t159 -89q93 0 158 89t65 217t-65 217t-158 89t-158.5 -89.5t-65.5 -216.5z
" />
    <glyph glyph-name="P" unicode="P" horiz-adv-x="641" 
d="M231 111q0 -24 7 -35.5t26 -18.5q26 -7 26 -29q0 -28 -35 -28h-194q-35 0 -35 28q0 22 26 29q18 7 25 18.5t7 35.5v499q0 25 -6.5 36t-29 18.5t-22.5 28.5q0 28 35 28h335q106 0 171 -53t65 -139q0 -107 -66 -154t-114 -66.5t-94.5 -29t-126.5 -9.5v-159zM229 341
q113 0 182 51t69 131q0 39 -21 72t-57.5 47t-100.5 14q-24 0 -38.5 -1.5t-23 -11.5t-9.5 -18t-1 -27v-257z" />
    <glyph glyph-name="Q" unicode="Q" horiz-adv-x="843" 
d="M635 -30q42 -12 83 -12h12h14q33 0 47 -9t14 -30q0 -27 -23 -39.5t-72 -12.5q-57 0 -96.5 14.5t-52.5 20.5t-29 16t-31 23.5t-45 45.5q-83 0 -125.5 8t-112 42t-122.5 124.5t-53 200.5q0 149 79.5 234.5t145.5 112.5t156 27q172 0 276.5 -108t104.5 -262
q0 -68 -23 -132.5t-61.5 -110.5t-68.5 -67t-92 -47q24 -20 41.5 -27.5t33.5 -11.5zM503 68q64 25 106 105.5t42 183.5q0 141 -62 227t-165 86q-100 0 -163 -85t-63 -221q0 -177 68.5 -228.5t89 -60t63.5 -17.5q-6 17 -16 49.5t-14 55t-5.5 36t-1.5 27.5q0 55 42 55
q30 0 37 -53.5t14.5 -82.5t27.5 -77z" />
    <glyph glyph-name="R" unicode="R" horiz-adv-x="714" 
d="M517 324q34 -49 53 -82t44.5 -87.5t35 -71.5t28.5 -24l10 -3q21 -8 21 -28q0 -28 -33 -28h-213q-35 0 -35 28q0 22 26 29q28 10 28 28q0 22 -26 70l-50 91q-10 21 -21.5 38.5t-18.5 29.5l-32 -7l-103 -10v-186q0 -24 7 -35.5t26 -18.5q26 -7 26 -29q0 -28 -35 -28h-194
q-35 0 -35 28q0 22 26 29q18 7 25 18.5t7 35.5v499q0 25 -6.5 36t-29 18.5t-22.5 28.5q0 28 35 28h350q105 0 169 -50t64 -133q0 -123 -147 -186zM492 529q0 57 -42.5 93.5t-108.5 36.5h-8q-26 0 -45.5 -3t-38.5 -11.5t-19 -52.5v-223q118 0 190 44t72 116z" />
    <glyph glyph-name="S" unicode="S" horiz-adv-x="656" 
d="M571 358q22 -20 36 -56.5t14 -73.5q0 -108 -83.5 -175t-217.5 -67t-213.5 63t-79.5 112q0 20 13.5 34.5t34.5 14.5q28 0 50.5 -38t36 -53.5t49.5 -38.5t99 -23q74 0 122 37t48 95q0 77 -110 100l-111 23q-96 22 -149 74t-53 128q0 96 78.5 157.5t200.5 61.5q52 0 105 -12
t92 -33q20 -13 28.5 -39t8.5 -63q0 -47 -36 -47q-15 0 -29 20l-23 37q-7 11 -29.5 28.5t-49 31.5t-72.5 14q-60 0 -97 -30t-37 -78q0 -38 26 -67q16 -16 33 -25t55 -18l146 -37q74 -18 114 -57z" />
    <glyph glyph-name="T" unicode="T" horiz-adv-x="653" 
d="M225 655q-88 0 -131 -40l-33 -30q-17 -14 -30 -14q-11 0 -20 10t-9 25l7 48l9 42q8 24 37 24l28 1h487q39 0 51 -12l10 -11q5 -9 12.5 -42t7.5 -54q0 -31 -28 -31q-17 0 -31 12l-30 28q-30 26 -61.5 35t-98.5 9v-544q0 -24 7 -35.5t29.5 -19t22.5 -28.5q0 -28 -35 -28
h-195q-35 0 -35 28q0 22 27 29q19 7 25 18t6 36v543z" />
    <glyph glyph-name="U" unicode="U" horiz-adv-x="772" 
d="M739 692q0 -20 -22.5 -27.5t-28 -18t-5.5 -36.5v-18q6 -61 9 -138.5t3 -143.5l-2 -64q0 -45 -12 -81.5t-62 -107.5t-222 -71q-137 0 -205.5 48t-92 107.5t-23.5 160.5q0 57 4 137.5t11 156.5l1 16q0 25 -6 34.5t-29 17t-23 29.5q0 28 34 28h191q35 0 35 -29
q0 -20 -23.5 -28t-30 -20t-6.5 -49l-9 -126l-6 -114l-1 -72q0 -83 20 -127.5t66.5 -71.5t108.5 -27q78 0 125.5 39.5t59 79t13.5 62.5t2 71l-1 51q0 39 -1 62.5t-3 47.5l-8 122q0 41 -6 52.5t-31 19.5t-25 29q0 28 35 28h131q35 0 35 -29z" />
    <glyph glyph-name="V" unicode="V" horiz-adv-x="691" 
d="M430 205q58 112 86.5 212t38 142t9.5 57l-2 19q-6 20 -31 28.5t-25 29.5q0 28 35 28h140q34 0 34 -29q0 -20 -22.5 -27.5t-27.5 -14.5t-18 -61t-38.5 -138t-45 -132.5t-55 -122.5t-52.5 -105t-37.5 -62t-32.5 -38t-39 -7q-37 0 -62 31t-45.5 66.5t-75 148t-84.5 221.5
l-35 125l-7 28l-7 31q-2 11 -8 17t-26.5 13t-20.5 28q0 28 35 28h195q35 0 35 -29q0 -20 -29 -30t-29 -44l3 -28l33 -125q10 -29 20 -55t37 -88.5t44.5 -99.5t57.5 -111z" />
    <glyph glyph-name="W" unicode="W" horiz-adv-x="1015" 
d="M458 251q-18 -59 -32.5 -93t-43 -90.5t-43 -69.5t-40.5 -13q-29 0 -47 16q-40 40 -82 184l-37 121q-44 144 -58.5 235t-20.5 103t-29 20t-23 29q0 28 35 28h195q35 0 35 -29q0 -20 -28.5 -29.5t-28.5 -44.5q0 -38 28 -153l37 -140q16 -62 26.5 -93.5t30.5 -83.5
q23 48 35 79t25.5 78.5t27.5 101.5t15.5 61.5t7.5 51.5t10 79l1 20q0 34 -28 43t-28 31q0 12 9 20t25 8h187q35 0 35 -29q0 -20 -29.5 -30t-29.5 -49q0 -21 7 -62t23.5 -102.5t37.5 -126t73 -175.5l26 57q24 55 46 128t31 130l24 134q5 22 5 34q0 24 -27.5 33t-27.5 30
q0 28 35 28h130q35 0 35 -29q0 -20 -23 -27.5t-29 -20t-12 -52t-15 -78.5t-23 -100t-28 -110t-43 -127t-50.5 -123t-36 -56.5t-41.5 -11.5q-30 0 -44 12t-18 18t-14 27l-49 98q-20 42 -40.5 97t-39.5 126l-10 32q-18 -81 -39 -145z" />
    <glyph glyph-name="X" unicode="X" horiz-adv-x="705" 
d="M78 611l-15 24q-10 15 -14.5 18.5t-27.5 10t-23 29.5q0 12 9 20t25 8h227q35 0 35 -29q0 -20 -27.5 -29.5t-27.5 -27.5q0 -8 5 -18.5t24.5 -41t40.5 -58t65 -79.5q20 25 43 54t46 63l28 42q14 19 14 31q0 25 -27.5 34t-27.5 31q0 12 9 20t25 8h150q34 0 34 -29
q0 -21 -26 -29q-12 -5 -18.5 -10t-12.5 -15t-30.5 -44.5t-53.5 -75.5t-47 -64.5t-56 -70.5q59 -63 84 -92t62 -80l68 -97l18 -29q14 -21 30 -28q26 -8 26 -29q0 -12 -9 -20t-25 -8h-224q-35 0 -35 28q0 21 29 30.5t29 29.5q0 9 -9.5 24.5t-37 51t-53.5 66.5t-61 71
l-115 -155q-28 -39 -28 -58t29 -31q26 -7 26 -29q0 -12 -9 -20t-25 -8h-157q-35 0 -35 28q0 21 26 29q12 5 17 9t19 20l14 17l54 76q10 16 33.5 46.5t35.5 46.5l64 85q-65 73 -94.5 112.5t-92.5 141.5z" />
    <glyph glyph-name="Y" unicode="Y" horiz-adv-x="648" 
d="M82 537l-41 77q-20 39 -45 49l-9 3q-18 7 -18 27q0 12 9.5 20t24.5 8h209q34 0 34 -29q0 -22 -27 -29q-24 -8 -24 -27q0 -20 35 -80l53 -92l74 -106l74 101l61 103q18 29 25 44.5t7 25.5q0 22 -27.5 31t-27.5 30q0 13 9.5 20.5t26.5 7.5h138q35 0 35 -28q0 -21 -17 -27
l-8 -3q-7 -2 -14 -7.5t-11 -9.5t-10 -14l-56 -103q-20 -39 -49 -81t-114 -156v-181q0 -26 6 -36.5t29 -17.5t23 -29q0 -12 -9 -20t-25 -8h-195q-34 0 -34 28q0 22 22 29t29 17.5t7 33.5v184q-78 102 -113 152t-57 93z" />
    <glyph glyph-name="Z" unicode="Z" horiz-adv-x="613" 
d="M84 1q-34 0 -47.5 10t-13.5 34q0 29 9.5 47t17 31t34.5 54.5t47.5 69.5t86.5 111.5t108.5 143.5t64.5 96t22 47q0 12 -30 12h-11l-70 -1q-36 0 -62.5 -2t-47.5 -8q-37 -5 -64.5 -39t-45.5 -34q-28 0 -28 40l1 8l8 64q2 20 11 27.5t31 7.5l32 1h373q31 0 48 -4.5t17 -34.5
q0 -27 -6 -43.5t-10.5 -27t-25 -44.5t-73 -107.5t-119 -158t-93.5 -122t-42 -66.5t-15 -37q0 -7 20 -7h18h40h41h12q36 0 90.5 5t86.5 38l22 23q20 22 39 22q26 0 26 -32l-1 -9l-13 -76q-3 -21 -11 -29t-15.5 -9t-19.5 -1l-36 -1h-374z" />
    <glyph glyph-name="bracketleft" unicode="[" horiz-adv-x="309" 
d="M226 -37h44q9 0 17.5 -5t10.5 -13l1 -17v-7q0 -27 -29 -27l-132 -1q-41 0 -52 7t-11 36v838v36q1 5 8 14q7 5 18 6t48 1h112q21 0 28.5 -8.5t7.5 -30.5q0 -31 -36 -31h-42h-16v-26l-1 -750v-22h24z" />
    <glyph glyph-name="backslash" unicode="\" horiz-adv-x="326" 
d="M133 720l126 -720h-90l-126 720h90z" />
    <glyph glyph-name="bracketright" unicode="]" horiz-adv-x="309" 
d="M84 761h-45l-16 4q-10 7 -12 14l-1 19v6q0 27 30 27h132q40 0 51.5 -7.5t11.5 -34.5l1 -838l-1 -36q0 -8 -9 -13q-7 -6 -24 -7t-42 -1h-111q-20 0 -28 8t-8 30q0 32 37 32h40h17v26v749v22h-23z" />
    <glyph glyph-name="asciicircum" unicode="^" horiz-adv-x="288" 
d="M40 525q-16 -7 -19 -7q-12 0 -19 10t-7 24q0 17 17 33l102 89q5 4 14.5 10.5t15.5 6.5q5 0 13.5 -5t16.5 -12l102 -89q17 -16 17 -33q0 -13 -7.5 -23.5t-17.5 -10.5q-7 0 -19 7l-105 62z" />
    <glyph glyph-name="underscore" unicode="_" horiz-adv-x="482" 
d="M43 0h360v-32h-360v32z" />
    <glyph glyph-name="grave" unicode="`" horiz-adv-x="214" 
d="M-3 643q0 18 10.5 31.5t24.5 13.5t36 -19l94 -81q20 -18 20 -33q0 -12 -6 -19q-8 -15 -21 -15q-8 0 -22 9l-105 65q-31 19 -31 48z" />
    <glyph glyph-name="a" unicode="a" horiz-adv-x="554" 
d="M325 395q-11 10 -31 17t-38 7q-17 0 -33.5 -5t-27.5 -14l-18 -15q-12 -10 -23.5 -17t-17.5 -7q-22 0 -38 12t-16 30q0 32 45 53t117 21q31 0 46.5 -3t42.5 -12.5t50 -24.5t47 -39t37 -69t13 -120l-1 -39v-18v-39.5t3.5 -35.5t27 -25t23.5 -26q0 -26 -32 -26h-100
q-22 0 -30.5 6.5t-16.5 27.5l-6 14q-20 -18 -31 -25.5t-40.5 -19.5t-82.5 -12q-76 0 -121 41t-45 109q0 87 80.5 132.5t237.5 45.5q0 58 -21 76zM346 261q-37 0 -57 -3t-49 -8t-55 -33q-35 -32 -35 -85q0 -32 21 -50t57 -18q31 0 59.5 12t43.5 32.5t15 53.5v32l1 29z" />
    <glyph glyph-name="b" unicode="b" horiz-adv-x="609" 
d="M263 464q41 18 94 18q96 0 154.5 -62.5t58.5 -166.5q0 -121 -77 -194t-204 -73q-214 0 -214 188v423q0 23 -6.5 33t-27 17.5t-20.5 24.5q0 22 25 31l103 38l23 5q37 0 37 -76v-236q13 8 30.5 17.5t23.5 12.5zM209 292v-73v-31q0 -64 27 -100t76 -36q56 0 87.5 48.5
t31.5 133.5q0 82 -30 129.5t-83 47.5q-15 0 -29 -4t-30 -11q-41 -23 -46 -36.5t-5 -36.5z" />
    <glyph glyph-name="c" unicode="c" horiz-adv-x="522" 
d="M299 481q77 0 133.5 -30t56.5 -73q0 -22 -14 -35t-37 -13q-19 0 -35 10t-36.5 34t-35 32.5t-32.5 8.5q-50 0 -84 -51t-34 -128q0 -97 28.5 -125.5t54 -38.5t52.5 -10q31 0 56.5 12t63.5 44q20 19 34 19q12 -1 20 -10t8 -21q0 -14 -17.5 -34.5t-63.5 -52t-128 -31.5
q-115 0 -183 64t-68 172v20q0 102 76.5 169.5t184.5 67.5z" />
    <glyph glyph-name="d" unicode="d" horiz-adv-x="616" 
d="M408 597q0 23 -6.5 33t-27 17.5t-20.5 24.5q0 9 7 17.5t18 13.5l103 38l23 5q18 0 28 -20t10 -56v-568q0 -25 5.5 -34t26.5 -16t21 -26q0 -26 -33 -26h-95q-21 0 -29.5 7.5t-11.5 14.5t-9 29q-14 -12 -21.5 -19t-21 -16.5t-45 -18.5t-66.5 -9q-98 0 -162 67t-64 170
q0 109 69 181t173 72q40 0 62.5 -6t65.5 -28v153zM408 229v69q0 25 -2 43t-7 30.5t-38.5 27t-58.5 14.5q-55 0 -91 -53t-36 -133q0 -76 34.5 -123.5t89.5 -47.5q31 0 60 18t39 44t10 111z" />
    <glyph glyph-name="e" unicode="e" horiz-adv-x="545" 
d="M228 89q34 -28 87 -28q31 0 64 11.5t57 30.5l28 23q11 9 22 9q12 0 20 -8t8 -20q0 -25 -62 -71.5t-158 -46.5q-112 0 -184 65t-72 168q0 107 81 182t199 75q85 0 135.5 -37t50.5 -100q0 -43 -20.5 -71.5t-59 -47t-74.5 -29.5t-80 -17l-86 -8q9 -31 18 -48.5t26 -31.5z
M176 229q50 6 77.5 12t76.5 28.5t49 80.5q0 66 -67 66q-38 0 -73.5 -23t-46 -54t-14 -51.5t-3.5 -37.5z" />
    <glyph glyph-name="f" unicode="f" horiz-adv-x="299" 
d="M43 396q-37 0 -37 35q0 38 39 38h33v30q0 55 3 82t17 68t55.5 71t95.5 30q40 0 65 -17t25 -44q0 -23 -14 -38t-37 -15q-36 0 -38 21.5t-10 21.5t-15.5 -12.5t-10.5 -29.5t-3 -62v-106h64q39 0 39 -38q0 -16 -10 -26t-28 -10l-63 1v-294q0 -24 6 -33t27 -16.5t21 -26.5
q0 -26 -32 -26h-178q-32 0 -32 26q0 20 21 26.5t26.5 16t5.5 33.5v294h-35z" />
    <glyph glyph-name="g" unicode="g" horiz-adv-x="604" 
d="M549 250q0 -44 -13 -80t-29 -56t-54 -48q18 -6 36 -13t34.5 -20.5t26.5 -35t10 -47.5q0 -38 -27.5 -70t-71 -50.5t-82 -24.5t-100.5 -6q-107 0 -167 25t-60 70q0 36 22 57t60 21q51 0 51 -29l-1 -9l-3 -18q0 -18 32.5 -30t83.5 -12q66 0 102.5 19.5t36.5 54.5
q0 28 -20.5 46.5t-67.5 30.5q-24 -5 -42 -7t-31 -2q-99 0 -166.5 66.5t-67.5 163.5q0 107 74 171t197 64q45 0 93.5 -10t65.5 -7l54 11l12 1q19 0 31.5 -11.5t12.5 -27.5q0 -28 -18 -34.5t-27.5 -7.5t-33.5 -1q29 -46 38 -75t9 -69zM178 250q0 -79 32 -125.5t86 -46.5
q55 0 87 46t32 126t-31 124t-87 44q-57 0 -88 -43.5t-31 -124.5z" />
    <glyph glyph-name="h" unicode="h" horiz-adv-x="614" 
d="M539 112q0 -32 5 -42.5t26.5 -17t21.5 -26.5q0 -26 -31 -26h-174q-31 0 -31 26q0 20 19 25.5t24 15.5t5 35v226q0 34 -25 57t-62 23q-12 0 -18.5 -2t-9.5 -2q-26 -8 -52.5 -27.5t-26.5 -30.5v-244q0 -41 24 -49.5t24 -26.5q0 -26 -31 -26h-178q-28 0 -28 26
q0 20 20.5 26.5t27 16.5t6.5 33v495q0 23 -6.5 33t-27 17.5t-20.5 24.5q0 9 7 17.5t18 13.5l103 38l24 5q14 0 25 -18t11 -44v-254l37 23q25 12 57 20t61 8q52 0 91 -23q44 -23 64 -61t20 -95v-114v-76z" />
    <glyph glyph-name="i" unicode="i" horiz-adv-x="283" 
d="M21 26q0 20 20.5 26.5t27 16t6.5 30.5v235q0 36 -27 45t-27 27q0 22 25 31l103 38l23 5q37 0 37 -76v-302q0 -23 6 -33t27 -17t21 -26q0 -26 -33 -26h-177q-32 0 -32 26zM136 683q32 0 55 -21t23 -51q0 -29 -23 -49t-56 -20t-56.5 20t-23.5 49q0 28 24 50t57 22z" />
    <glyph glyph-name="j" unicode="j" horiz-adv-x="270" 
d="M43 -204q-43 0 -72 19t-29 47q0 48 55 48q35 0 42 -21t15 -21q6 0 11 10t7 23l2 19v17v389q0 26 -6 37t-24 18q-23 7 -23 25q0 9 7 17.5t18 13.5l103 38l24 5q36 0 36 -76v-404q0 -95 -44 -149.5t-122 -54.5zM136 683q32 0 55 -21t23 -51q0 -29 -23 -49t-56 -20t-56.5 20
t-23.5 49q0 30 24 51t57 21z" />
    <glyph glyph-name="k" unicode="k" horiz-adv-x="584" 
d="M480 154l37 -53q16 -24 26 -34t25 -14q23 -9 23 -27q0 -26 -32 -26h-180q-26 0 -35.5 5.5t-9.5 20.5q0 19 22.5 26.5t22.5 23.5q-3 30 -23.5 53.5t-31.5 38t-19.5 30t-17.5 25.5t-13 6l-33 -19q-25 -15 -29 -22l-1 -23v-63q0 -25 4.5 -34.5t23.5 -16.5t19 -25
q0 -26 -30 -26h-175q-32 0 -32 26q0 20 20.5 27t27 18t6.5 37v489q0 23 -6.5 33t-27 17.5t-20.5 24.5q0 9 7 17.5t18 13.5l103 38l23 5q37 0 37 -76v-411q31 18 54 34.5t65.5 53.5t42.5 57q0 6 -19 12q-23 9 -23 27q0 26 31 26h147q31 0 31 -26q0 -18 -23 -27l-17 -7
q-15 -10 -28.5 -22.5t-30 -28.5t-32 -29.5t-42.5 -36.5q48 -52 71.5 -80.5t43.5 -57.5z" />
    <glyph glyph-name="l" unicode="l" horiz-adv-x="283" 
d="M21 26q0 20 20.5 26.5t27 16.5t6.5 33v495q0 23 -6.5 33t-27 17.5t-20.5 24.5q0 9 7 17.5t18 13.5l103 38l23 5q17 0 27 -21t10 -55v-568q0 -23 6 -33t27 -17t21 -26q0 -26 -33 -26h-177q-32 0 -32 26z" />
    <glyph glyph-name="m" unicode="m" horiz-adv-x="902" 
d="M578 469q39 14 77 14q75 0 124 -41t49 -105v-235q0 -23 6 -33t26.5 -16.5t20.5 -26.5q0 -26 -31 -26h-172q-33 0 -33 26q0 20 21 26t25 16t4 46v7v94l1 20v30q0 50 -1 62.5t-7 30t-26.5 30.5t-45.5 13q-23 0 -37 -7.5t-18.5 -10.5t-24.5 -19.5t-20 -25.5v-236
q0 -16 2 -23q2 -20 24 -26.5t22 -26.5q0 -26 -31 -26h-163q-33 0 -33 26q0 19 24 27q13 3 16 8q10 8 10 41v235q0 28 -24.5 47.5t-48.5 19.5q-30 0 -58 -17.5t-39 -47t-11 -90.5v-13v-91v-20l3 -46q2 -13 5.5 -17t22.5 -10t19 -26q0 -26 -31 -26h-172q-32 0 -32 26
q0 20 27 27.5t27 43.5l-1 236q0 38 -26.5 46.5t-26.5 26.5q0 20 25 31l99 38l24 5q12 0 21 -15t9 -36v-23q20 23 34.5 35.5t41.5 26.5t76 14q50 0 80.5 -15.5t64.5 -51.5q27 24 43 34.5t39 19.5z" />
    <glyph glyph-name="n" unicode="n" horiz-adv-x="614" 
d="M405 298q0 38 -3 51t-20 36t-63 23q-30 0 -55 -14q-18 -12 -35.5 -33.5t-17.5 -38.5v-226l1 -17q3 -15 6.5 -18.5t23 -9.5t19.5 -25q0 -26 -31 -26h-177q-32 0 -32 26q0 20 27 27.5t27 44.5v237q0 21 -6 30t-24 16q-23 7 -23 25q0 20 26 31l94 38l22 5q14 0 25 -15.5
t11 -35.5v-25q19 23 30.5 33.5t40.5 27t85 16.5q121 0 148.5 -50.5t32.5 -89t5 -131.5l-1 -38l-2 -41q0 -45 5 -58t27.5 -20.5t22.5 -26.5q0 -26 -33 -26h-175q-31 0 -31 26q0 20 17 25t22 8.5t7.5 17t3.5 34t1 67.5v75z" />
    <glyph glyph-name="o" unicode="o" horiz-adv-x="602" 
d="M304 481q110 0 184.5 -70.5t74.5 -175.5t-75 -176t-186 -71q-114 0 -189 70t-75 177q0 104 77 175t189 71zM169 234q0 -85 36 -135t97 -50t97 50t36 136q0 84 -36 135t-97 51t-97 -50.5t-36 -136.5z" />
    <glyph glyph-name="p" unicode="p" horiz-adv-x="608" 
d="M241 443q48 38 120 38q94 0 151.5 -66.5t57.5 -174.5q0 -114 -63.5 -182.5t-170.5 -68.5q-105 0 -105 49q0 13 8 22t20 9l37 -3h9q48 0 78.5 35.5t38.5 62.5t8 77q0 78 -29 121t-81 43q-46 0 -69 -32l-21 -27l-20 -31v-403q0 -39 30 -48q24 -9 24 -27q0 -26 -33 -26h-178
q-32 0 -32 26q0 18 23 27q18 5 24 15t6 33l1 416q0 25 -6 36t-26.5 17t-20.5 25q0 20 26 31l101 38l23 5q14 0 24 -15.5t10 -36.5v-17z" />
    <glyph glyph-name="q" unicode="q" horiz-adv-x="606" 
d="M502 481q31 0 31 -41v-27v-501q0 -24 5.5 -33.5t23.5 -14.5q24 -9 24 -27q0 -26 -31 -26h-179q-31 0 -31 26q0 19 20.5 25.5t26.5 16.5t6 33v119q-8 -5 -18 -12t-34.5 -19t-83.5 -12q-100 0 -162 65t-62 171q0 111 70 183t177 72q33 0 55.5 -5t39.5 -12t42 -24
q27 27 42 35t38 8zM177 229q0 -81 31.5 -127.5t85.5 -46.5q26 0 55.5 16t38 31t10.5 34t2 62v58v36q0 48 -7.5 68t-31.5 37q-24 20 -64 20q-58 0 -89 -43.5t-31 -137.5v-7z" />
    <glyph glyph-name="r" unicode="r" horiz-adv-x="383" 
d="M244 450q38 32 91 32q25 0 43 -20t18 -48q0 -24 -12 -38t-33 -14l-9 1l-23 5l-25 2q-30 0 -51 -22t-27 -47.5t-6 -89.5v-63v-37q0 -31 5 -41.5t26.5 -17.5t21.5 -26q0 -26 -33 -26h-177q-32 0 -32 26q0 20 20.5 26.5t27 16.5t6.5 33v229q0 23 -6 33.5t-27 17t-21 24.5
q0 20 25 31l92 38l23 5q10 0 20 -9.5t13 -20.5t3 -38v-21q14 24 24 36t23 23z" />
    <glyph glyph-name="s" unicode="s" horiz-adv-x="486" 
d="M395 249q59 -44 59 -94q0 -72 -62 -120t-155 -48q-80 0 -141.5 35t-61.5 81q0 17 10.5 28.5t25.5 11.5q8 0 15 -4q12 -4 20 -14l20 -23q40 -52 104 -52q39 0 66 19t27 48q0 23 -12 34.5t-19.5 15.5t-36.5 11l-83 20q-16 3 -25 7t-28 14q-38 24 -53 47t-15 58
q0 71 55.5 114t148.5 43q45 0 90 -12t68 -29t23 -75q0 -28 -27 -28q-24 0 -53.5 42t-98.5 42q-33 0 -53 -16t-20 -43t14 -39t28.5 -17.5t35.5 -10.5l87 -23q22 -5 47 -23z" />
    <glyph glyph-name="t" unicode="t" horiz-adv-x="315" 
d="M29 396q-9 0 -17 10.5t-8 23.5q0 17 10 25t39 11t37.5 11.5t17 32t14 54.5t8 39.5t8.5 17.5q11 11 40 11q17 0 25.5 -7.5t8.5 -24.5v-131h74q40 0 40 -35q0 -38 -40 -38h-76v-289q0 -42 42 -42h45q31 0 31 -34q0 -31 -47 -31h-138q-15 0 -29 7t-25.5 22.5t-11.5 54.5v312
h-48z" />
    <glyph glyph-name="u" unicode="u" horiz-adv-x="595" 
d="M237 -8q-78 0 -122.5 35.5t-44.5 97.5v5l9 208q0 31 -29 43q-24 8 -24 25q0 21 26 31l103 38l22 5q16 0 26.5 -19.5t10.5 -47.5l-9 -263v-8q0 -75 75 -75q23 0 38 7t23 10.5t22 13.5t18 21.5t4 41.5v176q0 33 -29 44q-24 7 -24 25q0 21 26 31l103 38l22 5q37 0 37 -76
v-302q0 -25 5.5 -34t27 -15.5t21.5 -26.5q0 -26 -32 -26h-104q-35 0 -43 54q-36 -34 -71.5 -48t-86.5 -14z" />
    <glyph glyph-name="v" unicode="v" horiz-adv-x="542" 
d="M372 244l28 86q12 33 12 56q0 12 -5.5 18.5t-25.5 13.5t-20 25q0 26 33 26h129q31 0 31 -26q0 -19 -24 -27l-16 -7q-7 -6 -18 -34.5t-20.5 -56.5t-19 -54.5t-17.5 -42.5q-23 -58 -51 -114t-44 -80q-29 -39 -70 -39q-19 0 -30 3.5t-27.5 19.5t-52 80.5t-50.5 99t-44 114.5
l-31 85q-9 21 -27 26q-24 9 -24 27q0 10 8 18t19 8h181q32 0 32 -26q0 -16 -17 -25l-7 -2q-21 -8 -21 -27q0 -18 20 -70l32 -84q18 -53 67 -133q28 44 40.5 70t29.5 72z" />
    <glyph glyph-name="w" unicode="w" horiz-adv-x="822" 
d="M395 147q-13 -32 -30.5 -61t-44 -64.5t-68.5 -35.5t-71.5 44t-55 109.5t-42.5 128.5l-21 80l-12 42q-4 13 -8 17t-23 10.5t-19 25.5q0 26 31 26h181q32 0 32 -26q0 -19 -27 -28t-27 -31q0 -6 2 -17.5t8 -34.5t13.5 -52.5t17 -61.5t20.5 -56t41 -67q28 44 37 65t24.5 84.5
t15.5 114.5q0 28 -6 40t-24 17q-23 9 -23 27q0 26 31 26h167q31 0 31 -26q0 -18 -25.5 -27t-25.5 -33q0 -14 3 -28q7 -21 10 -34l27 -90q13 -39 22 -59t35 -69q30 48 44.5 80.5t25 71.5t17 73t6.5 48q0 19 -5.5 27t-22.5 13q-24 9 -24 27q0 26 32 26h125q34 0 34 -26
q0 -18 -24 -27l-17 -7q-10 -9 -29.5 -80.5t-29 -100.5t-37 -98.5t-62.5 -110.5q-30 -31 -61 -31q-28 0 -51 21.5t-44 62t-31.5 66t-24.5 63.5z" />
    <glyph glyph-name="x" unicode="x" horiz-adv-x="531" 
d="M159 266q-25 27 -42.5 49.5t-41.5 59t-44.5 43t-20.5 25.5q0 26 31 26h198q31 0 31 -26q0 -20 -22 -27t-22 -18q0 -13 22 -40l26 -33l32 -34l36 43l29 36q13 15 13 25q0 14 -23 22t-23 26q0 26 32 26h129q32 0 32 -26q0 -19 -21 -26t-36 -26l-35 -40l-43 -50l-49 -56
l40 -42q14 -16 40.5 -51.5t46.5 -64.5t38 -34q24 -9 24 -27q0 -26 -31 -26h-201q-33 0 -33 26q0 17 24 27q22 6 22 24q0 26 -86 117l-33 -45q-25 -36 -36 -45q-17 -20 -17 -33q0 -12 22 -18.5t22 -26.5q0 -26 -31 -26h-131q-32 0 -32 26q0 18 17.5 24t24.5 11t18 18t30.5 39
t39 50t61.5 69z" />
    <glyph glyph-name="y" unicode="y" horiz-adv-x="547" 
d="M268 9q-55 0 -91.5 30.5t-61 85t-40 126t-21.5 93t-14 41t-12 23.5t-22 10.5t-18 24.5q0 26 31 26h183q32 0 32 -26q0 -18 -26.5 -27t-26.5 -41q0 -23 13.5 -79.5t31.5 -110t40 -79.5t45 -26q28 0 50 53t36 116.5t14 114.5q0 27 -5.5 36.5t-27 16.5t-21.5 25q0 27 32 27
h134q32 0 32 -26q0 -19 -18.5 -25.5t-24 -11t-9.5 -21.5t-13 -85t-43 -162.5t-111 -214.5t-197 -120q-37 0 -59 15t-22 40q0 43 48 43l29 -3l27 -5l13 -1q29 0 66 35t61 85z" />
    <glyph glyph-name="z" unicode="z" horiz-adv-x="478" 
d="M291 391l10 13q0 5 -13 8t-26 3h-47l-52 -2q-27 -3 -44 -24l-24 -28q-14 -15 -28 -15q-25 0 -25 28l1 11l12 58q4 16 20 21q5 3 13.5 4t28.5 1h268q42 0 55 -8q13 -11 13 -36v-7q-2 -18 -15 -36.5t-70 -86.5l-94 -110l-77 -92q-18 -20 -18 -29q7 -5 13 -5h6l21 3l67 1
q59 0 90 34l29 31q13 11 24 11q23 0 23 -31l-1 -11l-13 -65q-9 -32 -54 -32h-313q-53 0 -53 38q0 15 5 24q8 20 39.5 63.5t67.5 84.5l99 112l50 57z" />
    <glyph glyph-name="braceleft" unicode="{" horiz-adv-x="351" 
d="M107 432v326q0 36 21.5 56.5t62.5 20.5h91v-53h-12q-33 0 -45 -12t-12 -45v-282q0 -36 -24 -58t-51 -25q14 -2 44.5 -16.5t30.5 -66.5v-282q0 -34 11.5 -45.5t45.5 -11.5h12v-53h-91q-40 0 -62 20t-22 57v326q0 32 -18 52t-46 20q28 0 46 20t18 52z" />
    <glyph glyph-name="bar" unicode="|" horiz-adv-x="190" 
d="M43 720h90v-720h-90v720z" />
    <glyph glyph-name="braceright" unicode="}" horiz-adv-x="351" 
d="M43 -62h12q34 0 46 12t12 45v282q0 53 30 67t45 16q-15 2 -45 16t-30 67v282q0 34 -11.5 45.5t-46.5 11.5h-12v53h91q41 0 63 -20t22 -57v-326q0 -31 17.5 -51.5t45.5 -20.5q-27 0 -45 -20t-18 -52v-326q0 -36 -22.5 -56.5t-62.5 -20.5h-91v53z" />
    <glyph glyph-name="asciitilde" unicode="~" horiz-adv-x="329" 
d="M-4 810q0 25 30.5 45.5t69.5 20.5q13 0 21.5 -2t47.5 -15.5t67 -13.5q13 0 20.5 2.5t36.5 16.5l17 4q11 0 18 -13.5t7 -24.5q0 -20 -24 -44t-65 -24q-11 0 -26 3.5t-53.5 14.5t-65.5 11q-24 0 -44 -12l-18 -9l-11 -2q-22 0 -27 29z" />
    <glyph glyph-name="Adieresis" unicode="&#xc4;" horiz-adv-x="717" 
d="M261 901q31 0 52 -20t21 -49q0 -28 -21.5 -47.5t-51.5 -19.5t-53 20t-23 47t23 48t53 21zM455 901q31 0 52 -20t21 -49q0 -28 -21.5 -47.5t-52.5 -19.5q-30 0 -52.5 20.5t-22.5 46.5q0 27 23 48t53 21zM165 194q-22 -61 -22 -89q0 -22 6.5 -31.5t25.5 -16.5q27 -7 27 -29
q0 -13 -9.5 -20.5t-26.5 -7.5h-155q-35 0 -35 28q0 20 19 27l8 2q15 6 22.5 16t18.5 38l34 90l76 195q38 95 65.5 152.5t50 98t28 48.5t13.5 18t18 14t32 4q25 0 32.5 -5t26.5 -32.5t34 -54t41 -81t62.5 -142.5t67 -171t42 -112t19.5 -48q11 -19 32 -28l7 -2q19 -7 19 -27
q0 -28 -35 -28h-214q-34 0 -34 28q0 21 28.5 31t28.5 38q0 23 -25 88l-19 54h-292zM210 318h235q-14 42 -22 63.5t-26.5 66.5t-30 70t-38.5 77q-16 -33 -34.5 -72.5t-33 -74.5t-27.5 -69.5t-23 -60.5z" />
    <glyph glyph-name="Aring" unicode="&#xc5;" horiz-adv-x="717" 
d="M363 928q38 0 64 -24t26 -60t-26.5 -61.5t-64.5 -25.5t-65 25t-27 61q0 35 27 60t66 25zM165 194q-22 -61 -22 -89q0 -22 6.5 -31.5t25.5 -16.5q27 -7 27 -29q0 -13 -9.5 -20.5t-26.5 -7.5h-155q-35 0 -35 28q0 20 19 27l8 2q15 6 22.5 16t18.5 38l34 90l76 195
q38 95 65.5 152.5t50 98t28 48.5t13.5 18t18 14t32 4q25 0 32.5 -5t26.5 -32.5t34 -54t41 -81t62.5 -142.5t67 -171t42 -112t19.5 -48q11 -19 32 -28l7 -2q19 -7 19 -27q0 -28 -35 -28h-214q-34 0 -34 28q0 21 28.5 31t28.5 38q0 23 -25 88l-19 54h-292zM362 809q14 0 25 10
t11 24t-10.5 23.5t-25.5 9.5q-14 0 -24 -9t-12 -24q0 -14 11 -24t25 -10zM210 318h235q-14 42 -22 63.5t-26.5 66.5t-30 70t-38.5 77q-16 -33 -34.5 -72.5t-33 -74.5t-27.5 -69.5t-23 -60.5z" />
    <glyph glyph-name="Ccedilla" unicode="&#xc7;" horiz-adv-x="746" 
d="M413 -68q48 -23 48 -68q0 -39 -35.5 -64.5t-89.5 -25.5l-51 3l8 29l18 -1q33 0 55 14t22 34q0 16 -10 26t-35 19l53 88q-98 13 -149 36t-101.5 75t-77 119t-26.5 140q0 159 114 269t278 110q75 0 147.5 -24t91.5 -50.5t21 -44t5 -42t3 -40.5q0 -35 -30 -35q-17 0 -29 10
t-32 46t-58.5 73t-121.5 37q-102 0 -167 -87t-65 -223q0 -131 66 -210t176 -79q52 0 102 21t84 58l26 29q11 12 27 12q38 0 38 -37q0 -14 -11 -32t-27.5 -34t-23 -21t-36 -24.5t-68 -31.5t-118.5 -21z" />
    <glyph glyph-name="Eacute" unicode="&#xc9;" horiz-adv-x="654" 
d="M252 422l78 -1h25h16q27 0 35 1t21 4t22 9l16 8q25 15 38 15t19 -13l4 -14q2 -10 2.5 -26.5t0.5 -28.5q0 -35 -5 -47t-20 -12q-11 0 -29 8l-16 8l-15 8l-17 7q-4 1 -30 4t-60 3h-8l-78 -1h-16v-199v-34q0 -9 4 -21t10.5 -19t30 -11t70.5 -4q78 0 131 13q35 6 76 41l17 14
q23 20 37 20q11 0 18 -10t7 -24l-1 -8l-7 -44q-7 -47 -19.5 -57.5t-63.5 -10.5h-484q-35 0 -35 28q0 22 26 29q18 7 25 18.5t7 35.5v499q0 25 -6.5 36t-29 18.5t-22.5 28.5q0 28 35 28h450q48 0 62 -6.5t17 -15.5q7 -12 10 -45l2 -39q0 -31 -26 -31q-17 0 -50 30l-18 16
q-7 6 -17.5 10.5t-21.5 7.5l-24 3q-70 7 -114 7q-61 0 -78 -8.5t-17 -38.5v-189h16zM284 798q-11 0 -19 9t-8 23q0 16 19 33l98 87q17 14 30 14q16 0 27 -13t11 -32q0 -29 -30 -47l-108 -67q-11 -7 -20 -7z" />
    <glyph glyph-name="Ntilde" unicode="&#xd1;" horiz-adv-x="754" 
d="M163 109q0 -23 7 -34t29.5 -18.5t22.5 -28.5q0 -13 -9.5 -20.5t-26.5 -7.5h-125q-35 0 -35 28q0 22 26 29q19 7 25.5 18t6.5 34v501q0 25 -6.5 36t-29 18.5t-22.5 28.5q0 28 35 28h135q14 0 23 -5t22 -22l117 -140q101 -123 230 -313l-4 369q0 26 -6 36.5t-29 18
t-23 28.5q0 28 35 28h132q35 0 35 -29q0 -20 -22.5 -27.5t-29.5 -18.5t-7 -36v-499q0 -56 -3 -77t-16 -33t-37 -12q-20 0 -36.5 17t-57 82t-103.5 151.5t-99.5 135.5t-61.5 79t-92 107v-452zM324 826q-24 0 -42 -12l-15 -9q-3 -4 -9 -4q-22 0 -22 43q0 25 24.5 45.5
t55.5 20.5q16 0 58 -15.5t57 -15.5q17 0 36 10l15 9l13 4q9 0 16 -11.5t7 -27.5q0 -26 -23 -46t-54 -20q-6 0 -15 1.5l-15 2.5l-29 11q-37 14 -58 14z" />
    <glyph glyph-name="Odieresis" unicode="&#xd6;" horiz-adv-x="848" 
d="M324 901q30 0 51.5 -20.5t21.5 -48.5t-21.5 -47.5t-52.5 -19.5q-30 0 -52 20t-22 47t22 48t53 21zM518 901q31 0 52 -20t21 -49q0 -28 -21.5 -47.5t-51.5 -19.5q-31 0 -53.5 20.5t-22.5 46.5q0 27 23 48t53 21zM152 631q104 103 272 103t244 -77t106 -150.5t30 -146.5
q0 -76 -28.5 -146.5t-104.5 -149t-247 -78.5q-88 0 -152 24t-117.5 77t-82.5 124t-29 149q0 75 29 147t80 124zM201 360q0 -128 65 -217t159 -89q93 0 158 89t65 217t-65 217t-158 89t-158.5 -89.5t-65.5 -216.5z" />
    <glyph glyph-name="Udieresis" unicode="&#xdc;" horiz-adv-x="721" 
d="M285 901q30 0 52 -20t22 -49q0 -28 -21.5 -47.5t-52.5 -19.5q-30 0 -52.5 20.5t-22.5 46.5q0 27 22 48t53 21zM480 901q30 0 52 -20t22 -49q0 -28 -21.5 -47.5t-52.5 -19.5t-53.5 20.5t-22.5 46.5q0 27 23 48t53 21zM717 692q0 -20 -22 -27.5t-28 -18t-6 -36.5v-18
q0 -46 5.5 -154t5.5 -128l-2 -64q0 -44 -11.5 -81t-62 -108t-222.5 -71q-137 0 -205 48t-92 107.5t-24 160.5q0 57 4 137.5t11 156.5l1 16q0 24 -6 34t-29 17.5t-23 29.5q0 12 9 20t25 8h192q34 0 34 -29q0 -21 -23.5 -28.5t-30 -19.5t-6.5 -49l-9 -126l-5 -114l-1 -72
q0 -85 19.5 -128.5t66 -70.5t108.5 -27q78 0 118 32.5t51 50.5t19 46.5t10 51.5t2 71l-1 51q0 39 -1 62.5t-3 47.5l-8 122q0 41 -6 52.5t-30.5 19.5t-24.5 29q0 12 9.5 20t24.5 8h131q36 0 36 -29z" />
    <glyph glyph-name="aacute" unicode="&#xe1;" horiz-adv-x="554" 
d="M325 395q-11 10 -31 17t-38 7q-17 0 -33.5 -5t-27.5 -14l-18 -15q-12 -10 -23.5 -17t-17.5 -7q-22 0 -38 12t-16 30q0 32 45 53t117 21q31 0 46.5 -3t42.5 -12.5t50 -24.5t47 -39t37 -69t13 -120l-1 -39v-18v-39.5t3.5 -35.5t27 -25t23.5 -26q0 -26 -32 -26h-100
q-22 0 -30.5 6.5t-16.5 27.5l-6 14q-20 -18 -31 -25.5t-40.5 -19.5t-82.5 -12q-76 0 -121 41t-45 109q0 87 80.5 132.5t237.5 45.5q0 58 -21 76zM346 261q-37 0 -57 -3t-49 -8t-55 -33q-35 -32 -35 -85q0 -32 21 -50t57 -18q31 0 59.5 12t43.5 32.5t15 53.5v32l1 29z
M234 522q-11 0 -19 9t-8 23q0 16 19 33l98 87q17 14 30 14q16 0 27 -13t11 -32q0 -29 -30 -47l-108 -67q-11 -7 -20 -7z" />
    <glyph glyph-name="agrave" unicode="&#xe0;" horiz-adv-x="554" 
d="M325 395q-11 10 -31 17t-38 7q-17 0 -33.5 -5t-27.5 -14l-18 -15q-12 -10 -23.5 -17t-17.5 -7q-22 0 -38 12t-16 30q0 32 45 53t117 21q31 0 46.5 -3t42.5 -12.5t50 -24.5t47 -39t37 -69t13 -120l-1 -39v-18v-39.5t3.5 -35.5t27 -25t23.5 -26q0 -26 -32 -26h-100
q-22 0 -30.5 6.5t-16.5 27.5l-6 14q-20 -18 -31 -25.5t-40.5 -19.5t-82.5 -12q-76 0 -121 41t-45 109q0 87 80.5 132.5t237.5 45.5q0 58 -21 76zM346 261q-37 0 -57 -3t-49 -8t-55 -33q-35 -32 -35 -85q0 -32 21 -50t57 -18q31 0 59.5 12t43.5 32.5t15 53.5v32l1 29z
M167 643q0 18 10.5 31.5t24.5 13.5t36 -19l94 -81q20 -18 20 -33q0 -12 -6 -19q-8 -15 -21 -15q-8 0 -22 9l-105 65q-31 19 -31 48z" />
    <glyph glyph-name="acircumflex" unicode="&#xe2;" horiz-adv-x="554" 
d="M325 395q-11 10 -31 17t-38 7q-17 0 -33.5 -5t-27.5 -14l-18 -15q-12 -10 -23.5 -17t-17.5 -7q-22 0 -38 12t-16 30q0 32 45 53t117 21q31 0 46.5 -3t42.5 -12.5t50 -24.5t47 -39t37 -69t13 -120l-1 -39v-18v-39.5t3.5 -35.5t27 -25t23.5 -26q0 -26 -32 -26h-100
q-22 0 -30.5 6.5t-16.5 27.5l-6 14q-20 -18 -31 -25.5t-40.5 -19.5t-82.5 -12q-76 0 -121 41t-45 109q0 87 80.5 132.5t237.5 45.5q0 58 -21 76zM346 261q-37 0 -57 -3t-49 -8t-55 -33q-35 -32 -35 -85q0 -32 21 -50t57 -18q31 0 59.5 12t43.5 32.5t15 53.5v32l1 29z
M173 525q-16 -7 -19 -7q-12 0 -19 10t-7 24q0 17 17 33l102 89q5 4 14.5 10.5t15.5 6.5q5 0 13.5 -5t16.5 -12l102 -89q17 -16 17 -33q0 -13 -7.5 -23.5t-17.5 -10.5q-7 0 -19 7l-105 62z" />
    <glyph glyph-name="adieresis" unicode="&#xe4;" horiz-adv-x="573" 
d="M335 395q-11 10 -31 17t-38 7q-40 0 -62 -19l-17 -15q-12 -10 -23.5 -17t-17.5 -7q-22 0 -38 12t-16 30q0 32 45 53t117 21q31 0 46.5 -3t55.5 -17.5t74 -48.5t47 -79t13 -120l-1 -39v-18v-39.5t3.5 -35.5t27 -25t23.5 -26q0 -26 -33 -26h-99q-21 0 -30.5 6.5t-17.5 27.5
l-5 14q-32 -29 -59 -39q-41 -18 -96 -18q-75 0 -120 41t-45 109q0 87 80.5 132.5t237.5 45.5q0 56 -21 76zM187 651q28 0 47 -18t19 -45q0 -24 -19 -42t-47 -18t-48.5 18.5t-20.5 41.5q0 26 20.5 44.5t48.5 18.5zM377 651q28 0 47.5 -18.5t19.5 -44.5q0 -25 -19.5 -42.5
t-47.5 -17.5q-27 0 -47.5 18.5t-20.5 41.5q0 25 21 44t47 19zM356 261q-37 0 -57 -3t-49 -8t-55 -33q-35 -32 -35 -85q0 -32 21 -50t57 -18q31 0 59.5 12t40 28t15 27.5t3.5 30.5v32l1 29z" />
    <glyph glyph-name="atilde" unicode="&#xe3;" horiz-adv-x="554" 
d="M325 395q-11 10 -31 17t-38 7q-17 0 -33.5 -5t-27.5 -14l-18 -15q-12 -10 -23.5 -17t-17.5 -7q-22 0 -38 12t-16 30q0 32 45 53t117 21q31 0 46.5 -3t42.5 -12.5t50 -24.5t47 -39t37 -69t13 -120l-1 -39v-18v-39.5t3.5 -35.5t27 -25t23.5 -26q0 -26 -32 -26h-100
q-22 0 -30.5 6.5t-16.5 27.5l-6 14q-20 -18 -31 -25.5t-40.5 -19.5t-82.5 -12q-76 0 -121 41t-45 109q0 87 80.5 132.5t237.5 45.5q0 58 -21 76zM346 261q-37 0 -57 -3t-49 -8t-55 -33q-35 -32 -35 -85q0 -32 21 -50t57 -18q31 0 59.5 12t43.5 32.5t15 53.5v32l1 29z
M224 550q-24 0 -42 -12l-15 -9q-3 -4 -9 -4q-22 0 -22 43q0 25 24.5 45.5t55.5 20.5q16 0 58 -15.5t57 -15.5q17 0 36 10l15 9l13 4q9 0 16 -11.5t7 -27.5q0 -26 -23 -46t-54 -20q-6 0 -15 1.5l-15 2.5l-29 11q-37 14 -58 14z" />
    <glyph glyph-name="aring" unicode="&#xe5;" horiz-adv-x="573" 
d="M295 689q35 0 59.5 -24.5t24.5 -60.5q0 -37 -24.5 -62.5t-60.5 -25.5t-61 25t-25 61t25.5 61.5t61.5 25.5zM335 395q-11 10 -31 17t-38 7q-40 0 -62 -19l-17 -15q-12 -10 -23.5 -17t-17.5 -7q-22 0 -38 12t-16 30q0 32 45 53t117 21q31 0 46.5 -3t55.5 -17.5t74 -48.5
t47 -79t13 -120l-1 -39v-18v-39.5t3.5 -35.5t27 -25t23.5 -26q0 -26 -33 -26h-99q-21 0 -30.5 6.5t-17.5 27.5l-5 14q-32 -29 -59 -39q-41 -18 -96 -18q-75 0 -120 41t-45 109q0 87 80.5 132.5t237.5 45.5q0 56 -21 76zM294 564q16 0 27 11t11 27q0 15 -11 26t-27 11
q-15 0 -26 -10t-11 -26q0 -15 11 -27t26 -12zM356 261q-37 0 -57 -3t-49 -8t-55 -33q-35 -32 -35 -85q0 -32 21 -50t57 -18q31 0 59.5 12t40 28t15 27.5t3.5 30.5v32l1 29z" />
    <glyph glyph-name="ccedilla" unicode="&#xe7;" horiz-adv-x="528" 
d="M276 -59q45 -23 45 -65q0 -38 -34 -63t-86 -25l-49 3l8 28l17 -1q33 0 54 13t21 34q0 16 -9 25t-35 18l50 80q-42 7 -63.5 13t-60 26.5t-67.5 74t-29 121.5q0 112 74 185t187 73q77 0 133.5 -30t56.5 -73q0 -22 -14 -35t-37 -13q-19 0 -35 10t-36.5 34t-35 32.5
t-32.5 8.5q-50 0 -84 -51t-34 -128q0 -97 28.5 -125.5t54 -38.5t52.5 -10q31 0 56.5 12t63.5 44q20 19 34 19q12 -1 20 -10t8 -21q0 -14 -17.5 -34.5t-47 -41t-57 -29.5t-43.5 -11.5t-39 -2.5z" />
    <glyph glyph-name="eacute" unicode="&#xe9;" horiz-adv-x="545" 
d="M228 89q34 -28 87 -28q31 0 64 11.5t57 30.5l28 23q11 9 22 9q12 0 20 -8t8 -20q0 -25 -62 -71.5t-158 -46.5q-112 0 -184 65t-72 168q0 107 81 182t199 75q85 0 135.5 -37t50.5 -100q0 -43 -20.5 -71.5t-59 -47t-74.5 -29.5t-80 -17l-86 -8q9 -31 18 -48.5t26 -31.5z
M176 229q50 6 77.5 12t76.5 28.5t49 80.5q0 66 -67 66q-38 0 -73.5 -23t-46 -54t-14 -51.5t-3.5 -37.5zM230 522q-11 0 -19 9t-8 23q0 16 19 33l98 87q17 14 30 14q16 0 27 -13t11 -32q0 -29 -30 -47l-108 -67q-11 -7 -20 -7z" />
    <glyph glyph-name="egrave" unicode="&#xe8;" horiz-adv-x="545" 
d="M228 89q34 -28 87 -28q31 0 64 11.5t57 30.5l28 23q11 9 22 9q12 0 20 -8t8 -20q0 -25 -62 -71.5t-158 -46.5q-112 0 -184 65t-72 168q0 107 81 182t199 75q85 0 135.5 -37t50.5 -100q0 -43 -20.5 -71.5t-59 -47t-74.5 -29.5t-80 -17l-86 -8q9 -31 18 -48.5t26 -31.5z
M176 229q50 6 77.5 12t76.5 28.5t49 80.5q0 66 -67 66q-38 0 -73.5 -23t-46 -54t-14 -51.5t-3.5 -37.5zM162 643q0 18 10.5 31.5t24.5 13.5t36 -19l94 -81q20 -18 20 -33q0 -12 -6 -19q-8 -15 -21 -15q-8 0 -22 9l-105 65q-31 19 -31 48z" />
    <glyph glyph-name="ecircumflex" unicode="&#xea;" horiz-adv-x="545" 
d="M228 89q34 -28 87 -28q31 0 64 11.5t57 30.5l28 23q11 9 22 9q12 0 20 -8t8 -20q0 -25 -62 -71.5t-158 -46.5q-112 0 -184 65t-72 168q0 107 81 182t199 75q85 0 135.5 -37t50.5 -100q0 -43 -20.5 -71.5t-59 -47t-74.5 -29.5t-80 -17l-86 -8q9 -31 18 -48.5t26 -31.5z
M176 229q50 6 77.5 12t76.5 28.5t49 80.5q0 66 -67 66q-38 0 -73.5 -23t-46 -54t-14 -51.5t-3.5 -37.5zM168 525q-16 -7 -19 -7q-12 0 -19 10t-7 24q0 17 17 33l102 89q5 4 14.5 10.5t15.5 6.5q5 0 13.5 -5t16.5 -12l102 -89q17 -16 17 -33q0 -13 -7.5 -23.5t-17.5 -10.5
q-7 0 -19 7l-105 62z" />
    <glyph glyph-name="edieresis" unicode="&#xeb;" horiz-adv-x="545" 
d="M228 89q34 -28 87 -28q31 0 64 11.5t57 30.5l28 23q11 9 22 9q12 0 20 -8t8 -20q0 -25 -62 -71.5t-158 -46.5q-112 0 -184 65t-72 168q0 107 81 182t199 75q85 0 135.5 -37t50.5 -100q0 -43 -20.5 -71.5t-59 -47t-74.5 -29.5t-80 -17l-86 -8q9 -31 18 -48.5t26 -31.5z
M176 229q50 6 77.5 12t76.5 28.5t49 80.5q0 66 -67 66q-38 0 -73.5 -23t-46 -54t-14 -51.5t-3.5 -37.5zM178 651q28 0 47 -18t19 -45q0 -24 -19 -42t-47 -18t-48.5 18.5t-20.5 41.5q0 26 20.5 44.5t48.5 18.5zM368 651q28 0 47.5 -18.5t19.5 -44.5q0 -25 -19.5 -42.5
t-47.5 -17.5q-27 0 -47.5 18.5t-20.5 41.5q0 25 21 44t47 19z" />
    <glyph glyph-name="iacute" unicode="&#xed;" horiz-adv-x="283" 
d="M19 26q0 19 21 26t27.5 16.5t6.5 30.5v235q0 36 -27.5 45.5t-27.5 26.5q0 21 26 31l103 38l23 5q18 0 28 -20t10 -56v-302q0 -25 5.5 -34t26.5 -16t21 -26q0 -26 -33 -26h-177q-33 0 -33 26zM99 522q-11 0 -19 9t-8 23q0 16 19 33l98 87q17 14 30 14q16 0 27 -13t11 -32
q0 -29 -30 -47l-108 -67q-11 -7 -20 -7z" />
    <glyph glyph-name="igrave" unicode="&#xec;" horiz-adv-x="283" 
d="M19 26q0 19 21 26t27.5 16.5t6.5 30.5v235q0 36 -27.5 45.5t-27.5 26.5q0 21 26 31l103 38l23 5q18 0 28 -20t10 -56v-302q0 -25 5.5 -34t26.5 -16t21 -26q0 -26 -33 -26h-177q-33 0 -33 26zM31 643q0 18 10.5 31.5t24.5 13.5t36 -19l94 -81q20 -18 20 -33q0 -12 -6 -19
q-8 -15 -21 -15q-8 0 -22 9l-105 65q-31 19 -31 48z" />
    <glyph glyph-name="icircumflex" unicode="&#xee;" horiz-adv-x="283" 
d="M19 26q0 19 21 26t27.5 16.5t6.5 30.5v235q0 36 -27.5 45.5t-27.5 26.5q0 21 26 31l103 38l23 5q18 0 28 -20t10 -56v-302q0 -25 5.5 -34t26.5 -16t21 -26q0 -26 -33 -26h-177q-33 0 -33 26zM38 525q-16 -7 -19 -7q-12 0 -19 10t-7 24q0 17 17 33l102 89q5 4 14.5 10.5
t15.5 6.5q5 0 13.5 -5t16.5 -12l102 -89q17 -16 17 -33q0 -13 -7.5 -23.5t-17.5 -10.5q-7 0 -19 7l-105 62z" />
    <glyph glyph-name="idieresis" unicode="&#xef;" horiz-adv-x="283" 
d="M19 26q0 19 21 26t27.5 16.5t6.5 30.5v235q0 36 -27.5 45.5t-27.5 26.5q0 21 26 31l103 38l23 5q18 0 28 -20t10 -56v-302q0 -25 5.5 -34t26.5 -16t21 -26q0 -26 -33 -26h-177q-33 0 -33 26zM47 651q28 0 47 -18t19 -45q0 -24 -19 -42t-47 -18t-48.5 18.5t-20.5 41.5
q0 26 20.5 44.5t48.5 18.5zM237 651q28 0 47.5 -18.5t19.5 -44.5q0 -25 -19.5 -42.5t-47.5 -17.5q-27 0 -47.5 18.5t-20.5 41.5q0 25 21 44t47 19z" />
    <glyph glyph-name="ntilde" unicode="&#xf1;" horiz-adv-x="614" 
d="M405 298q0 38 -3 51t-20 36t-63 23q-30 0 -55 -14q-18 -12 -35.5 -33.5t-17.5 -38.5v-226l1 -17q3 -15 6.5 -18.5t23 -9.5t19.5 -25q0 -26 -31 -26h-177q-32 0 -32 26q0 20 27 27.5t27 44.5v237q0 21 -6 30t-24 16q-23 7 -23 25q0 20 26 31l94 38l22 5q14 0 25 -15.5
t11 -35.5v-25q19 23 30.5 33.5t40.5 27t85 16.5q121 0 148.5 -50.5t32.5 -89t5 -131.5l-1 -38l-2 -41q0 -45 5 -58t27.5 -20.5t22.5 -26.5q0 -26 -33 -26h-175q-31 0 -31 26q0 20 17 25t22 8.5t7.5 17t3.5 34t1 67.5v75zM254 550q-24 0 -42 -12l-15 -9q-3 -4 -9 -4
q-22 0 -22 43q0 25 24.5 45.5t55.5 20.5q16 0 58 -15.5t57 -15.5q17 0 36 10l15 9l13 4q9 0 16 -11.5t7 -27.5q0 -26 -23 -46t-54 -20q-6 0 -15 1.5l-15 2.5l-29 11q-37 14 -58 14z" />
    <glyph glyph-name="oacute" unicode="&#xf3;" horiz-adv-x="602" 
d="M304 481q110 0 184.5 -70.5t74.5 -175.5t-75 -176t-186 -71q-114 0 -189 70t-75 177q0 104 77 175t189 71zM169 234q0 -85 36 -135t97 -50t97 50t36 136q0 84 -36 135t-97 51t-97 -50.5t-36 -136.5zM258 522q-11 0 -19 9t-8 23q0 16 19 33l98 87q17 14 30 14q16 0 27 -13
t11 -32q0 -29 -30 -47l-108 -67q-11 -7 -20 -7z" />
    <glyph glyph-name="ograve" unicode="&#xf2;" horiz-adv-x="602" 
d="M304 481q110 0 184.5 -70.5t74.5 -175.5t-75 -176t-186 -71q-114 0 -189 70t-75 177q0 104 77 175t189 71zM169 234q0 -85 36 -135t97 -50t97 50t36 136q0 84 -36 135t-97 51t-97 -50.5t-36 -136.5zM191 643q0 18 10.5 31.5t24.5 13.5t36 -19l94 -81q20 -18 20 -33
q0 -12 -6 -19q-8 -15 -21 -15q-8 0 -22 9l-105 65q-31 19 -31 48z" />
    <glyph glyph-name="ocircumflex" unicode="&#xf4;" horiz-adv-x="602" 
d="M304 481q110 0 184.5 -70.5t74.5 -175.5t-75 -176t-186 -71q-114 0 -189 70t-75 177q0 104 77 175t189 71zM169 234q0 -85 36 -135t97 -50t97 50t36 136q0 84 -36 135t-97 51t-97 -50.5t-36 -136.5zM197 525q-16 -7 -19 -7q-12 0 -19 10t-7 24q0 17 17 33l102 89
q5 4 14.5 10.5t15.5 6.5q5 0 13.5 -5t16.5 -12l102 -89q17 -16 17 -33q0 -13 -7.5 -23.5t-17.5 -10.5q-7 0 -19 7l-105 62z" />
    <glyph glyph-name="odieresis" unicode="&#xf6;" horiz-adv-x="615" 
d="M310 481q116 0 191.5 -69.5t75.5 -176.5t-76 -177t-193 -70q-118 0 -194 69t-76 178q0 105 77.5 175.5t194.5 70.5zM217 651q28 0 47 -18t19 -45q0 -24 -19 -42t-47 -18q-27 0 -48 18t-21 42q0 25 21 44t48 19zM408 651q27 0 47 -18t20 -45q0 -25 -19.5 -42.5
t-47.5 -17.5q-27 0 -48 18t-21 42q0 25 21 44t48 19zM308 49q67 0 103.5 48.5t36.5 137.5t-36 137.5t-104 48.5q-67 0 -103 -49t-36 -138q0 -87 37 -136t102 -49z" />
    <glyph glyph-name="otilde" unicode="&#xf5;" horiz-adv-x="602" 
d="M304 481q110 0 184.5 -70.5t74.5 -175.5t-75 -176t-186 -71q-114 0 -189 70t-75 177q0 104 77 175t189 71zM169 234q0 -85 36 -135t97 -50t97 50t36 136q0 84 -36 135t-97 51t-97 -50.5t-36 -136.5zM248 550q-24 0 -42 -12l-15 -9q-3 -4 -9 -4q-22 0 -22 43
q0 25 24.5 45.5t55.5 20.5q16 0 58 -15.5t57 -15.5q17 0 36 10l15 9l13 4q9 0 16 -11.5t7 -27.5q0 -26 -23 -46t-54 -20q-6 0 -15 1.5l-15 2.5l-29 11q-37 14 -58 14z" />
    <glyph glyph-name="uacute" unicode="&#xfa;" horiz-adv-x="595" 
d="M237 -8q-78 0 -122.5 35.5t-44.5 97.5v5l9 208q0 31 -29 43q-24 8 -24 25q0 21 26 31l103 38l22 5q16 0 26.5 -19.5t10.5 -47.5l-9 -263v-8q0 -75 75 -75q23 0 38 7t23 10.5t22 13.5t18 21.5t4 41.5v176q0 33 -29 44q-24 7 -24 25q0 21 26 31l103 38l22 5q37 0 37 -76
v-302q0 -25 5.5 -34t27 -15.5t21.5 -26.5q0 -26 -32 -26h-104q-35 0 -43 54q-36 -34 -71.5 -48t-86.5 -14zM255 522q-11 0 -19 9t-8 23q0 16 19 33l98 87q17 14 30 14q16 0 27 -13t11 -32q0 -29 -30 -47l-108 -67q-11 -7 -20 -7z" />
    <glyph glyph-name="ugrave" unicode="&#xf9;" horiz-adv-x="595" 
d="M237 -8q-78 0 -122.5 35.5t-44.5 97.5v5l9 208q0 31 -29 43q-24 8 -24 25q0 21 26 31l103 38l22 5q16 0 26.5 -19.5t10.5 -47.5l-9 -263v-8q0 -75 75 -75q23 0 38 7t23 10.5t22 13.5t18 21.5t4 41.5v176q0 33 -29 44q-24 7 -24 25q0 21 26 31l103 38l22 5q37 0 37 -76
v-302q0 -25 5.5 -34t27 -15.5t21.5 -26.5q0 -26 -32 -26h-104q-35 0 -43 54q-36 -34 -71.5 -48t-86.5 -14zM187 643q0 18 10.5 31.5t24.5 13.5t36 -19l94 -81q20 -18 20 -33q0 -12 -6 -19q-8 -15 -21 -15q-8 0 -22 9l-105 65q-31 19 -31 48z" />
    <glyph glyph-name="ucircumflex" unicode="&#xfb;" horiz-adv-x="595" 
d="M237 -8q-78 0 -122.5 35.5t-44.5 97.5v5l9 208q0 31 -29 43q-24 8 -24 25q0 21 26 31l103 38l22 5q16 0 26.5 -19.5t10.5 -47.5l-9 -263v-8q0 -75 75 -75q23 0 38 7t23 10.5t22 13.5t18 21.5t4 41.5v176q0 33 -29 44q-24 7 -24 25q0 21 26 31l103 38l22 5q37 0 37 -76
v-302q0 -25 5.5 -34t27 -15.5t21.5 -26.5q0 -26 -32 -26h-104q-35 0 -43 54q-36 -34 -71.5 -48t-86.5 -14zM193 525q-16 -7 -19 -7q-12 0 -19 10t-7 24q0 17 17 33l102 89q5 4 14.5 10.5t15.5 6.5q5 0 13.5 -5t16.5 -12l102 -89q17 -16 17 -33q0 -13 -7.5 -23.5t-17.5 -10.5
q-7 0 -19 7l-105 62z" />
    <glyph glyph-name="udieresis" unicode="&#xfc;" horiz-adv-x="590" 
d="M230 -8q-78 0 -122 35t-44 98v5l8 208q0 32 -26.5 41.5t-26.5 26.5q0 21 26 31l103 38l23 5q15 0 26 -19.5t11 -47.5l-9 -263v-8q0 -75 75 -75q24 0 41.5 8t22.5 10.5t18.5 12.5t17.5 21.5t4 41.5v176q0 33 -26.5 42.5t-26.5 26.5q0 21 26 31l103 38l23 5q17 0 27 -20
t10 -56v-302q0 -25 5.5 -34t27 -15.5t21.5 -26.5q0 -26 -33 -26h-104q-33 0 -43 54q-35 -34 -70.5 -48t-87.5 -14zM189 651q28 0 47 -18t19 -45q0 -24 -19 -42t-47 -18t-48.5 18.5t-20.5 41.5q0 26 20.5 44.5t48.5 18.5zM379 651q28 0 47.5 -18.5t19.5 -44.5
q0 -25 -19.5 -42.5t-47.5 -17.5q-27 0 -47.5 18.5t-20.5 41.5q0 25 21 44t47 19z" />
    <glyph glyph-name="dagger" unicode="&#x2020;" horiz-adv-x="630" 
d="M88 502l17 -1l163 -17l-15 154l-3 34q0 26 18.5 43.5t47.5 17.5q28 0 45.5 -16.5t17.5 -44.5l-2 -34l-16 -154l163 17l18 1q60 0 60 -61q0 -27 -15 -43t-42 -16l-14 1l-168 19l16 -476l2 -50q0 -36 -15.5 -54.5t-50.5 -22.5q-36 5 -50.5 21.5t-14.5 51.5l1 54l16 476
l-169 -19l-13 -1q-51 0 -57 58q0 62 60 62z" />
    <glyph glyph-name="cent" unicode="&#xa2;" horiz-adv-x="525" 
d="M280 547h36v-66l14 -2q43 -6 56.5 -10t58 -26.5t44.5 -65.5q0 -21 -14 -34t-37 -13q-32 0 -59.5 31t-34.5 36t-29 15v-348q38 0 59.5 10t61.5 44q20 19 34 19q11 0 19 -9t8 -22q0 -18 -19 -37.5t-43.5 -37.5t-51 -27t-72.5 -16l1 -79h-36v78q-50 5 -75 12t-65 30
t-69 75.5t-29 118.5q0 105 63 173t179 86v65zM179 235q0 -50 16 -94q8 -26 25 -40.5t58 -31.5v345q-45 -15 -72 -64t-27 -115z" />
    <glyph glyph-name="sterling" unicode="&#xa3;" horiz-adv-x="665" 
d="M194 231q0 29 -21 108h-52q-14 0 -22 -4t-22.5 -17.5t-25.5 -13.5q-27 0 -27 32q0 33 18 53t48 20h68q-12 60 -12 95q0 102 69 168t175 66q103 0 147 -42t44 -66q0 -15 -30 -61.5t-59 -46.5q-13 0 -23 8t-10 21l3 14l2 22q0 34 -27.5 60.5t-63.5 26.5q-46 0 -77 -38
t-31 -93q0 -24 3 -41.5t20 -97.5l58 1q28 0 36 3q4 0 16 7l15 12q7 5 18 5q15 0 24 -8t9 -21q0 -31 -23 -50t-59 -19l-23 1l-61 2q5 -34 6 -48.5t1 -34.5q0 -26 -3 -43.5t-14 -51.5l61 -29q28 -11 66.5 -20t58.5 -9q28 0 61.5 14t50.5 32t25.5 24.5t15.5 6.5l4 -1
q8 -1 15 -9.5t7 -19.5q0 -17 -15 -44.5t-57.5 -71t-116.5 -43.5q-21 0 -49.5 8t-60.5 24.5t-105 62.5q-19 -26 -32 -38.5t-41.5 -27.5t-72.5 -15q-41 0 -67 25t-26 64q0 43 36 73t89 30q15 0 24.5 -1t29.5 -6zM134 141q-27 0 -45 -15t-18 -37q0 -38 43 -38q25 0 38 16
q12 12 17.5 23t15.5 35q-15 8 -28 12t-23 4z" />
    <glyph glyph-name="section" unicode="&#xa7;" horiz-adv-x="532" 
d="M27 263q0 46 28.5 80t41.5 45t40 28l-33 34q-35 38 -35 94q0 82 65 135t167 53q80 0 136.5 -35.5t56.5 -85.5q0 -26 -15 -41t-40 -15q-23 0 -40.5 14.5t-35.5 49.5l-13 25q-23 37 -70 37q-39 0 -66.5 -28.5t-27.5 -67.5q0 -65 88 -113l129 -69q47 -25 74 -63.5t27 -83.5
q0 -84 -112 -162l16 -12t31.5 -29t23.5 -89q0 -41 -18 -72q-14 -28 -46 -54t-60 -36t-85 -16l-57 3q-31 4 -64.5 16.5t-67.5 37t-34 67.5q0 27 15.5 43.5t39.5 16.5q15 0 31 -8t25.5 -19.5t34 -58.5t76.5 -47q33 0 59 27t26 62q0 28 -17 54t-46 43l-31 18l-97 57
q-21 12 -32 19.5t-31.5 23.5t-32.5 36.5t-22 60.5zM134 299q0 -22 10 -37.5t38 -39.5l40 -27l123 -70q29 24 40 42t11 43q0 60 -80 105l-130 72q-3 -3 -7 -7.5t-13.5 -14.5t-13 -14.5t-11 -20t-7.5 -31.5z" />
    <glyph glyph-name="bullet" unicode="&#x2022;" horiz-adv-x="231" 
d="M118 343q34 0 57 -21t23 -52t-23 -50t-60 -19q-34 0 -57.5 20.5t-23.5 49.5q0 30 24 51t60 21z" />
    <glyph glyph-name="paragraph" unicode="&#xb6;" horiz-adv-x="649" 
d="M557 720v-58h-316q-58 0 -99 -42t-41 -102q0 -58 41 -99t99 -41h67v238h61v-616h-61v320h-67q-82 0 -140 58t-58 142q0 83 57.5 141.5t140.5 58.5h316zM434 616h61v-616h-61v616z" />
    <glyph glyph-name="germandbls" unicode="&#xdf;" horiz-adv-x="652" 
d="M562 358q62 -57 62 -143q0 -90 -64.5 -155.5t-154.5 -65.5q-65 0 -100.5 16t-35.5 47q0 24 10.5 38.5t27.5 14.5q12 0 30.5 -16.5t34.5 -16.5q49 0 83 42t34 103q0 58 -37 100t-92 42l-45 5q-21 0 -34.5 11.5t-13.5 29.5q0 15 10.5 24.5t29.5 9.5l16 1q49 0 82.5 34.5
t33.5 83.5q0 46 -31.5 76.5t-78.5 30.5q-53 0 -86 -37t-33 -98v-433q0 -26 4.5 -35t25.5 -15.5t21 -25.5q0 -26 -32 -26h-176q-32 0 -32 26q0 20 21 26.5t26.5 17.5t5.5 41v365q0 134 48.5 184.5t98.5 69.5t110 19q105 0 171.5 -52.5t66.5 -136.5q0 -17 -3 -30.5t-14 -40.5
t-32 -45t-68 -35q45 -11 66 -20.5t44 -30.5z" />
    <glyph glyph-name="registered" unicode="&#xae;" horiz-adv-x="932" 
d="M167 624q54 54 122.5 81.5t142.5 27.5q73 0 141 -27.5t149.5 -109t81.5 -235.5q0 -155 -109 -264t-264 -109t-264 109t-109 264q0 74 28 142t81 121zM206 131q45 -45 104.5 -69.5t121.5 -24.5t120 23.5t104 70.5t69.5 107t23.5 123q0 64 -23.5 123t-69 105t-105 70.5
t-121.5 24.5t-120 -23.5t-128 -95t-70 -204.5q0 -65 24 -124.5t70 -105.5zM311 595h114q39 0 62.5 -6t49.5 -28t32 -52t6 -44q0 -47 -28 -79.5t-74 -40.5l-15 -1l141 -209h-77l-146 223v-223h-65v460zM414 381q44 0 69 21t25 58q0 81 -89 81h-43v-160h38z" />
    <glyph glyph-name="copyright" unicode="&#xa9;" horiz-adv-x="932" 
d="M167 624q54 54 122.5 81.5t142.5 27.5q73 0 141 -27.5t149.5 -109t81.5 -235.5q0 -155 -109 -264t-264 -109t-264 109t-109 264q0 74 28 142t81 121zM206 131q45 -45 104.5 -69.5t121.5 -24.5t120 23.5t104 70.5t69.5 107t23.5 123q0 64 -23.5 123t-69 105t-105 70.5
t-121.5 24.5t-120 -23.5t-128 -95t-70 -204.5q0 -65 24 -124.5t70 -105.5zM569 494q-37 31 -68.5 37t-49.5 6q-66 0 -115 -41t-56 -83t-7 -57q0 -66 41 -116t80.5 -57t52.5 -7q52 0 98 29l23 16l33 -47q-32 -27 -70 -41.5t-81 -14.5q-103 0 -173 68t-70 167q0 22 4 46
t21.5 70t76.5 87t135 41h19t49 -7.5t90 -48.5z" />
    <glyph glyph-name="trademark" unicode="&#x2122;" horiz-adv-x="782" 
d="M43 720h218v-54h-80v-306h-60v306h-78v54zM316 727h39l92 -217q17 -38 17 -68q0 28 17 68l93 217h39l67 -367h-60l-35 206l-1 11l-1 10v38l-10 -37l-4 -15l-2 -5l-90 -214h-25l-90 214l-2 5l-5 15l-10 37v-18.5t1 -19.5l-1 -10l-2 -11l-35 -206h-59z" />
    <glyph glyph-name="acute" unicode="&#xb4;" horiz-adv-x="201" 
d="M58 522q-11 0 -19 9t-8 23q0 16 19 33l98 87q17 14 30 14q16 0 27 -13t11 -32q0 -29 -30 -47l-108 -67q-11 -7 -20 -7z" />
    <glyph glyph-name="dieresis" unicode="&#xa8;" horiz-adv-x="266" 
d="M39 651q28 0 47 -18t19 -45q0 -24 -19 -42t-47 -18t-48.5 18.5t-20.5 41.5q0 26 20.5 44.5t48.5 18.5zM229 651q28 0 47.5 -18.5t19.5 -44.5q0 -25 -19.5 -42.5t-47.5 -17.5q-27 0 -47.5 18.5t-20.5 41.5q0 25 21 44t47 19z" />
    <glyph glyph-name="notequal" unicode="&#x2260;" horiz-adv-x="594" 
d="M413 336h91v-64h-149l-73 -72h222v-64h-281l-118 -118l-43 44l74 74h-91v64h150l73 72h-223v64h281l118 118l44 -44z" />
    <glyph glyph-name="AE" unicode="&#xc6;" horiz-adv-x="910" 
d="M771 721q36 0 45 -1t21 -7.5t14 -14.5q5 -11 10 -45l2 -38q0 -30 -29 -30q-7 0 -21.5 8.5t-27.5 19.5l-17 16q-10 9 -17 12t-22 7q-54 9 -142 9q-33 0 -50 -1t-42 -9.5t-25 -68.5q25 -48 37 -75t31 -77h67h52l34 3l16 5l16 9l13 7q13 7 23 7q18 0 23.5 -14t5.5 -60v-26
q-2 -10 -4 -19.5t-22 -9.5q-7 0 -21 4t-24 9l-14 7q-18 9 -93 9h-42q16 -38 29.5 -74t22 -69t18.5 -64.5t19.5 -53t37.5 -21.5q45 0 73 13l22 14l24 17l18 15l16 10q15 10 22 10q10 0 17 -10t7 -26l-1 -7l-5 -41q-5 -31 -9 -42t-12 -17.5t-20.5 -8.5t-44.5 -2h-287
q-35 0 -46 6t-11 24q0 16 10 23l17 11q16 8 16 25q0 6 -2.5 13.5t-4.5 16.5l-19 66l-19 54h-291l-15 -45q-26 -83 -26 -103q0 -18 14 -24l17 -8q20 -9 20 -29q0 -30 -44 -30h-123q-32 0 -32 29q0 12 3.5 17.5t17 16t17.5 15t13.5 28t41.5 117t92.5 232t93.5 197t46.5 69
t34.5 10.5q18 0 43 -10h392zM194 318h234q-16 47 -19 55t-25 60.5t-35 82.5t-35 73q-21 -39 -34 -65t-29 -62.5t-33.5 -81t-23.5 -62.5z" />
    <glyph glyph-name="Oslash" unicode="&#xd8;" horiz-adv-x="854" 
d="M116 128q-76 107 -76 232q0 76 28 146.5t104.5 149t248.5 78.5q92 0 157 -26.5t124 -88.5l117 100l27 -35l-116 -99q43 -72 57 -116t14 -108q0 -78 -28 -147.5t-105 -148.5t-247 -79q-88 0 -153 25.5t-122 82.5l-111 -95l-27 37zM305 102q47 -47 116 -47q99 0 161 83.5
t62 218.5q0 34 -4 64t-8.5 45.5t-9.5 30.5l-379 -323q18 -24 33.5 -41.5t28.5 -30.5zM538 617q-56 48 -114 48q-96 0 -161 -89t-65 -220q0 -36 5 -63t21 -79l378 327q-18 29 -31 44t-33 32z" />
    <glyph glyph-name="infinity" unicode="&#x221e;" horiz-adv-x="771" 
d="M366 238q-33 -62 -71.5 -93t-85.5 -31q-66 0 -111 52.5t-45 131.5q0 83 41 134.5t105 51.5q47 0 82.5 -29.5t65.5 -94.5q31 62 69.5 93t87.5 31q63 0 109 -53t46 -131q0 -83 -40.5 -134.5t-104.5 -51.5q-46 0 -84 30q-36 31 -64 94zM330 327q-26 46 -59 69.5t-76 23.5
q-51 0 -84 -35t-33 -90q0 -54 29.5 -88.5t76.5 -34.5q40 0 71.5 31.5t74.5 123.5zM383 271q23 -45 58 -70q35 -23 77 -23q52 0 84.5 35t32.5 90q0 56 -30 89.5t-80 33.5q-37 0 -71 -36t-71 -119z" />
    <glyph glyph-name="plusminus" unicode="&#xb1;" horiz-adv-x="594" 
d="M506 19h-462v68h462v-68zM309 331h197v-68h-197v-122h-68v122h-197v68h197v122h68v-122z" />
    <glyph glyph-name="lessequal" unicode="&#x2264;" horiz-adv-x="594" 
d="M506 18h-463v68h463v-68zM162 280l344 -107v-70l-462 145v65l462 145v-70z" />
    <glyph glyph-name="greaterequal" unicode="&#x2265;" horiz-adv-x="594" 
d="M506 18h-463v68h463v-68zM506 248l-463 -145v70l344 107l-344 108v70l463 -145v-65z" />
    <glyph glyph-name="yen" unicode="&#xa5;" horiz-adv-x="775" 
d="M105 614q-20 38 -46 49l-7 3q-18 5 -18 27q0 28 34 28h208q34 0 34 -29q0 -22 -25.5 -29.5t-25.5 -26.5q0 -20 35 -80l53 -92l74 -106l75 101l61 103q31 54 31 70q0 22 -27 31t-27 30q0 28 35 28h139q35 0 35 -28q0 -20 -19 -27l-7 -3q-21 -8 -35 -31l-56 -104l-69 -110
l-13 -22h173q5 0 10 -10t5 -24q0 -12 -5 -22.5t-10 -10.5h-222l-31 -37v-28h253q6 0 10 -8t4 -22q0 -15 -4.5 -25.5t-9.5 -10.5h-253v-87q0 -26 6 -36.5t29 -17.5t23 -29q0 -12 -9 -20t-25 -8h-196q-35 0 -35 28q0 21 23 28.5t29.5 18t6.5 33.5v88h-250q-7 0 -11 10.5
t-4 27.5q0 12 4.5 20.5t10.5 8.5h250v29l-25 37h-225q-6 0 -10 9.5t-4 23.5t4 24t10 10h169l-16 23l-73 117z" />
    <glyph glyph-name="mu" unicode="&#xb5;" horiz-adv-x="623" 
d="M166 153q0 -71 14 -95t50 -24q57 0 95 81t38 204v130h92v-328q0 -45 9.5 -66t28.5 -21q20 0 31.5 20.5t11.5 61.5v14h21l1 -9v-13q0 -55 -23.5 -86t-66.5 -31q-49 0 -75.5 43t-26.5 129q-23 -89 -61.5 -130.5t-96.5 -41.5q-42 0 -73 26q-28 27 -40 77l-1 -28
q0 -65 32 -142t32 -91q0 -20 -11 -31t-31 -11q-23 0 -33 17t-10 53l2 58l2 89l-1 101l-2 95v245h92v-296z" />
    <glyph glyph-name="partialdiff" unicode="&#x2202;" horiz-adv-x="534" 
d="M358 287q4 14 6.5 28t2.5 31l3 89q0 85 -15.5 126t-47.5 41q-18 0 -50 -35t-56 -35q-16 0 -25.5 7.5t-11.5 24.5q0 29 30.5 50t71.5 21q77 0 111.5 -54t46.5 -103t12 -111q0 -163 -64.5 -271.5t-157.5 -108.5q-68 0 -110 51t-42 137q0 82 53 143.5t125 61.5
q44 0 72.5 -22t45.5 -71zM256 349q-52 0 -86 -60t-34 -161q0 -57 21.5 -88t62.5 -31q53 0 87 62t34 153q0 58 -21.5 91.5t-63.5 33.5z" />
    <glyph glyph-name="summation" unicode="&#x3a3;" horiz-adv-x="771" 
d="M618 643l15 -129h-44q-32 105 -85 144t-169 39h-132l315 -431l-344 -394h187q122 0 172.5 31.5t82.5 116.5h45l-30 -130l-2 -7q-23 -99 -111 -99h-482l389 446l-375 514h460q65 0 82 -15q17 -13 26 -86z" />
    <glyph glyph-name="product" unicode="&#x220f;" horiz-adv-x="890" 
d="M118 -176v880h-88v40h767v-40h-88v-880h88v-40h-264v40h84v880h-407v-880h84v-40h-264v40h88z" />
    <glyph glyph-name="pi" unicode="&#x3c0;" horiz-adv-x="594" 
d="M404 373l-1 -24l-3 -150v-40q0 -84 8.5 -105t30.5 -21q28 0 41 29q17 31 17 89h25v-5q0 -80 -26 -118t-80 -38q-56 0 -79.5 40t-23.5 164l1 78l3 104l-50 1l-77 2q0 -234 -23 -311.5t-80 -77.5q-35 0 -52.5 29t-17.5 86v19h24q0 -27 9.5 -39.5t27.5 -12.5q42 0 54.5 47
t18 110.5t5.5 149.5h-22q-38 0 -59.5 -13.5t-27.5 -39.5h-23q0 34 10 57.5t36.5 44.5t112.5 21l102 -3l152 -3q34 0 49.5 7t16.5 21l23 1q0 -53 -23.5 -76.5t-74.5 -23.5h-14z" />
    <glyph glyph-name="integral" unicode="&#x222b;" horiz-adv-x="296" 
d="M283 757q36 0 58.5 -18.5t22.5 -48.5q0 -20 -13 -34t-36 -14q-29 0 -44 32t-29 32q-57 0 -57 -310l-3 -98q0 -63 -4.5 -120t-14 -128t-31 -120t-60 -80t-81.5 -31q-35 0 -58 18.5t-23 48.5q0 22 12.5 34.5t36.5 12.5q29 0 44 -31t30 -32q57 0 57 324l2 84q0 60 4 116
t13.5 127.5t31.5 122.5t59.5 82t82.5 31z" />
    <glyph glyph-name="ordfeminine" unicode="&#xaa;" horiz-adv-x="482" 
d="M403 336v-68h-350v68h350zM329 720h74v-335h-75v69l-3 -8l-4 -8q-16 -28 -47 -45t-69 -17q-32 0 -87 22t-72 117l-3 39q0 77 48 127t114 50q15 0 50 -7.5t65 -52.5l5 -9l4 -7v65zM122 531q6 -35 28 -58t45.5 -27t30.5 -4q22 0 56 15.5t41 48.5t7 49q0 7 -7 43t-35.5 49
t-42 16t-21.5 3q-37 0 -66 -25t-37 -67l-1 -20q-1 -5 -0.5 -11.5t2.5 -11.5z" />
    <glyph glyph-name="ordmasculine" unicode="&#xba;" horiz-adv-x="482" 
d="M49 336h349v-68h-349v68zM47 591q13 65 61 105t113 40h15.5t46.5 -8.5t80 -58t40 -114.5q0 -18 -3 -38q-13 -63 -63 -103t-114 -40q-18 0 -54 7t-73.5 44t-45 73t-7.5 56v15.5t4 21.5zM119 534q13 -74 53.5 -83t52.5 -9q38 0 66 25t36 66q2 16 2 22q0 60 -45 91
q-26 20 -60 20q-23 0 -58.5 -16.5t-46.5 -74.5l-2 -21z" />
    <glyph glyph-name="Omega" unicode="&#x3a9;" horiz-adv-x="830" 
d="M593 90q48 0 68 19t20 67h23v-176h-272v180q77 15 122.5 76.5t45.5 151.5q0 106 -59 168.5t-157 62.5t-157 -62.5t-59 -168.5q0 -90 44.5 -151t123.5 -77v-180h-272v176h23q0 -48 19 -67t69 -19h123v59q-118 21 -183 89t-65 170q0 121 92.5 194t241.5 73t241.5 -73.5
t92.5 -193.5q0 -100 -64 -168t-184 -91v-59h123z" />
    <glyph glyph-name="ae" unicode="&#xe6;" horiz-adv-x="857" 
d="M264 416q-48 0 -87 -29.5t-62 -29.5q-21 0 -33.5 12.5t-12.5 32.5q0 30 54.5 54t125.5 24h25.5t36.5 -4l55 -14q23 -9 82 -47q26 20 40 27q63 37 143 37q88 0 139.5 -36.5t51.5 -99.5q0 -79 -60.5 -109t-91 -39t-67.5 -14t-58.5 -7t-42.5 -2q18 -59 47.5 -85t84.5 -26
q28 0 62.5 12t57.5 30l28 23q10 10 23 10q10 0 18 -8.5t8 -19.5q0 -23 -60 -70t-160 -47q-63 0 -103 14.5t-59 28t-54 46.5q-60 -59 -100.5 -74.5t-84.5 -15.5q-80 0 -126 39t-46 108q0 96 61 127t117 43t107 12l29 -1q-5 54 -25 76t-63 22zM356 258q-32 0 -48.5 -1.5
t-51 -8t-65.5 -35.5t-31 -82q0 -31 21 -49t57 -18q52 0 85.5 27.5t33.5 70.5l-1 32l1 29zM492 231q23 3 44.5 6t37.5 7.5t27 8.5t53 24t42 73q0 31 -20 51t-52 20q-39 0 -72 -25t-46.5 -68t-13.5 -77v-20z" />
    <glyph glyph-name="oslash" unicode="&#xf8;" horiz-adv-x="625" 
d="M89 89q-26 45 -36 75.5t-10 71.5q0 105 78 175t196 70q56 0 101 -16t93 -54l77 55l23 -32l-75 -55q29 -45 38 -73t9 -71q0 -107 -76 -177t-192 -70q-28 0 -52 3t-60.5 14.5t-87.5 52.5l-78 -57l-23 33zM199 123q32 -41 58.5 -56.5t62.5 -15.5q61 0 97 46t36 125
q0 21 -2 37.5t-9 50.5zM426 347q-26 35 -45 48t-51 19l-22 2q-63 0 -97 -46t-34 -132q0 -30 1.5 -38.5t8.5 -36.5z" />
    <glyph glyph-name="questiondown" unicode="&#xbf;" horiz-adv-x="509" 
d="M344 369q-2 -4 -10 -8l-22 -10q-31 -15 -51.5 -28.5t-32 -26t-20.5 -24t-17.5 -34t-8.5 -64.5q0 -58 30.5 -93.5t80.5 -35.5q33 0 51.5 16.5t18.5 45.5v14l-1 8q0 55 64 55q28 0 45 -16t17 -45q0 -59 -60 -97t-153 -38q-103 0 -170.5 59t-67.5 149q0 70 46 124t107 75
t70.5 28.5t9.5 26.5q0 37 7 65q5 27 35 27q43 0 43 -40v-101q0 -23 -11 -32zM317 743q34 0 58 -20t24 -49q0 -30 -24.5 -51.5t-58.5 -21.5q-36 0 -58.5 20.5t-22.5 52.5q0 31 22 50t60 19z" />
    <glyph glyph-name="exclamdown" unicode="&#xa1;" horiz-adv-x="268" 
d="M223 71q0 -37 -13 -61q-16 -22 -75 -22q-44 0 -63 19t-19 62v7l4 34l46 378q2 18 4 25.5t9.5 18t28.5 10.5q17 0 24.5 -11.5t11.5 -42.5l40 -381zM141 741q34 0 58 -20t24 -50t-24 -51t-60 -21t-59 20t-23 52q0 30 23 50t61 20z" />
    <glyph glyph-name="logicalnot" unicode="&#xac;" horiz-adv-x="638" 
d="M43 450h504v-234h-72v144h-432v90z" />
    <glyph glyph-name="radical" unicode="&#x221a;" horiz-adv-x="594" 
d="M594 764h-57l-290 -784h-32l-156 431l-61 -22l-12 39l138 48l125 -346l252 681h93v-47z" />
    <glyph glyph-name="florin" unicode="&#x192;" horiz-adv-x="382" 
d="M187 36l-12 -61q-10 -37 -24.5 -66.5t-37.5 -53t-59 -39.5t-72 -16t-59.5 15.5t-23.5 39.5q0 26 18 43t44 17q34 0 34 -29v-5q0 -10 5 -10q4 2 7 4.5t12 15t15.5 30t10.5 54.5l61 421h-35q-32 0 -32 29q0 20 12 32t32 12l33 -1l6 47q7 46 14 70.5t22 53.5q24 51 70 81
t100 30q35 0 58 -15t23 -40t-17 -42t-44 -17q-33 0 -33 29v4q0 10 -7 10q-4 -2 -7 -4t-5 -7q-14 -20 -21 -38t-11 -55l-15 -106h65q33 0 33 -31q0 -19 -12 -31t-32 -12l-65 1z" />
    <glyph glyph-name="approxequal" unicode="&#x2248;" horiz-adv-x="594" 
d="M15 100v77q49 31 87 44.5t74 13.5q44 0 115 -24t99 -24t61.5 15t82.5 52v-78q-42 -28 -76.5 -41.5t-72.5 -13.5q-32 0 -104 23.5t-116 23.5q-28 0 -53.5 -11t-48 -24.5t-48.5 -32.5zM15 219v77q23 14 43.5 25t50.5 21.5t66 10.5q42 0 114.5 -23.5t100.5 -23.5
q27 0 60 14.5t84 51.5v-77q-18 -12 -41 -24t-49 -21.5t-59 -9.5t-104.5 23.5t-110.5 23.5q-35 0 -66 -13.5t-89 -54.5z" />
    <glyph glyph-name="Delta" unicode="&#x2206;" horiz-adv-x="662" 
d="M595 0h-574l276 672h22zM92 45h373l-186 459z" />
    <glyph glyph-name="guillemotleft" unicode="&#xab;" horiz-adv-x="435" 
d="M174 438q19 25 36 25q24 0 24 -25q0 -11 -7 -25l-82 -182l82 -182q7 -14 7 -25q0 -25 -24 -25q-19 0 -36 25l-140 207zM344 438q10 14 17.5 19.5t17.5 5.5q23 0 23 -26q0 -11 -5 -24l-83 -182l83 -182q5 -13 5 -24q0 -26 -23 -26q-18 0 -35 25l-142 207z" />
    <glyph glyph-name="guillemotright" unicode="&#xbb;" horiz-adv-x="435" 
d="M91 24q-17 -25 -35 -25q-24 0 -24 25q0 11 7 25l82 182l-82 182q-7 14 -7 25q0 25 24 25q17 0 35 -25l141 -208zM261 24q-17 -25 -36 -25q-23 0 -23 25q0 13 6 25l83 182l-83 182q-6 12 -6 25q0 25 24 25q17 0 35 -25l141 -208z" />
    <glyph glyph-name="ellipsis" unicode="&#x2026;" horiz-adv-x="996" 
d="M167 133q30 0 51 -21t21 -51t-21 -51t-51 -21t-51 21t-21 51t21 51t51 21zM500 133q30 0 51 -21t21 -51t-21 -51t-51 -21t-51 21t-21 51t21 51t51 21zM833 133q30 0 51 -21t21 -51t-21 -51t-51 -21t-51 21t-21 51t21 51t51 21z" />
    <glyph glyph-name="nonbreakingspace" unicode="&#xa0;" horiz-adv-x="500" 
 />
    <glyph glyph-name="Agrave" unicode="&#xc0;" horiz-adv-x="737" 
d="M174 194q-23 -64 -23 -89q0 -21 7 -31t30 -17.5t23 -28.5q0 -13 -9.5 -20.5t-26.5 -7.5h-156q-15 0 -24.5 7.5t-9.5 20.5q0 20 18 27l9 2q16 7 23 16t18 38l33 90l76 195q65 160 102 226t42.5 74t13 17.5t17.5 13.5t33 4q25 0 32.5 -5t33 -42.5t58 -105t73 -165
t73 -184.5t41 -109.5t17 -38t28.5 -24.5l8 -2q18 -7 18 -27q0 -12 -9 -20t-25 -8h-214q-35 0 -35 28q0 21 26 29q31 12 31 40q0 14 -5 32.5t-19 55.5l-20 54h-292zM218 318h236q-16 46 -26.5 72t-28.5 70.5t-26 62.5t-37 72q-28 -58 -37 -77.5t-30 -68.5zM258 919
q0 18 10.5 31.5t24.5 13.5t36 -19l94 -81q20 -18 20 -33q0 -12 -6 -19q-8 -15 -21 -15q-8 0 -22 9l-105 65q-31 19 -31 48z" />
    <glyph glyph-name="Atilde" unicode="&#xc3;" horiz-adv-x="737" 
d="M174 194q-23 -64 -23 -89q0 -21 7 -31t30 -17.5t23 -28.5q0 -13 -9.5 -20.5t-26.5 -7.5h-156q-15 0 -24.5 7.5t-9.5 20.5q0 20 18 27l9 2q16 7 23 16t18 38l33 90l76 195q65 160 102 226t42.5 74t13 17.5t17.5 13.5t33 4q25 0 32.5 -5t33 -42.5t58 -105t73 -165
t73 -184.5t41 -109.5t17 -38t28.5 -24.5l8 -2q18 -7 18 -27q0 -12 -9 -20t-25 -8h-214q-35 0 -35 28q0 21 26 29q31 12 31 40q0 14 -5 32.5t-19 55.5l-20 54h-292zM218 318h236q-16 46 -26.5 72t-28.5 70.5t-26 62.5t-37 72q-28 -58 -37 -77.5t-30 -68.5zM315 826
q-24 0 -42 -12l-15 -9q-3 -4 -9 -4q-22 0 -22 43q0 25 24.5 45.5t55.5 20.5q16 0 58 -15.5t57 -15.5q17 0 36 10l15 9l13 4q9 0 16 -11.5t7 -27.5q0 -26 -23 -46t-54 -20q-6 0 -15 1.5l-15 2.5l-29 11q-37 14 -58 14z" />
    <glyph glyph-name="Otilde" unicode="&#xd5;" horiz-adv-x="848" 
d="M152 631q104 103 272 103t244 -77t106 -150.5t30 -146.5q0 -76 -28.5 -146.5t-104.5 -149t-247 -78.5q-88 0 -152 24t-117.5 77t-82.5 124t-29 149q0 75 29 147t80 124zM201 360q0 -128 65 -217t159 -89q93 0 158 89t65 217t-65 217t-158 89t-158.5 -89.5t-65.5 -216.5z
M371 826q-24 0 -42 -12l-15 -9q-3 -4 -9 -4q-22 0 -22 43q0 25 24.5 45.5t55.5 20.5q16 0 58 -15.5t57 -15.5q17 0 36 10l15 9l13 4q9 0 16 -11.5t7 -27.5q0 -26 -23 -46t-54 -20q-6 0 -15 1.5l-15 2.5l-29 11q-37 14 -58 14z" />
    <glyph glyph-name="OE" unicode="&#x152;" horiz-adv-x="1137" 
d="M998 721q34 0 44 -1t21 -5q12 -7 16 -17.5t7 -42.5l3 -37q0 -31 -25 -31q-23 0 -46.5 23t-34 29t-27.5 11q-63 12 -172 12q-81 0 -81 -71v-165h149h45q24 0 53 16l14 9q12 6 20 6q16 0 22.5 -9.5t6.5 -15.5l2 -33v-17q0 -31 -5.5 -42t-22.5 -11q-8 0 -26 7l-16 8l-15 6
l-19 5l-59 4h-149v-195q0 -59 25.5 -77.5t105.5 -18.5q49 0 95.5 6t63 13t26.5 15l26 18l17 13l14 12q13 11 21 11q9 0 17 -10.5t8 -24.5l-1 -6l-6 -44q-8 -49 -21 -60t-64 -11h-491q-39 -8 -69 -11t-56 -3q-159 0 -265 107t-106 267q0 76 28 146.5t105.5 149t248.5 78.5
q35 0 54 -2t57 -11h462zM566 472q0 47 -2 78.5t-6 46.5t-45.5 41.5t-88.5 26.5q-94 0 -159 -88t-65 -217t64 -217t160 -88q45 0 86.5 25.5t50.5 50.5q5 18 5 132l2 108z" />
    <glyph glyph-name="oe" unicode="&#x153;" horiz-adv-x="954" 
d="M606 457q54 22 116 22q92 0 144 -36t52 -100q0 -40 -20.5 -68t-61 -49.5t-70.5 -31t-65 -14t-54.5 -7t-48.5 -2.5q10 -35 17.5 -50t25.5 -29q35 -31 87 -31q30 0 65.5 12t56.5 30l28 23q9 10 21 10t20.5 -10.5t8.5 -19.5q0 -24 -44 -55q-77 -61 -177 -61q-58 0 -97.5 17
t-54.5 27t-40 33l-27 -23q-73 -56 -181 -56q-119 0 -194 68t-75 178q0 108 78 177t200 69q52 0 92 -12t61 -25.5t53 -46.5q31 28 47.5 39.5t36.5 21.5zM174 235q0 -85 37 -132.5t103 -47.5q64 0 101 48t37 133t-36.5 132.5t-101.5 47.5q-66 0 -103 -48t-37 -133zM590 232
q43 0 69 7t63.5 23.5t53.5 36.5t16 51t-19 51t-51 20q-40 0 -73.5 -25.5t-43 -58.5t-13 -51.5t-3.5 -35.5z" />
    <glyph glyph-name="endash" unicode="&#x2013;" 
d="M108 408h424v-96h-424v96z" />
    <glyph glyph-name="emdash" unicode="&#x2014;" horiz-adv-x="996" 
d="M30 406h936v-95h-936v95z" />
    <glyph glyph-name="quotedblleft" unicode="&#x201c;" horiz-adv-x="421" 
d="M326 586q34 0 54.5 -17.5t20.5 -45.5q0 -27 -26 -48t-59 -21q-40 0 -65 25t-25 66q0 22 8 37q8 19 23.5 45t28 41t22.5 24.5t29.5 25t33.5 15.5q8 0 14 -6t6 -13t-9 -18l-21 -18q-20 -19 -32 -41t-12 -40l1 -11h8zM119 586q34 0 54.5 -17.5t20.5 -45.5t-25.5 -48.5
t-60.5 -20.5q-39 0 -65 25t-26 63q0 13 1.5 19.5t8.5 22.5t27 48l30 44l37 33q30 24 42 24q8 0 14 -7q7 -4 7 -12q0 -9 -10 -18l-19 -18q-20 -19 -33 -41.5t-13 -39.5l1 -11h9z" />
    <glyph glyph-name="quotedblright" unicode="&#x201d;" horiz-adv-x="419" 
d="M96 601q-35 0 -56 17t-21 46q0 28 25.5 48.5t60.5 20.5q40 0 65 -25t25 -66q0 -19 -9.5 -39.5t-25 -46t-27.5 -40.5t-23.5 -25t-28.5 -23.5t-31 -13.5q-8 0 -14.5 6.5t-6.5 13.5q0 8 10 17l19 18q20 19 33 41.5t13 39.5l-1 11h-7zM304 601q-35 0 -56 17t-21 46
q0 28 25.5 48.5t59.5 20.5q40 0 64.5 -25.5t24.5 -65.5q0 -20 -7 -37.5t-25 -46.5t-32.5 -46.5t-40.5 -37.5t-39 -20q-7 0 -13.5 6.5t-6.5 13.5q0 8 9 17l20 18q44 41 44 81l-1 11h-5z" />
    <glyph glyph-name="quoteleft" unicode="&#x2018;" horiz-adv-x="212" 
d="M116 588q34 0 55 -17t21 -46q0 -28 -25.5 -48.5t-59.5 -20.5q-40 0 -65 25t-25 66q0 14 1 20.5t7 15.5q8 18 25.5 46.5t31.5 46.5t39 38.5t41 20.5q8 0 14.5 -6.5t6.5 -12.5q0 -8 -10 -18l-19 -18q-46 -41 -46 -81l1 -11h7z" />
    <glyph glyph-name="quoteright" unicode="&#x2019;" horiz-adv-x="212" 
d="M96 603q-35 0 -56 17t-21 46q0 28 25.5 48.5t60.5 20.5q40 0 65 -25t25 -66q0 -20 -9.5 -40t-25 -45.5t-27 -39.5t-19.5 -22t-29 -24.5t-35 -16.5q-8 0 -14 7q-7 4 -7 13q0 7 10 17l19 18q20 17 33 40.5t13 40.5l-1 11h-7z" />
    <glyph glyph-name="divide" unicode="&#xf7;" horiz-adv-x="594" 
d="M275 158q24 0 40 -16t16 -41q0 -24 -17 -40q-15 -17 -39 -17t-40.5 17.5t-16.5 39.5q0 24 17.5 40.5t39.5 16.5zM506 202h-463v68h463v-68zM275 427q24 0 40 -17t16 -40q0 -24 -17 -40q-15 -17 -39 -17t-40.5 16.5t-16.5 40.5t17.5 40.5t39.5 16.5z" />
    <glyph glyph-name="lozenge" unicode="&#x25ca;" horiz-adv-x="534" 
d="M247 807l244 -518l-244 -522l-244 522zM247 688l-188 -399l188 -403l188 403z" />
    <glyph glyph-name="ydieresis" unicode="&#xff;" horiz-adv-x="547" 
d="M268 9q-55 0 -91.5 30.5t-61 85t-40 126t-21.5 93t-14 41t-12 23.5t-22 10.5t-18 24.5q0 26 31 26h183q32 0 32 -26q0 -18 -26.5 -27t-26.5 -41q0 -23 13.5 -79.5t31.5 -110t40 -79.5t45 -26q28 0 50 53t36 116.5t14 114.5q0 27 -5.5 36.5t-27 16.5t-21.5 25q0 27 32 27
h134q32 0 32 -26q0 -19 -18.5 -25.5t-24 -11t-9.5 -21.5t-13 -85t-43 -162.5t-111 -214.5t-197 -120q-37 0 -59 15t-22 40q0 43 48 43l29 -3l27 -5l13 -1q29 0 66 35t61 85zM179 651q28 0 47 -18t19 -45q0 -24 -19 -42t-47 -18t-48.5 18.5t-20.5 41.5q0 26 20.5 44.5
t48.5 18.5zM369 651q28 0 47.5 -18.5t19.5 -44.5q0 -25 -19.5 -42.5t-47.5 -17.5q-27 0 -47.5 18.5t-20.5 41.5q0 25 21 44t47 19z" />
    <glyph glyph-name="Ydieresis" unicode="&#x178;" horiz-adv-x="648" 
d="M82 537l-41 77q-20 39 -45 49l-9 3q-18 7 -18 27q0 12 9.5 20t24.5 8h209q34 0 34 -29q0 -22 -27 -29q-24 -8 -24 -27q0 -20 35 -80l53 -92l74 -106l74 101l61 103q18 29 25 44.5t7 25.5q0 22 -27.5 31t-27.5 30q0 13 9.5 20.5t26.5 7.5h138q35 0 35 -28q0 -21 -17 -27
l-8 -3q-7 -2 -14 -7.5t-11 -9.5t-10 -14l-56 -103q-20 -39 -49 -81t-114 -156v-181q0 -26 6 -36.5t29 -17.5t23 -29q0 -12 -9 -20t-25 -8h-195q-34 0 -34 28q0 22 22 29t29 17.5t7 33.5v184q-78 102 -113 152t-57 93zM230 927q28 0 47 -18t19 -45q0 -24 -19 -42t-47 -18
t-48.5 18.5t-20.5 41.5q0 26 20.5 44.5t48.5 18.5zM420 927q28 0 47.5 -18.5t19.5 -44.5q0 -25 -19.5 -42.5t-47.5 -17.5q-27 0 -47.5 18.5t-20.5 41.5q0 25 21 44t47 19z" />
    <glyph glyph-name="fraction" unicode="&#x2215;" horiz-adv-x="268" 
d="M-35 -37q-13 0 -22.5 8.5t-9.5 20.5q0 8 5 20l351 724q12 23 29 23q12 0 21 -8t9 -21q0 -12 -4 -21l-352 -724q-9 -22 -27 -22z" />
    <glyph glyph-name="currency" unicode="&#xa4;" horiz-adv-x="494" 
d="M103 272q-13 17 -21 42.5t-8 48.5q0 48 29 88l-59 57q14 20 33 37l62 -60q41 30 90 30q50 0 90 -29l60 60l10 -8q14 -12 25 -30l-59 -56q29 -41 29 -91t-30 -91l60 -60l-8 -8l-8 -9l-20 -18l-59 60q-41 -30 -90 -30q-50 0 -90 31l-62 -60l-9 8l-8 9l-9 9l-8 10zM156 287
q30 -30 74 -30q42 0 72 30t30 74q0 42 -30 72t-73 30t-73 -30t-30 -73q0 -41 30 -73z" />
    <glyph glyph-name="guilsinglleft" unicode="&#x2039;" horiz-adv-x="266" 
d="M174 438q19 25 36 25q24 0 24 -25q0 -11 -7 -25l-82 -182l82 -182q7 -14 7 -25q0 -25 -24 -25q-19 0 -36 25l-140 207z" />
    <glyph glyph-name="guilsinglright" unicode="&#x203a;" horiz-adv-x="266" 
d="M91 24q-17 -25 -35 -25q-24 0 -24 25q0 11 7 25l82 182l-82 182q-7 14 -7 25q0 25 24 25q17 0 35 -25l141 -208z" />
    <glyph glyph-name="fi" unicode="&#xf001;" 
d="M209 546l110 -110l110 111l80 -79l-111 -111l110 -109l-78 -78l-110 109l-109 -110l-79 80l109 109l-110 110z" />
    <glyph glyph-name="fl" unicode="&#xf002;" horiz-adv-x="416" 
d="M116 600h-25l-20 -1q-28 0 -39 6t-11 22q0 24 49 35q23 3 57.5 13t58.5 20t51 26t41 16q42 0 42 -53v-559q0 -32 4 -44t17 -15l33 -9q26 -5 26 -29q0 -28 -35 -28h-239q-15 0 -24.5 7.5t-9.5 20.5q0 24 27 29l32 9q14 4 19 20.5t5 59.5v402q0 30 -12 41t-47 11z" />
    <glyph glyph-name="daggerdbl" unicode="&#x2021;" horiz-adv-x="636" 
d="M91 314l23 -2l166 -18l-13 27q-10 25 -10 34q0 7 4 18t19 43l-163 -20l-18 -2q-69 0 -69 63q0 30 15 48t40 18l29 -2l162 -18l-17 145l-2 22q0 63 61 63q60 0 60 -63l-2 -22l-16 -145l162 21l24 2q59 0 59 -64q0 -35 -17 -51t-56 -16l-13 1l-163 20q14 -31 18 -42t4 -19
q0 -11 -9 -34q-2 -2 -5.5 -10t-7.5 -17l166 18l23 2q29 0 46 -16t17 -45q0 -28 -17 -46t-45 -18l-23 1l-160 21l23 -410v-7q0 -72 -68 -72q-37 0 -52.5 17.5t-15.5 55.5v6l22 410l-160 -21l-21 -1q-57 0 -63 65q6 34 20 47t43 13z" />
    <glyph glyph-name="periodcentered" unicode="&#x2219;" horiz-adv-x="231" 
d="M118 343q34 0 57 -21t23 -52t-23 -50t-60 -19q-34 0 -57.5 20.5t-23.5 49.5q0 30 24 51t60 21z" />
    <glyph glyph-name="quotesinglbase" unicode="&#x201a;" horiz-adv-x="212" 
d="M96 -2q-35 0 -56 17t-21 46q0 28 25.5 48.5t60.5 20.5q40 0 65 -25t25 -66q0 -19 -9 -39t-24.5 -45.5t-32.5 -46t-36 -34.5q-27 -23 -43 -23q-8 0 -14.5 6.5t-6.5 12.5q0 9 10 18l19 18q20 19 33 41.5t13 39.5l-1 11h-7z" />
    <glyph glyph-name="quotedblbase" unicode="&#x201e;" horiz-adv-x="419" 
d="M96 -2q-35 0 -56 17t-21 46q0 28 25.5 48.5t60.5 20.5q40 0 65 -25t25 -66q0 -19 -9 -39t-24.5 -45.5t-32.5 -46t-36 -34.5q-27 -23 -43 -23q-8 0 -14.5 6.5t-6.5 12.5q0 9 10 18l19 18q20 19 33 41.5t13 39.5l-1 11h-7zM304 -2q-35 0 -56 17t-21 46q0 28 25.5 48.5
t59.5 20.5q40 0 64.5 -25.5t24.5 -65.5q0 -20 -6 -37q-10 -22 -25.5 -47t-30 -42.5t-21 -24t-19.5 -14.5q-27 -23 -42 -23q-6 0 -14 6q-6 8 -6 13q0 7 9 18l20 18q44 41 44 81l-1 11h-5z" />
    <glyph glyph-name="perthousand" unicode="&#x2030;" horiz-adv-x="1215" 
d="M409 538q0 -81 -55 -136t-137 -55t-134 53t-52 137q0 86 52.5 142.5t134.5 56.5q45 0 70 -14l55 -28q24 -12 49.5 -19t45.5 -7q22 0 37 6t39 20l32 22l22 18q9 10 38 10q31 0 31 -19l-1 -8l-14 -25l-379 -679q-10 -17 -17 -22t-24 -5q-37 0 -37 18q0 9 16 30l330 598
q-50 -14 -69 -14h-6l-28 3h-12q13 -49 13 -83zM582 376q81 0 136 -55t55 -137q0 -84 -56.5 -140.5t-139.5 -56.5q-79 0 -132.5 54.5t-53.5 136.5q0 86 54 142t137 56zM992 376q82 0 137 -55t55 -137q0 -84 -56.5 -140.5t-139.5 -56.5q-80 0 -132.5 54.5t-52.5 136.5
q0 86 53 142t136 56zM492 177q0 -64 23 -100t67 -36q40 0 64 38t24 103t-23.5 103.5t-63.5 38.5q-43 0 -67 -38.5t-24 -108.5zM132 543q0 -62 24 -102t62 -40q42 0 67 38t25 103q0 64 -23.5 102t-63.5 38q-41 0 -66 -38t-25 -101zM903 177q0 -64 23 -100t66 -36q41 0 65 38
t24 103q0 64 -24 103t-62 39q-44 0 -68 -38t-24 -109z" />
    <glyph glyph-name="Acircumflex" unicode="&#xc2;" horiz-adv-x="737" 
d="M174 194q-23 -64 -23 -89q0 -21 7 -31t30 -17.5t23 -28.5q0 -13 -9.5 -20.5t-26.5 -7.5h-156q-15 0 -24.5 7.5t-9.5 20.5q0 20 18 27l9 2q16 7 23 16t18 38l33 90l76 195q65 160 102 226t42.5 74t13 17.5t17.5 13.5t33 4q25 0 32.5 -5t33 -42.5t58 -105t73 -165
t73 -184.5t41 -109.5t17 -38t28.5 -24.5l8 -2q18 -7 18 -27q0 -12 -9 -20t-25 -8h-214q-35 0 -35 28q0 21 26 29q31 12 31 40q0 14 -5 32.5t-19 55.5l-20 54h-292zM218 318h236q-16 46 -26.5 72t-28.5 70.5t-26 62.5t-37 72q-28 -58 -37 -77.5t-30 -68.5zM264 801
q-16 -7 -19 -7q-12 0 -19 10t-7 24q0 17 17 33l102 89q5 4 14.5 10.5t15.5 6.5q5 0 13.5 -5t16.5 -12l102 -89q17 -16 17 -33q0 -13 -7.5 -23.5t-17.5 -10.5q-7 0 -19 7l-105 62z" />
    <glyph glyph-name="Ecircumflex" unicode="&#xca;" horiz-adv-x="654" 
d="M252 422l78 -1h25h16q27 0 35 1t21 4t22 9l16 8q25 15 38 15t19 -13l4 -14q2 -10 2.5 -26.5t0.5 -28.5q0 -35 -5 -47t-20 -12q-11 0 -29 8l-16 8l-15 8l-17 7q-4 1 -30 4t-60 3h-8l-78 -1h-16v-199v-34q0 -9 4 -21t10.5 -19t30 -11t70.5 -4q78 0 131 13q35 6 76 41l17 14
q23 20 37 20q11 0 18 -10t7 -24l-1 -8l-7 -44q-7 -47 -19.5 -57.5t-63.5 -10.5h-484q-35 0 -35 28q0 22 26 29q18 7 25 18.5t7 35.5v499q0 25 -6.5 36t-29 18.5t-22.5 28.5q0 28 35 28h450q48 0 62 -6.5t17 -15.5q7 -12 10 -45l2 -39q0 -31 -26 -31q-17 0 -50 30l-18 16
q-7 6 -17.5 10.5t-21.5 7.5l-24 3q-70 7 -114 7q-61 0 -78 -8.5t-17 -38.5v-189h16zM223 801q-16 -7 -19 -7q-12 0 -19 10t-7 24q0 17 17 33l102 89q5 4 14.5 10.5t15.5 6.5q5 0 13.5 -5t16.5 -12l102 -89q17 -16 17 -33q0 -13 -7.5 -23.5t-17.5 -10.5q-7 0 -19 7l-105 62z
" />
    <glyph glyph-name="Aacute" unicode="&#xc1;" horiz-adv-x="737" 
d="M174 194q-23 -64 -23 -89q0 -21 7 -31t30 -17.5t23 -28.5q0 -13 -9.5 -20.5t-26.5 -7.5h-156q-15 0 -24.5 7.5t-9.5 20.5q0 20 18 27l9 2q16 7 23 16t18 38l33 90l76 195q65 160 102 226t42.5 74t13 17.5t17.5 13.5t33 4q25 0 32.5 -5t33 -42.5t58 -105t73 -165
t73 -184.5t41 -109.5t17 -38t28.5 -24.5l8 -2q18 -7 18 -27q0 -12 -9 -20t-25 -8h-214q-35 0 -35 28q0 21 26 29q31 12 31 40q0 14 -5 32.5t-19 55.5l-20 54h-292zM218 318h236q-16 46 -26.5 72t-28.5 70.5t-26 62.5t-37 72q-28 -58 -37 -77.5t-30 -68.5zM326 798
q-11 0 -19 9t-8 23q0 16 19 33l98 87q17 14 30 14q16 0 27 -13t11 -32q0 -29 -30 -47l-108 -67q-11 -7 -20 -7z" />
    <glyph glyph-name="Edieresis" unicode="&#xcb;" horiz-adv-x="654" 
d="M252 422l78 -1h25h16q27 0 35 1t21 4t22 9l16 8q25 15 38 15t19 -13l4 -14q2 -10 2.5 -26.5t0.5 -28.5q0 -35 -5 -47t-20 -12q-11 0 -29 8l-16 8l-15 8l-17 7q-4 1 -30 4t-60 3h-8l-78 -1h-16v-199v-34q0 -9 4 -21t10.5 -19t30 -11t70.5 -4q78 0 131 13q35 6 76 41l17 14
q23 20 37 20q11 0 18 -10t7 -24l-1 -8l-7 -44q-7 -47 -19.5 -57.5t-63.5 -10.5h-484q-35 0 -35 28q0 22 26 29q18 7 25 18.5t7 35.5v499q0 25 -6.5 36t-29 18.5t-22.5 28.5q0 28 35 28h450q48 0 62 -6.5t17 -15.5q7 -12 10 -45l2 -39q0 -31 -26 -31q-17 0 -50 30l-18 16
q-7 6 -17.5 10.5t-21.5 7.5l-24 3q-70 7 -114 7q-61 0 -78 -8.5t-17 -38.5v-189h16zM233 927q28 0 47 -18t19 -45q0 -24 -19 -42t-47 -18t-48.5 18.5t-20.5 41.5q0 26 20.5 44.5t48.5 18.5zM423 927q28 0 47.5 -18.5t19.5 -44.5q0 -25 -19.5 -42.5t-47.5 -17.5
q-27 0 -47.5 18.5t-20.5 41.5q0 25 21 44t47 19z" />
    <glyph glyph-name="Egrave" unicode="&#xc8;" horiz-adv-x="654" 
d="M252 422l78 -1h25h16q27 0 35 1t21 4t22 9l16 8q25 15 38 15t19 -13l4 -14q2 -10 2.5 -26.5t0.5 -28.5q0 -35 -5 -47t-20 -12q-11 0 -29 8l-16 8l-15 8l-17 7q-4 1 -30 4t-60 3h-8l-78 -1h-16v-199v-34q0 -9 4 -21t10.5 -19t30 -11t70.5 -4q78 0 131 13q35 6 76 41l17 14
q23 20 37 20q11 0 18 -10t7 -24l-1 -8l-7 -44q-7 -47 -19.5 -57.5t-63.5 -10.5h-484q-35 0 -35 28q0 22 26 29q18 7 25 18.5t7 35.5v499q0 25 -6.5 36t-29 18.5t-22.5 28.5q0 28 35 28h450q48 0 62 -6.5t17 -15.5q7 -12 10 -45l2 -39q0 -31 -26 -31q-17 0 -50 30l-18 16
q-7 6 -17.5 10.5t-21.5 7.5l-24 3q-70 7 -114 7q-61 0 -78 -8.5t-17 -38.5v-189h16zM217 919q0 18 10.5 31.5t24.5 13.5t36 -19l94 -81q20 -18 20 -33q0 -12 -6 -19q-8 -15 -21 -15q-8 0 -22 9l-105 65q-31 19 -31 48z" />
    <glyph glyph-name="Iacute" unicode="&#xcd;" horiz-adv-x="316" 
d="M52 663q-26 9 -26 30q0 28 35 28h194q35 0 35 -28q0 -21 -23.5 -29t-29.5 -17.5t-6 -36.5v-499q0 -24 7 -35.5t26 -18.5q26 -7 26 -29q0 -28 -35 -28h-194q-35 0 -35 28q0 22 26 29q18 7 25 18.5t7 35.5v499q0 25 -6.5 36t-25.5 17zM115 798q-11 0 -19 9t-8 23
q0 16 19 33l98 87q17 14 30 14q16 0 27 -13t11 -32q0 -29 -30 -47l-108 -67q-11 -7 -20 -7z" />
    <glyph glyph-name="Icircumflex" unicode="&#xce;" horiz-adv-x="316" 
d="M52 663q-26 9 -26 30q0 28 35 28h194q35 0 35 -28q0 -21 -23.5 -29t-29.5 -17.5t-6 -36.5v-499q0 -24 7 -35.5t26 -18.5q26 -7 26 -29q0 -28 -35 -28h-194q-35 0 -35 28q0 22 26 29q18 7 25 18.5t7 35.5v499q0 25 -6.5 36t-25.5 17zM54 801q-16 -7 -19 -7q-12 0 -19 10
t-7 24q0 17 17 33l102 89q5 4 14.5 10.5t15.5 6.5q5 0 13.5 -5t16.5 -12l102 -89q17 -16 17 -33q0 -13 -7.5 -23.5t-17.5 -10.5q-7 0 -19 7l-105 62z" />
    <glyph glyph-name="Idieresis" unicode="&#xcf;" horiz-adv-x="316" 
d="M52 663q-26 9 -26 30q0 28 35 28h194q35 0 35 -28q0 -21 -23.5 -29t-29.5 -17.5t-6 -36.5v-499q0 -24 7 -35.5t26 -18.5q26 -7 26 -29q0 -28 -35 -28h-194q-35 0 -35 28q0 22 26 29q18 7 25 18.5t7 35.5v499q0 25 -6.5 36t-25.5 17zM64 927q28 0 47 -18t19 -45
q0 -24 -19 -42t-47 -18t-48.5 18.5t-20.5 41.5q0 26 20.5 44.5t48.5 18.5zM254 927q28 0 47.5 -18.5t19.5 -44.5q0 -25 -19.5 -42.5t-47.5 -17.5q-27 0 -47.5 18.5t-20.5 41.5q0 25 21 44t47 19z" />
    <glyph glyph-name="Igrave" unicode="&#xcc;" horiz-adv-x="316" 
d="M52 663q-26 9 -26 30q0 28 35 28h194q35 0 35 -28q0 -21 -23.5 -29t-29.5 -17.5t-6 -36.5v-499q0 -24 7 -35.5t26 -18.5q26 -7 26 -29q0 -28 -35 -28h-194q-35 0 -35 28q0 22 26 29q18 7 25 18.5t7 35.5v499q0 25 -6.5 36t-25.5 17zM48 919q0 18 10.5 31.5t24.5 13.5
t36 -19l94 -81q20 -18 20 -33q0 -12 -6 -19q-8 -15 -21 -15q-8 0 -22 9l-105 65q-31 19 -31 48z" />
    <glyph glyph-name="Oacute" unicode="&#xd3;" horiz-adv-x="848" 
d="M152 631q104 103 272 103t244 -77t106 -150.5t30 -146.5q0 -76 -28.5 -146.5t-104.5 -149t-247 -78.5q-88 0 -152 24t-117.5 77t-82.5 124t-29 149q0 75 29 147t80 124zM201 360q0 -128 65 -217t159 -89q93 0 158 89t65 217t-65 217t-158 89t-158.5 -89.5t-65.5 -216.5z
M381 798q-11 0 -19 9t-8 23q0 16 19 33l98 87q17 14 30 14q16 0 27 -13t11 -32q0 -29 -30 -47l-108 -67q-11 -7 -20 -7z" />
    <glyph glyph-name="Ocircumflex" unicode="&#xd4;" horiz-adv-x="848" 
d="M152 631q104 103 272 103t244 -77t106 -150.5t30 -146.5q0 -76 -28.5 -146.5t-104.5 -149t-247 -78.5q-88 0 -152 24t-117.5 77t-82.5 124t-29 149q0 75 29 147t80 124zM201 360q0 -128 65 -217t159 -89q93 0 158 89t65 217t-65 217t-158 89t-158.5 -89.5t-65.5 -216.5z
M320 801q-16 -7 -19 -7q-12 0 -19 10t-7 24q0 17 17 33l102 89q5 4 14.5 10.5t15.5 6.5q5 0 13.5 -5t16.5 -12l102 -89q17 -16 17 -33q0 -13 -7.5 -23.5t-17.5 -10.5q-7 0 -19 7l-105 62z" />
    <glyph glyph-name="apple" unicode="&#xf000;" horiz-adv-x="854" 
d="M408 594l-1 7v11q0 61 46 112t116 64v-12l1 -18q0 -64 -50.5 -114.5t-99.5 -50.5h-4zM735 197q-56 -121 -101 -167.5t-99 -46.5q-25 0 -64 16t-60 16q-23 0 -64 -16t-62 -16q-30 0 -63 21q-13 10 -30.5 27.5t-48.5 60t-59.5 120.5t-28.5 148q0 107 61.5 174.5t157.5 67.5
q16 0 35.5 -4t51.5 -17t49 -13q18 0 61 17t73 17q55 0 97.5 -19.5t77.5 -60.5q-49 -31 -73.5 -70.5t-24.5 -89.5q0 -54 30 -98t84 -67z" />
    <glyph glyph-name="Ograve" unicode="&#xd2;" horiz-adv-x="848" 
d="M152 631q104 103 272 103t244 -77t106 -150.5t30 -146.5q0 -76 -28.5 -146.5t-104.5 -149t-247 -78.5q-88 0 -152 24t-117.5 77t-82.5 124t-29 149q0 75 29 147t80 124zM201 360q0 -128 65 -217t159 -89q93 0 158 89t65 217t-65 217t-158 89t-158.5 -89.5t-65.5 -216.5z
M314 919q0 18 10.5 31.5t24.5 13.5t36 -19l94 -81q20 -18 20 -33q0 -12 -6 -19q-8 -15 -21 -15q-8 0 -22 9l-105 65q-31 19 -31 48z" />
    <glyph glyph-name="Uacute" unicode="&#xda;" horiz-adv-x="772" 
d="M739 692q0 -20 -22.5 -27.5t-28 -18t-5.5 -36.5v-18q6 -61 9 -138.5t3 -143.5l-2 -64q0 -45 -12 -81.5t-62 -107.5t-222 -71q-137 0 -205.5 48t-92 107.5t-23.5 160.5q0 57 4 137.5t11 156.5l1 16q0 25 -6 34.5t-29 17t-23 29.5q0 28 34 28h191q35 0 35 -29
q0 -20 -23.5 -28t-30 -20t-6.5 -49l-9 -126l-6 -114l-1 -72q0 -83 20 -127.5t66.5 -71.5t108.5 -27q78 0 125.5 39.5t59 79t13.5 62.5t2 71l-1 51q0 39 -1 62.5t-3 47.5l-8 122q0 41 -6 52.5t-31 19.5t-25 29q0 28 35 28h131q35 0 35 -29zM343 798q-11 0 -19 9t-8 23
q0 16 19 33l98 87q17 14 30 14q16 0 27 -13t11 -32q0 -29 -30 -47l-108 -67q-11 -7 -20 -7z" />
    <glyph glyph-name="Ucircumflex" unicode="&#xdb;" horiz-adv-x="772" 
d="M739 692q0 -20 -22.5 -27.5t-28 -18t-5.5 -36.5v-18q6 -61 9 -138.5t3 -143.5l-2 -64q0 -45 -12 -81.5t-62 -107.5t-222 -71q-137 0 -205.5 48t-92 107.5t-23.5 160.5q0 57 4 137.5t11 156.5l1 16q0 25 -6 34.5t-29 17t-23 29.5q0 28 34 28h191q35 0 35 -29
q0 -20 -23.5 -28t-30 -20t-6.5 -49l-9 -126l-6 -114l-1 -72q0 -83 20 -127.5t66.5 -71.5t108.5 -27q78 0 125.5 39.5t59 79t13.5 62.5t2 71l-1 51q0 39 -1 62.5t-3 47.5l-8 122q0 41 -6 52.5t-31 19.5t-25 29q0 28 35 28h131q35 0 35 -29zM282 801q-16 -7 -19 -7
q-12 0 -19 10t-7 24q0 17 17 33l102 89q5 4 14.5 10.5t15.5 6.5q5 0 13.5 -5t16.5 -12l102 -89q17 -16 17 -33q0 -13 -7.5 -23.5t-17.5 -10.5q-7 0 -19 7l-105 62z" />
    <glyph glyph-name="Ugrave" unicode="&#xd9;" horiz-adv-x="772" 
d="M739 692q0 -20 -22.5 -27.5t-28 -18t-5.5 -36.5v-18q6 -61 9 -138.5t3 -143.5l-2 -64q0 -45 -12 -81.5t-62 -107.5t-222 -71q-137 0 -205.5 48t-92 107.5t-23.5 160.5q0 57 4 137.5t11 156.5l1 16q0 25 -6 34.5t-29 17t-23 29.5q0 28 34 28h191q35 0 35 -29
q0 -20 -23.5 -28t-30 -20t-6.5 -49l-9 -126l-6 -114l-1 -72q0 -83 20 -127.5t66.5 -71.5t108.5 -27q78 0 125.5 39.5t59 79t13.5 62.5t2 71l-1 51q0 39 -1 62.5t-3 47.5l-8 122q0 41 -6 52.5t-31 19.5t-25 29q0 28 35 28h131q35 0 35 -29zM276 919q0 18 10.5 31.5t24.5 13.5
t36 -19l94 -81q20 -18 20 -33q0 -12 -6 -19q-8 -15 -21 -15q-8 0 -22 9l-105 65q-31 19 -31 48z" />
    <glyph glyph-name="dotlessi" unicode="&#x131;" horiz-adv-x="283" 
d="M19 26q0 19 21 26t27.5 16.5t6.5 30.5v235q0 36 -27.5 45.5t-27.5 26.5q0 21 26 31l103 38l23 5q18 0 28 -20t10 -56v-302q0 -25 5.5 -34t26.5 -16t21 -26q0 -26 -33 -26h-177q-33 0 -33 26z" />
    <glyph glyph-name="circumflex" unicode="&#x302;" horiz-adv-x="288" 
d="M40 525q-16 -7 -19 -7q-12 0 -19 10t-7 24q0 17 17 33l102 89q5 4 14.5 10.5t15.5 6.5q5 0 13.5 -5t16.5 -12l102 -89q17 -16 17 -33q0 -13 -7.5 -23.5t-17.5 -10.5q-7 0 -19 7l-105 62z" />
    <glyph glyph-name="tilde" unicode="&#x303;" horiz-adv-x="276" 
d="M85 550q-24 0 -42 -12l-15 -9q-3 -4 -9 -4q-22 0 -22 43q0 25 24.5 45.5t55.5 20.5q16 0 58 -15.5t57 -15.5q17 0 36 10l15 9l13 4q9 0 16 -11.5t7 -27.5q0 -26 -23 -46t-54 -20q-6 0 -15 1.5l-15 2.5l-29 11q-37 14 -58 14z" />
    <glyph glyph-name="macron" unicode="&#x2c9;" horiz-adv-x="269" 
d="M-5 569q0 43 62 43h157q61 0 61 -39q0 -43 -62 -43h-158q-60 0 -60 39z" />
    <glyph glyph-name="breve" unicode="&#x2d8;" horiz-adv-x="285" 
d="M24 681q77 -82 118 -82q19 0 50.5 21.5t68.5 60.5h27q-53 -163 -141 -163q-95 0 -152 163h29z" />
    <glyph glyph-name="dotaccent" unicode="&#x2d9;" horiz-adv-x="226" 
d="M-3 891q0 21 11 34t28 13q15 0 36 -18l101 -88q22 -17 22 -34q0 -5 -2 -10.5t-8 -16t-20 -10.5q-11 0 -23 9l-113 69q-32 20 -32 52z" />
    <glyph glyph-name="ring" unicode="&#x2da;" horiz-adv-x="238" 
d="M120 689q35 0 60 -25t25 -60q0 -36 -25 -62t-60 -26q-36 0 -61 25t-25 61q0 35 25 61t61 26zM85 603q0 -15 10 -26t25 -11q14 0 24 11t10 26q0 14 -10 24t-24 10t-24.5 -10t-10.5 -24z" />
    <glyph glyph-name="cedilla" unicode="&#xb8;" horiz-adv-x="175" 
d="M-14 -181l18 -1q33 0 54 13t21 34q0 28 -44 43l58 96l36 -1l-27 -62q45 -23 45 -65q0 -39 -33.5 -63.5t-86.5 -24.5l-49 3z" />
    <glyph glyph-name="hungarumlaut" unicode="&#x2ba;" horiz-adv-x="201" 
d="M58 522q-11 0 -19 9t-8 23q0 16 19 33l98 87q17 14 30 14q16 0 27 -13t11 -32q0 -29 -30 -47l-108 -67q-11 -7 -20 -7z" />
    <glyph glyph-name="ogonek" unicode="&#x2db;" horiz-adv-x="202" 
d="M104 130q34 0 57 -21t23 -52t-23 -50t-62 -19q-33 0 -57 20t-24 49q0 30 25.5 51.5t60.5 21.5z" />
    <glyph glyph-name="caron" unicode="&#x2c7;" horiz-adv-x="289" 
d="M249 683q4 4 9.5 6t9.5 2q10 0 18 -10t8 -25t-18 -32l-101 -89q-20 -17 -31 -17q-13 0 -30 17l-102 89q-17 16 -17 32q0 14 7 24.5t17 10.5q9 0 21 -8l104 -61z" />
    <glyph glyph-name="glyph225" horiz-adv-x="656" 
d="M571 358q22 -20 36 -56.5t14 -73.5q0 -108 -83.5 -175t-217.5 -67t-213.5 63t-79.5 112q0 20 13.5 34.5t34.5 14.5q28 0 50.5 -38t36 -53.5t49.5 -38.5t99 -23q74 0 122 37t48 95q0 77 -110 100l-111 23q-96 22 -149 74t-53 128q0 96 78.5 157.5t200.5 61.5q52 0 105 -12
t92 -33q20 -13 28.5 -39t8.5 -63q0 -47 -36 -47q-15 0 -29 20l-23 37q-7 11 -29.5 28.5t-49 31.5t-72.5 14q-60 0 -97 -30t-37 -78q0 -38 26 -67q16 -16 33 -25t55 -18l146 -37q74 -18 114 -57zM432 959q4 4 9.5 6t9.5 2q10 0 18 -10t8 -25t-18 -32l-101 -89
q-20 -17 -31 -17q-13 0 -30 17l-102 89q-17 16 -17 32q0 14 7 24.5t17 10.5q9 0 21 -8l104 -61z" />
    <glyph glyph-name="glyph226" horiz-adv-x="486" 
d="M395 249q59 -44 59 -94q0 -72 -62 -120t-155 -48q-80 0 -141.5 35t-61.5 81q0 17 10.5 28.5t25.5 11.5q8 0 15 -4q12 -4 20 -14l20 -23q40 -52 104 -52q39 0 66 19t27 48q0 23 -12 34.5t-19.5 15.5t-36.5 11l-83 20q-16 3 -25 7t-28 14q-38 24 -53 47t-15 58
q0 71 55.5 114t148.5 43q45 0 90 -12t68 -29t23 -75q0 -28 -27 -28q-24 0 -53.5 42t-98.5 42q-33 0 -53 -16t-20 -43t14 -39t28.5 -17.5t35.5 -10.5l87 -23q22 -5 47 -23zM347 683q4 4 9.5 6t9.5 2q10 0 18 -10t8 -25t-18 -32l-101 -89q-20 -17 -31 -17q-13 0 -30 17
l-102 89q-17 16 -17 32q0 14 7 24.5t17 10.5q9 0 21 -8l104 -61z" />
    <glyph glyph-name="glyph227" horiz-adv-x="613" 
d="M84 1q-34 0 -47.5 10t-13.5 34q0 29 9.5 47t17 31t34.5 54.5t47.5 69.5t86.5 111.5t108.5 143.5t64.5 96t22 47q0 12 -30 12h-11l-70 -1q-36 0 -62.5 -2t-47.5 -8q-37 -5 -64.5 -39t-45.5 -34q-28 0 -28 40l1 8l8 64q2 20 11 27.5t31 7.5l32 1h373q31 0 48 -4.5t17 -34.5
q0 -27 -6 -43.5t-10.5 -27t-25 -44.5t-73 -107.5t-119 -158t-93.5 -122t-42 -66.5t-15 -37q0 -7 20 -7h18h40h41h12q36 0 90.5 5t86.5 38l22 23q20 22 39 22q26 0 26 -32l-1 -9l-13 -76q-3 -21 -11 -29t-15.5 -9t-19.5 -1l-36 -1h-374zM411 959q4 4 9.5 6t9.5 2q10 0 18 -10
t8 -25t-18 -32l-101 -89q-20 -17 -31 -17q-13 0 -30 17l-102 89q-17 16 -17 32q0 14 7 24.5t17 10.5q9 0 21 -8l104 -61z" />
    <glyph glyph-name="glyph228" horiz-adv-x="478" 
d="M291 391l10 13q0 5 -13 8t-26 3h-47l-52 -2q-27 -3 -44 -24l-24 -28q-14 -15 -28 -15q-25 0 -25 28l1 11l12 58q4 16 20 21q5 3 13.5 4t28.5 1h268q42 0 55 -8q13 -11 13 -36v-7q-2 -18 -15 -36.5t-70 -86.5l-94 -110l-77 -92q-18 -20 -18 -29q7 -5 13 -5h6l21 3l67 1
q59 0 90 34l29 31q13 11 24 11q23 0 23 -31l-1 -11l-13 -65q-9 -32 -54 -32h-313q-53 0 -53 38q0 15 5 24q8 20 39.5 63.5t67.5 84.5l99 112l50 57zM343 683q4 4 9.5 6t9.5 2q10 0 18 -10t8 -25t-18 -32l-101 -89q-20 -17 -31 -17q-13 0 -30 17l-102 89q-17 16 -17 32
q0 14 7 24.5t17 10.5q9 0 21 -8l104 -61z" />
    <glyph glyph-name="Eurosymbolbar" horiz-adv-x="534" 
d="M0 392l27 64h507l-27 -64h-507zM0 264l27 64h453l-27 -64h-453z" />
    <glyph glyph-name="Euro" horiz-adv-x="754" 
d="M680 186q38 0 38 -37q0 -14 -11 -32t-43.5 -49.5t-99.5 -56.5t-140 -25q-165 0 -273.5 105.5t-108.5 264.5t114 269t278 110q75 0 147.5 -24t91.5 -50.5t21 -44t5 -42t3 -40.5q0 -35 -30 -35q-17 0 -29 10t-32 46t-58.5 73t-121.5 37q-102 0 -167 -87t-65 -223
q0 -131 66 -210t176 -79q52 0 102 21t84 58l26 29q11 12 27 12zM-8 392l27 64h507l-27 -64h-507zM-8 264l27 64h453l-27 -64h-453z" />
    <glyph glyph-name="Euro" unicode="&#x20ac;" horiz-adv-x="754" 
d="M680 186q38 0 38 -37q0 -14 -11 -32t-43.5 -49.5t-99.5 -56.5t-140 -25q-165 0 -273.5 105.5t-108.5 264.5t114 269t278 110q75 0 147.5 -24t91.5 -50.5t21 -44t5 -42t3 -40.5q0 -35 -30 -35q-17 0 -29 10t-32 46t-58.5 73t-121.5 37q-102 0 -167 -87t-65 -223
q0 -131 66 -210t176 -79q52 0 102 21t84 58l26 29q11 12 27 12zM-8 392l27 64h507l-27 -64h-507zM-8 264l27 64h453l-27 -64h-453z" />
  </font>
</defs>
</svg>
